<?xml version="1.0" standalone="no"?>
<!DOCTYPE svg PUBLIC "-//W3C//DTD SVG 1.1//EN" "http://www.w3.org/Graphics/SVG/1.1/DTD/svg11.dtd">
<svg xmlns="http://www.w3.org/2000/svg">
<defs >
<font id="FiraSans" horiz-adv-x="570" ><font-face
    font-family="Fira Sans SemiBold"
    units-per-em="1000"
    panose-1="2 11 6 3 5 0 0 2 0 4"
    ascent="935"
    descent="-265"
    alphabetic="0" />
<glyph unicode=" " glyph-name="space" horiz-adv-x="244" />
<glyph unicode="!" glyph-name="exclam" horiz-adv-x="241" d="M195 692L178 249H62L43 692H195ZM156 155T181 130T206 70Q206 35 181 10T120 -16Q85 -16 60 9T35 70Q35 105 60 130T120 155Q156 155 181 130Z" />
<glyph unicode="&quot;" glyph-name="quotedbl" horiz-adv-x="430" d="M69 417L51 692H183L165 417H69ZM265 417L247 692H379L361 417H265Z" />
<glyph unicode="#" glyph-name="numbersign" horiz-adv-x="547" d="M532 442H461L435 244H495V148H423L403 0H285L305 148H191L171 0H53L73 148H15V244H85L111 442H52V538H124L142 674H260L242 538H356L374 674H492L474 538H532V442ZM317 244L343 442H229L203 244H317Z" />
<glyph unicode="$" glyph-name="dollar" horiz-adv-x="545" d="M516 120T468 66T333 -4V-160H227V-10Q96 0 13 83L87 163Q160 96 255 96Q307 96 338 120T370 187Q370 214 359 232T321 264T242 294Q134 328 88 375T41 497Q41 571 92 621T227 682V829H333V681Q426
667 497 601L429 522Q365 579 283 579Q239 579 213 561T186 507Q186 483 197 468T235 439T319 408Q419 377 467 330T516 196Q516 120 468 66Z" />
<glyph unicode="%" glyph-name="percent" horiz-adv-x="851" d="M613 718L703 661L239 -38L150 19L613 718ZM257 687T296 666T358 604T381 510Q381 457 359 417T297 355T207 333Q158 333 119 354T56 416T33 510Q33 563 56 603T118 665T207 687Q257 687 296 666ZM138
600T138 510Q138 471 153 446T207 420Q275 420 275 510Q275 600 207 600Q138 600 138 510ZM694 338T733 317T795 255T818 161Q818 108 796 68T733 6T644 -16Q595 -16 555 6T492 68T469 161Q469 214 492 254T555 316T644 338Q694 338 733 317ZM575 251T575 161Q575
122 590 97T644 71Q712 71 712 161Q712 251 644 251Q575 251 575 161Z" />
<glyph unicode="&amp;" glyph-name="ampersand" horiz-adv-x="753" d="M373 708T420 688T492 631T517 550Q517 492 482 448T382 362L528 226Q560 294 578 376L699 340Q662 230 608 151L727 45L609 -16L526 64Q436 -16 307 -16Q236 -16 181 8T96 75T65 177Q65 238
98 283T201 373Q148 424 127 460T105 544Q105 589 128 626T197 685T310 708Q373 708 420 688ZM279 614T261 595T242 545Q242 517 256 494T304 437Q343 462 362 487T381 545Q381 577 363 595T312 614Q279 614 261 595ZM246 271T230 244T213 184Q213 139 245 113T330
87Q399 87 453 133L282 296Q246 271 230 244Z" />
<glyph unicode="&apos;" glyph-name="quotesingle" horiz-adv-x="234" d="M69 417L51 692H183L165 417H69Z" />
<glyph unicode="(" glyph-name="parenleft" horiz-adv-x="324" d="M306 794Q234 690 201 590T168 350Q168 211 201 111T306 -94L215 -155Q150 -65 112 -1T49 151T23 350Q23 461 48 548T112 700T215 855L306 794Z" />
<glyph unicode=")" glyph-name="parenright" horiz-adv-x="324" d="M174 765T212 701T275 549T301 350Q301 239 276 152T212 0T109 -155L19 -94Q91 10 124 110T157 350Q157 489 124 589T19 794L109 855Q174 765 212 701Z" />
<glyph unicode="*" glyph-name="asterisk" horiz-adv-x="447" d="M436 542L292 516L394 411L293 337L223 465L155 336L54 410L154 515L11 541L49 657L180 595L161 741H286L267 593L397 658L436 542Z" />
<glyph unicode="+" glyph-name="plus" horiz-adv-x="523" d="M321 542V387H471V276H321V122H201V276H52V387H201V542H321Z" />
<glyph unicode="," glyph-name="comma" horiz-adv-x="240" d="M156 155T180 131T205 70Q205 50 199 29T177 -28L112 -174H29L71 0Q54 11 44 29T34 70Q34 106 58 130T119 155Q156 155 180 131Z" />
<glyph unicode="-" glyph-name="hyphen" horiz-adv-x="406" d="M48 257V369H358V257H48Z" />
<glyph unicode="." glyph-name="period" horiz-adv-x="240" d="M155 155T180 130T205 70Q205 35 180 10T119 -16Q84 -16 59 9T34 70Q34 105 59 130T119 155Q155 155 180 130Z" />
<glyph unicode="/" glyph-name="slash" horiz-adv-x="520" d="M316 814L439 786L205 -110L81 -81L316 814Z" />
<glyph unicode="0" glyph-name="zero" horiz-adv-x="579" d="M411 687T474 597T537 336Q537 166 474 75T289 -16Q168 -16 105 75T42 336Q42 506 105 596T289 687Q411 687 474 597ZM253 581T231 558T199 481T188 336Q188 245 198 192T231 115T289 91Q325 91 347
114T380 190T391 336Q391 429 380 482T347 558T289 581Q253 581 231 558Z" />
<glyph unicode="1" glyph-name="one" horiz-adv-x="456" d="M367 674V0H228V534L80 443L18 539L242 674H367Z" />
<glyph unicode="2" glyph-name="two" horiz-adv-x="512" d="M306 687T357 662T434 593T461 496Q461 441 438 390T358 275T193 110H476L460 0H31V103Q157 229 213 291T292 396T315 484Q315 527 290 552T223 577Q186 577 157 561T96 506L11 574Q97 687 236 687Q306
687 357 662Z" />
<glyph unicode="3" glyph-name="three" horiz-adv-x="515" d="M304 687T353 665T428 603T454 516Q454 455 419 415T322 357Q390 350 433 308T476 191Q476 133 447 86T360 12T225 -16Q82 -16 1 84L78 158Q112 124 145 109T217 94Q269 94 299 122T330 200Q330 254
301 278T214 302H159L176 402H213Q260 402 288 427T316 497Q316 536 291 558T221 580Q183 580 151 566T88 522L17 599Q110 687 235 687Q304 687 353 665Z" />
<glyph unicode="4" glyph-name="four" horiz-adv-x="557" d="M534 258V150H455V0H317L316 150H31V246L225 689L345 644L178 258H318L333 423H455V258H534Z" />
<glyph unicode="5" glyph-name="five" horiz-adv-x="527" d="M446 571H197V416Q246 439 299 439Q355 439 398 413T467 338T492 221Q492 151 460 98T370 14T234 -16Q104 -16 16 82L96 157Q152 93 230 93Q285 93 315 126T346 221Q346 340 244 340Q222 340 203 335T160
316H61V674H463L446 571Z" />
<glyph unicode="6" glyph-name="six" horiz-adv-x="556" d="M391 451T434 425T503 350T528 230Q528 160 499 104T415 16T291 -16Q164 -16 103 70T42 310Q42 423 76 508T175 640T326 687Q413 687 476 644L424 557Q378 584 329 584Q268 584 231 531T189 382Q249
451 336 451Q391 451 434 425ZM338 88T361 125T385 228Q385 294 364 322T299 351Q238 351 189 289Q191 181 214 135T292 88Q338 88 361 125Z" />
<glyph unicode="7" glyph-name="seven" horiz-adv-x="462" d="M441 674V576L193 -15L64 28L294 566H16V674H441Z" />
<glyph unicode="8" glyph-name="eight" horiz-adv-x="574" d="M473 330T506 286T540 182Q540 127 509 82T420 10T284 -16Q208 -16 151 10T64 80T33 179Q33 293 160 349Q60 406 60 508Q60 562 90 602T171 665T287 687Q385 687 449 641T514 514Q514 420 404 362Q473
330 506 286ZM246 590T222 569T198 506Q198 469 220 447T290 405L310 398Q346 421 361 446T376 507Q376 545 353 567T288 590Q246 590 222 569ZM340 88T368 114T397 183Q397 226 372 251T283 299L251 310Q176 271 176 185Q176 140 206 114T288 88Q340 88 368 114Z"
/>
<glyph unicode="9" glyph-name="nine" horiz-adv-x="552" d="M391 687T453 616T516 426Q516 289 474 201T343 59T111 -27L81 74Q213 107 280 159T364 305Q310 236 222 236Q169 236 126 263T57 340T31 457Q31 526 63 578T150 658T273 687Q391 687 453 616ZM327
338T371 402Q372 501 350 542T273 584Q226 584 200 553T173 461Q173 397 197 368T263 338Q327 338 371 402Z" />
<glyph unicode=":" glyph-name="colon" horiz-adv-x="240" d="M155 155T180 130T205 70Q205 35 180 10T119 -16Q84 -16 59 9T34 70Q34 105 59 130T119 155Q155 155 180 130ZM155 506T180 481T205 421Q205 386 180 361T119 335Q84 335 59 360T34 421Q34 456 59
481T119 506Q155 506 180 481Z" />
<glyph unicode=";" glyph-name="semicolon" horiz-adv-x="240" d="M156 155T180 131T205 70Q205 50 199 29T177 -28L112 -174H29L71 0Q54 11 44 29T34 70Q34 106 58 130T119 155Q156 155 180 131ZM155 506T180 481T205 421Q205 386 180 361T119 335Q84 335 59
360T34 421Q34 456 59 481T119 506Q155 506 180 481Z" />
<glyph unicode="&lt;" glyph-name="less" horiz-adv-x="514" d="M430 570L476 467L157 333L476 201L430 96L38 269V397L430 570Z" />
<glyph unicode="=" glyph-name="equal" horiz-adv-x="514" d="M52 379V490H463V379H52ZM52 429V540H463V429H52Z" />
<glyph unicode="&gt;" glyph-name="greater" horiz-adv-x="514" d="M84 570L476 397V269L84 96L38 201L357 333L38 467L84 570Z" />
<glyph unicode="?" glyph-name="question" horiz-adv-x="476" d="M314 708T362 686T434 626T458 544Q458 503 444 474T410 428T357 387Q317 360 298 338T278 279V249H147V284Q147 330 161 362T196 413T248 453Q280 474 294 490T309 531Q309 562 289 578T232 595Q164
595 110 532L18 603Q62 654 118 681T246 708Q314 708 362 686ZM250 155T275 130T300 70Q300 35 275 10T214 -16Q178 -16 154 9T129 70Q129 105 153 130T214 155Q250 155 275 130Z" />
<glyph unicode="@" glyph-name="at" horiz-adv-x="1020" d="M615 500T696 456V207Q696 146 708 122T748 97Q790 97 813 147T837 312Q837 449 759 525T526 602Q420 602 343 557T225 430T184 242Q184 134 223 54T340 -69T527 -113Q577 -113 628 -103T722 -78L757
-178Q645 -220 526 -220Q385 -220 278 -164T112 -3T53 241Q53 374 113 480T282 647T526 708Q662 708 762 654T914 509T967 314Q967 225 941 155T867 45T753 5Q698 5 665 35T622 107Q602 63 566 36T478 9Q390 9 344 70T298 232Q298 357 359 428T527 500Q615 500
696 456ZM550 100T575 160V398Q548 409 523 409Q476 409 452 367T427 232Q427 162 443 131T496 100Q550 100 575 160Z" />
<glyph unicode="A" glyph-name="A" horiz-adv-x="586" d="M439 0L400 155H183L144 0H-9L204 692H383L595 0H439ZM211 264H372L291 583L211 264Z" />
<glyph unicode="B" glyph-name="B" horiz-adv-x="615" d="M497 353T540 316T584 201Q584 92 506 46T289 0H73V692H262Q404 692 479 650T554 515Q554 454 518 417T427 366Q497 353 540 316ZM220 586V411H292Q346 411 375 433T404 502Q404 548 373 567T276 586H220ZM359
109T395 129T431 207Q431 311 303 311H220V109H290Q359 109 395 129Z" />
<glyph unicode="C" glyph-name="C" horiz-adv-x="571" d="M411 708T459 690T553 633L480 548Q420 597 354 597Q280 597 237 537T193 347Q193 221 236 161T355 100Q394 100 426 114T493 156L561 71Q524 33 470 9T349 -16Q256 -16 186 26T77 149T38 347Q38 460 78
541T188 665T346 708Q411 708 459 690Z" />
<glyph unicode="D" glyph-name="D" horiz-adv-x="650" d="M416 692T513 619T611 349Q611 157 516 79T271 0H73V692H254Q416 692 513 619ZM220 584V108H280Q365 108 411 160T458 349Q458 443 435 495T372 565T277 584H220Z" />
<glyph unicode="E" glyph-name="E" horiz-adv-x="528" d="M486 692L470 585H220V405H438V299H220V108H488V0H73V692H486Z" />
<glyph unicode="F" glyph-name="F" horiz-adv-x="488" d="M73 0V692H475L459 585H220V389H428V282H220V0H73Z" />
<glyph unicode="G" glyph-name="G" horiz-adv-x="641" d="M432 708T486 687T588 625L511 545Q474 573 442 586T368 599Q289 599 241 537T192 346Q192 211 229 153T346 94Q403 94 449 119V288H352L337 395H592V54Q538 21 476 3T349 -16Q196 -16 117 76T38 347Q38
460 81 542T197 666T362 708Q432 708 486 687Z" />
<glyph unicode="H" glyph-name="H" horiz-adv-x="669" d="M449 0V303H220V0H73V692H220V419H449V692H596V0H449Z" />
<glyph unicode="I" glyph-name="I" horiz-adv-x="294" d="M220 692V0H73V692H220Z" />
<glyph unicode="J" glyph-name="J" horiz-adv-x="314" d="M245 103Q245 23 218 -29T144 -110T32 -162L-7 -57Q37 -40 59 -18T90 33T98 108V692H245V103Z" />
<glyph unicode="K" glyph-name="K" horiz-adv-x="622" d="M220 692V0H73V692H220ZM613 692L382 380L631 0H459L226 369L456 692H613Z" />
<glyph unicode="L" glyph-name="L" horiz-adv-x="509" d="M220 692V118H494L478 0H73V692H220Z" />
<glyph unicode="M" glyph-name="M" horiz-adv-x="784" d="M744 0H600L585 281Q578 407 578 495Q578 542 579 563L462 74H323L198 564Q202 503 202 427Q202 346 198 278L183 0H40L94 692H281L395 215L502 692H691L744 0Z" />
<glyph unicode="N" glyph-name="N" horiz-adv-x="668" d="M595 0H406L186 549Q195 478 200 416T206 269V0H73V692H258L482 142Q462 276 462 388V692H595V0Z" />
<glyph unicode="O" glyph-name="O" horiz-adv-x="691" d="M441 708T510 666T616 542T653 346Q653 233 616 152T510 27T346 -16Q251 -16 182 26T75 150T38 346Q38 458 75 539T182 664T346 708Q441 708 510 666ZM270 598T232 538T193 346Q193 214 232 154T346 94Q422
94 460 153T498 346Q498 479 460 538T346 598Q270 598 232 538Z" />
<glyph unicode="P" glyph-name="P" horiz-adv-x="595" d="M422 692T496 636T571 469Q571 353 497 295T299 236H220V0H73V692H287Q422 692 496 636ZM351 344T385 373T419 469Q419 586 285 586H220V344H287Q351 344 385 373Z" />
<glyph unicode="Q" glyph-name="Q" horiz-adv-x="691" d="M553 43T601 27T691 -19L602 -136Q543 -75 485 -44T337 -13Q246 -13 179 29T75 151T38 346Q38 458 75 539T182 664T346 708Q441 708 510 666T616 542T653 346Q653 229 609 157T491 43Q553 43 601 27ZM193
214T232 154T346 94Q422 94 460 153T498 346Q498 479 460 538T346 598Q270 598 232 538T193 346Q193 214 232 154Z" />
<glyph unicode="R" glyph-name="R" horiz-adv-x="614" d="M295 271H220V0H73V692H289Q428 692 498 641T568 485Q568 417 535 373T431 298L610 0H443L295 271ZM220 375H297Q356 375 386 401T416 485Q416 538 385 562T286 587H220V375Z" />
<glyph unicode="S" glyph-name="S" horiz-adv-x="565" d="M359 708T414 687T517 621L447 540Q410 570 373 584T294 598Q248 598 221 579T193 523Q193 498 204 482T245 452T332 420Q435 387 486 339T537 200Q537 136 505 88T412 12T269 -16Q187 -16 123 10T13 81L88
164Q128 130 171 113T265 95Q319 95 351 120T384 190Q384 218 373 236T333 270T252 301Q139 336 91 385T42 513Q42 571 73 615T159 684T284 708Q359 708 414 687Z" />
<glyph unicode="T" glyph-name="T" horiz-adv-x="534" d="M532 692L516 577H341V0H194V577H10V692H532Z" />
<glyph unicode="U" glyph-name="U" horiz-adv-x="654" d="M590 228Q590 157 560 102T471 16T326 -16Q198 -16 131 50T63 228V692H210V235Q210 165 238 131T326 96Q386 96 414 130T443 235V692H590V228Z" />
<glyph unicode="V" glyph-name="V" horiz-adv-x="567" d="M575 692L376 0H197L-9 692H148L289 122L425 692H575Z" />
<glyph unicode="W" glyph-name="W" horiz-adv-x="842" d="M828 692L707 0H516L420 541L319 0H133L13 692H160L239 114L344 692H499L600 114L689 692H828Z" />
<glyph unicode="X" glyph-name="X" horiz-adv-x="571" d="M371 373L573 0H411L282 274L155 0H-2L195 368L14 692H175L284 461L398 692H554L371 373Z" />
<glyph unicode="Y" glyph-name="Y" horiz-adv-x="583" d="M587 692L365 261V0H218V260L-4 692H157L295 378L432 692H587Z" />
<glyph unicode="Z" glyph-name="Z" horiz-adv-x="539" d="M503 692V579L193 119H508L492 0H21V111L337 576H53V692H503Z" />
<glyph unicode="[" glyph-name="bracketleft" horiz-adv-x="323" d="M292 821V713H176V-14H292V-121H41V821H292Z" />
<glyph unicode="\" glyph-name="backslash" horiz-adv-x="520" d="M204 814L439 -81L315 -110L81 786L204 814Z" />
<glyph unicode="]" glyph-name="bracketright" horiz-adv-x="323" d="M282 821V-121H31V-14H147V714H31V821H282Z" />
<glyph unicode="^" glyph-name="asciicircum" horiz-adv-x="554" d="M342 843L531 527H390L276 734L166 527H23L212 843H342Z" />
<glyph unicode="_" glyph-name="underscore" horiz-adv-x="520" d="M11 -164V-51H509V-164H11Z" />
<glyph unicode="`" glyph-name="grave" horiz-adv-x="330" d="M87 827L300 699L260 626L30 718L87 827Z" />
<glyph unicode="a" glyph-name="a" horiz-adv-x="547" d="M475 116T484 102T514 80L484 -14Q437 -10 408 8T362 64Q310 -16 203 -16Q124 -16 78 29T31 148Q31 235 94 281T275 327H336V353Q336 402 314 421T241 440Q185 440 101 412L69 507Q168 546 265 546Q373
546 424 500T475 361V147Q475 116 484 102ZM302 86T336 145V246H289Q174 246 174 160Q174 125 191 106T242 86Q302 86 336 145Z" />
<glyph unicode="b" glyph-name="b" horiz-adv-x="596" d="M450 546T501 472T553 265Q553 183 528 120T455 20T343 -16Q256 -16 204 52L196 0H70V741L212 757V473Q237 507 275 526T357 546Q450 546 501 472ZM405 89T405 265Q405 362 381 401T310 441Q253 441 212
373V146Q247 89 303 89Q405 89 405 265Z" />
<glyph unicode="c" glyph-name="c" horiz-adv-x="478" d="M344 546T386 531T467 482L405 398Q379 418 355 427T301 436Q188 436 188 262Q188 174 217 136T300 98Q328 98 351 106T405 135L467 46Q391 -16 293 -16Q215 -16 158 18T69 114T38 261Q38 345 69 409T157
510T291 546Q344 546 386 531Z" />
<glyph unicode="d" glyph-name="d" horiz-adv-x="599" d="M529 741V0H404L396 65Q340 -16 244 -16Q146 -16 95 59T43 265Q43 347 69 410T145 510T258 546Q332 546 387 493V757L529 741ZM317 90T341 105T387 154V391Q366 416 345 428T295 441Q246 441 219 398T191
265Q191 170 215 130T286 90Q317 90 341 105Z" />
<glyph unicode="e" glyph-name="e" horiz-adv-x="551" d="M518 267T515 222H184Q191 150 223 120T310 90Q344 90 374 101T439 136L498 56Q409 -16 297 -16Q172 -16 105 59T38 262Q38 343 66 407T149 509T279 546Q392 546 455 475T518 277Q518 267 515 222ZM377
317Q377 449 282 449Q238 449 214 417T184 311H377V317Z" />
<glyph unicode="f" glyph-name="f" horiz-adv-x="351" d="M261 651T246 634T230 579V530H356L340 430H230V0H88V430H4V530H88V583Q88 660 138 708T282 757Q356 757 422 725L383 631Q340 651 297 651Q261 651 246 634Z" />
<glyph unicode="g" glyph-name="g" horiz-adv-x="544" d="M544 501Q492 481 391 481Q441 459 465 427T489 345Q489 294 463 254T387 190T271 167Q236 167 209 174Q189 161 189 139Q189 123 201 114T250 104H331Q390 104 434 85T503 31T528 -48Q528 -129 459 -174T258
-220Q164 -220 110 -201T33 -144T11 -51H138Q138 -77 148 -92T184 -115T261 -123Q330 -123 357 -106T385 -58Q385 -30 364 -15T302 0H224Q145 0 106 29T67 104Q67 132 83 158T129 203Q80 230 58 266T35 354Q35 412 63 455T143 522T261 546Q343 544 396 560T509
610L544 501ZM224 451T201 426T177 356Q177 311 200 285T265 259Q308 259 330 284T352 358Q352 451 264 451Q224 451 201 426Z" />
<glyph unicode="h" glyph-name="h" horiz-adv-x="579" d="M435 546T474 504T514 386V0H372V362Q372 405 357 422T314 440Q258 440 212 367V0H70V741L212 756V470Q244 508 281 527T366 546Q435 546 474 504Z" />
<glyph unicode="i" glyph-name="i" horiz-adv-x="282" d="M212 530V0H70V530H212ZM178 803T202 780T227 720Q227 684 203 661T140 637Q102 637 78 660T54 720Q54 756 78 779T140 803Q178 803 202 780Z" />
<glyph unicode="j" glyph-name="j" horiz-adv-x="281" d="M211 53Q211 -27 187 -78T119 -161T9 -219L-38 -116Q1 -98 23 -81T57 -34T69 44V530H211V53ZM177 803T201 780T226 720Q226 684 202 661T139 637Q101 637 77 660T53 720Q53 756 77 779T139 803Q177 803 201 780Z" />
<glyph unicode="k" glyph-name="k" horiz-adv-x="542" d="M212 757V0H70V741L212 757ZM534 530L365 297L549 0H388L217 290L387 530H534Z" />
<glyph unicode="l" glyph-name="l" horiz-adv-x="296" d="M137 -16T101 21T65 128V741L207 757V132Q207 97 236 97Q252 97 264 103L293 2Q252 -16 202 -16Q137 -16 101 21Z" />
<glyph unicode="m" glyph-name="m" horiz-adv-x="848" d="M706 546T744 503T783 386V0H641V362Q641 440 589 440Q561 440 540 422T497 366V0H355V362Q355 440 303 440Q275 440 254 422T212 366V0H70V530H193L204 464Q234 504 271 525T358 546Q403 546 436 524T484
460Q517 503 555 524T643 546Q706 546 744 503Z" />
<glyph unicode="n" glyph-name="n" horiz-adv-x="579" d="M436 546T475 504T514 386V0H372V362Q372 405 358 422T314 440Q284 440 260 422T212 366V0H70V530H193L204 463Q237 504 276 525T366 546Q436 546 475 504Z" />
<glyph unicode="o" glyph-name="o" horiz-adv-x="584" d="M412 546T479 472T546 265Q546 181 516 118T428 19T292 -16Q173 -16 106 58T38 265Q38 349 68 412T156 511T293 546Q412 546 479 472ZM239 440T213 398T186 265Q186 175 212 133T292 90Q345 90 371 132T398
265Q398 355 372 397T293 440Q239 440 213 398Z" />
<glyph unicode="p" glyph-name="p" horiz-adv-x="596" d="M456 546T504 473T553 266Q553 185 528 121T456 21T343 -16Q262 -16 212 41V-204L70 -220V530H195L202 468Q232 507 272 526T356 546Q456 546 504 473ZM405 90T405 265Q405 361 382 401T312 441Q282 441
257 423T212 373V142Q246 90 301 90Q405 90 405 265Z" />
<glyph unicode="q" glyph-name="q" horiz-adv-x="599" d="M529 530V-220L387 -204V54Q332 -16 244 -16Q146 -16 95 59T43 265Q43 347 69 410T144 510T258 546Q339 546 398 481L406 530H529ZM317 90T341 105T387 154V391Q366 416 345 428T296 441Q247 441 219 398T191
265Q191 170 215 130T286 90Q317 90 341 105Z" />
<glyph unicode="r" glyph-name="r" horiz-adv-x="397" d="M368 545T397 537L373 400Q345 407 326 407Q279 407 253 374T212 274V0H70V530H193L206 427Q225 483 261 514T344 545Q368 545 397 537Z" />
<glyph unicode="s" glyph-name="s" horiz-adv-x="479" d="M358 546T438 482L384 401Q317 443 252 443Q217 443 198 430T179 395Q179 379 187 368T219 347T290 323Q374 300 415 262T456 156Q456 103 426 64T343 5T227 -16Q160 -16 105 4T11 61L81 139Q148 87 223
87Q263 87 286 102T310 145Q310 166 301 178T268 200T193 225Q113 247 75 287T36 388Q36 433 62 469T135 525T246 546Q358 546 438 482Z" />
<glyph unicode="t" glyph-name="t" horiz-adv-x="380" d="M387 25Q358 5 322 -5T249 -16Q167 -15 125 31T83 166V430H4V530H83V646L225 663V530H347L333 430H225V169Q225 131 238 114T278 97Q305 97 338 115L387 25Z" />
<glyph unicode="u" glyph-name="u" horiz-adv-x="574" d="M504 0H381L374 71Q346 27 306 6T213 -16Q141 -16 103 27T65 149V530H207V167Q207 125 221 108T265 90Q322 90 362 159V530H504V0Z" />
<glyph unicode="v" glyph-name="v" horiz-adv-x="508" d="M510 530L340 0H171L-2 530H152L257 111L364 530H510Z" />
<glyph unicode="w" glyph-name="w" horiz-adv-x="741" d="M733 530L620 0H447L371 403L295 0H124L8 530H151L216 105L304 530H446L525 105L597 530H733Z" />
<glyph unicode="x" glyph-name="x" horiz-adv-x="505" d="M338 284L512 0H349L248 205L149 0H-7L167 279L11 530H171L254 354L335 530H487L338 284Z" />
<glyph unicode="y" glyph-name="y" horiz-adv-x="512" d="M343 -1Q311 -102 243 -157T57 -220L42 -118Q118 -108 153 -82T212 0H163L-2 530H149L255 92L367 530H514L343 -1Z" />
<glyph unicode="z" glyph-name="z" horiz-adv-x="454" d="M428 530V429L179 110H433L419 0H16V102L265 421H37V530H428Z" />
<glyph unicode="{" glyph-name="braceleft" horiz-adv-x="323" d="M293 738Q247 738 230 725T212 677V478Q212 418 189 390T115 349Q165 337 189 310T213 222V23Q213 -11 230 -24T293 -38V-139Q210 -139 164 -122T98 -69T79 22V211Q79 256 65 273T13 291V408Q51
408 65 426T79 489V678Q79 735 98 769T163 821T293 839V738Z" />
<glyph unicode="|" glyph-name="bar" horiz-adv-x="383" d="M257 809V-104H126V809H257Z" />
<glyph unicode="}" glyph-name="braceright" horiz-adv-x="323" d="M114 839T160 822T225 770T244 678V489Q244 444 258 426T310 408V291Q272 291 258 274T244 211V22Q244 -34 226 -69T161 -121T31 -139V-38Q76 -38 93 -25T111 23V222Q111 282 135 309T208 349Q158
362 135 390T111 478V677Q111 711 94 724T31 738V839Q114 839 160 822Z" />
<glyph unicode="~" glyph-name="asciitilde" horiz-adv-x="508" d="M301 236T277 245T225 273Q206 285 194 291T168 297Q145 297 130 284T98 245L21 284Q47 337 83 370T176 404Q208 404 231 394T282 367Q302 355 315 349T342 343Q364 343 379 355T411 391L487
353Q462 301 426 269T334 236Q301 236 277 245Z" />
<glyph unicode="&#xa0;" glyph-name="uni00A0" horiz-adv-x="244" />
<glyph unicode="&#xa1;" glyph-name="exclamdown" horiz-adv-x="241" d="M156 506T181 481T206 420Q206 385 181 360T121 335Q85 335 60 360T35 420Q35 455 60 480T121 506Q156 506 181 481ZM179 238L197 -208H45L63 238H179Z" />
<glyph unicode="&#xa2;" glyph-name="cent" horiz-adv-x="478" d="M467 46Q409 -1 342 -12V-159H236V-11Q143 6 91 78T38 261Q38 372 91 447T237 541V690H342V542Q411 531 467 482L405 398Q379 418 355 427T301 436Q188 436 188 262Q188 174 217 136T300 98Q328
98 351 106T405 135L467 46Z" />
<glyph unicode="&#xa3;" glyph-name="sterling" horiz-adv-x="535" d="M253 185T240 158T190 110H500L484 0H31V104Q67 115 85 130T108 167T114 226V314H46V390H114V485Q114 575 167 631T321 687Q386 687 434 664T519 592L431 527Q410 555 388 567T334 579Q294
579 274 555T253 484V390H444V314H253V232Q253 185 240 158Z" />
<glyph unicode="&#xa4;" glyph-name="currency" horiz-adv-x="560" d="M499 274T465 221L540 147L474 80L397 156Q345 126 279 126Q214 126 163 157L85 80L20 147L97 223Q63 276 63 341Q63 406 96 459L20 537L86 603L164 525Q215 556 279 556Q345 556 398 525L475
603L540 537L465 461Q499 408 499 341Q499 274 465 221ZM332 225T358 255T385 342Q385 397 359 427T281 458Q231 458 205 428T178 342Q178 286 204 256T281 225Q332 225 358 255Z" />
<glyph unicode="&#xa5;" glyph-name="yen" horiz-adv-x="561" d="M565 674L385 351H486V273H352V197H486V120H352V0H210V120H76V197H210V273H76V351H176L-4 674H148L284 390L418 674H565Z" />
<glyph unicode="&#xa6;" glyph-name="brokenbar" horiz-adv-x="383" d="M257 809V443H126V809H257ZM257 262V-104H126V262H257Z" />
<glyph unicode="&#xa7;" glyph-name="section" horiz-adv-x="546" d="M440 160T453 136T466 75Q466 29 439 -6T364 -60T251 -80Q141 -80 65 -27L112 58Q173 20 245 20Q284 20 307 33T330 69Q330 88 322 100T288 123T209 152Q131 176 94 209T57 301Q57 339 78 370T136
423Q108 444 95 469T82 530Q82 600 139 643T290 686Q343 686 391 672T477 631L429 549Q365 586 296 586Q258 586 238 573T218 536Q218 517 226 506T259 482T335 454Q414 428 451 395T489 303Q489 265 468 234T411 180Q440 160 453 136ZM295 235T334 219Q363 253
363 284Q363 312 343 328T263 366L209 385Q183 355 183 321Q183 293 200 277T265 245Q295 235 334 219Z" />
<glyph unicode="&#xa8;" glyph-name="dieresis" horiz-adv-x="437" d="M136 792T157 771T179 718Q179 687 158 666T104 644Q73 644 51 665T29 718Q29 749 51 770T104 792Q136 792 157 771ZM362 792T384 771T406 718Q406 687 384 666T330 644Q299 644 278 665T256
718Q256 749 277 770T330 792Q362 792 384 771Z" />
<glyph unicode="&#xa9;" glyph-name="copyright" horiz-adv-x="810" d="M497 762T573 720T693 603T737 433Q737 339 693 264T573 146T406 104Q315 104 239 146T118 263T73 433Q73 527 117 602T238 720T406 762Q497 762 573 720ZM335 689T279 657T190 566T158 433Q158
358 190 300T278 210T406 178Q477 178 533 210T621 300T653 433Q653 508 621 566T533 656T406 689Q335 689 279 657ZM481 629T535 581L490 523Q472 537 455 542T418 548Q382 548 361 521T339 434Q339 376 359 348T416 320Q440 320 459 327T498 350L539 289Q483
238 409 238Q329 238 282 289T235 434Q235 494 257 538T319 605T408 629Q481 629 535 581Z" />
<glyph unicode="&#xaa;" glyph-name="ordfeminine" horiz-adv-x="500" d="M293 527V541Q293 574 277 586T222 599Q174 599 111 578L81 662Q121 677 163 684T242 692Q334 692 376 657T419 549V400Q419 378 425 368T448 352L422 268Q383 271 358 284T318 324Q297
294 264 280T190 266Q127 266 89 301T51 392Q51 457 102 492T251 527H293ZM270 358T293 389V457H264Q183 457 183 401Q183 380 195 369T230 358Q270 358 293 389ZM57 111H458V0H57V111Z" />
<glyph unicode="&#xab;" glyph-name="guillemotleft" horiz-adv-x="615" d="M227 551L314 493L183 285L314 77L227 19L41 239V330L227 551ZM487 551L574 493L443 285L574 77L487 19L301 239V330L487 551Z" />
<glyph unicode="&#xac;" glyph-name="logicalnot" horiz-adv-x="524" d="M472 383V120H353V271H52V383H472Z" />
<glyph unicode="&#xad;" glyph-name="uni00AD" horiz-adv-x="406" d="M48 257V369H358V257H48Z" />
<glyph unicode="&#xae;" glyph-name="registered" horiz-adv-x="638" d="M395 757T456 722T553 624T589 486Q589 410 554 349T457 253T319 218Q243 218 182 253T85 349T50 486Q50 562 85 624T182 721T319 757Q395 757 456 722ZM377 281T421 306T491 378T516 486Q516
547 491 594T421 668T319 694Q262 694 218 668T148 595T122 486Q122 426 147 379T217 307T319 281Q377 281 421 306ZM431 520T415 500T371 470L445 353H367L308 457H286V353H218V634H301Q366 634 398 613T431 547Q431 520 415 500ZM286 511H315Q361 511 361 549Q361
583 314 583H286V511Z" />
<glyph unicode="&#xaf;" glyph-name="overscore" horiz-adv-x="358" d="M328 658H30V758H328V658Z" />
<glyph unicode="&#xb0;" glyph-name="degree" horiz-adv-x="521" d="M174 372T134 392T68 451T43 541Q43 592 68 630T133 688T218 708Q263 708 303 688T368 630T393 540Q393 489 368 451T303 393T218 372Q174 372 134 392ZM251 457T271 479T292 540Q292 579 272
601T218 624Q185 624 165 602T144 541Q144 502 164 480T218 457Q251 457 271 479Z" />
<glyph unicode="&#xb1;" glyph-name="plusminus" horiz-adv-x="524" d="M57 0V111H468V0H57ZM322 603V448H472V337H322V183H202V337H53V448H202V603H322Z" />
<glyph unicode="&#xb2;" glyph-name="uni00B2" horiz-adv-x="400" d="M268 750T308 715T349 626Q349 594 335 565T284 499T178 404H358L347 321H57V397Q135 469 171 506T222 568T237 617Q237 641 223 654T183 668Q160 668 142 658T104 626L41 675Q68 710 107 730T195
750Q268 750 308 715Z" />
<glyph unicode="&#xb3;" glyph-name="uni00B3" horiz-adv-x="400" d="M269 750T308 720T348 641Q348 605 325 580T256 543Q305 539 334 514T363 441Q363 385 318 348T191 310Q94 310 37 375L97 432Q136 392 184 392Q214 392 232 406T250 448Q250 477 233 490T180
503H144L156 577H181Q210 577 226 590T242 626Q242 647 227 658T186 670Q139 670 101 635L46 692Q110 750 198 750Q269 750 308 720Z" />
<glyph unicode="&#xb4;" glyph-name="acute" horiz-adv-x="330" d="M244 827L300 718L70 626L30 699L244 827Z" />
<glyph unicode="&#xb5;" glyph-name="uni00B5" horiz-adv-x="584" d="M401 -16Q391 5 387 21T377 73Q355 35 326 13T262 -9Q232 -9 210 1T171 35Q189 0 197 -31T205 -109V-204L70 -219V530H212V164Q212 97 269 97Q327 97 365 169V530H507V182Q507 78 531 0L401 -16Z" />
<glyph unicode="&#xb6;" glyph-name="paragraph" horiz-adv-x="775" d="M653 692V-204L528 -221V591H431V-204L306 -221V268Q190 272 131 329T71 480Q71 580 139 636T330 692H653Z" />
<glyph unicode="&#xb7;" glyph-name="middot" horiz-adv-x="240" d="M155 394T180 369T205 309Q205 274 180 249T119 223Q84 223 59 248T34 309Q34 344 59 369T119 394Q155 394 180 369Z" />
<glyph unicode="&#xb8;" glyph-name="cedilla" horiz-adv-x="310" d="M179 -50Q230 -55 255 -80T280 -146Q280 -196 241 -226T137 -257Q104 -257 77 -249T30 -228L63 -160Q94 -177 127 -177Q175 -177 175 -145Q175 -126 154 -118T83 -109L99 16H179V-50Z" />
<glyph unicode="&#xb9;" glyph-name="uni00B9" horiz-adv-x="400" d="M293 741V321H187V638L93 582L46 654L196 741H293Z" />
<glyph unicode="&#xba;" glyph-name="ordmasculine" horiz-adv-x="500" d="M348 692T403 636T459 479Q459 381 403 324T250 266Q152 266 97 322T41 480Q41 577 97 634T251 692Q348 692 403 636ZM212 598T194 570T175 480Q175 417 193 389T250 360Q289 360 307
388T325 479Q325 542 307 570T251 598Q212 598 194 570ZM45 0V111H456V0H45Z" />
<glyph unicode="&#xbb;" glyph-name="guillemotright" horiz-adv-x="611" d="M128 551L314 330V239L128 19L41 77L171 285L41 493L128 551ZM384 551L570 330V239L384 19L297 77L427 285L297 493L384 551Z" />
<glyph unicode="&#xbc;" glyph-name="onequarter" horiz-adv-x="960" d="M293 692V272H187V589L93 533L46 605L196 692H293ZM643 757L727 715L317 -84L233 -42L643 757ZM930 167V87H882V0H779V87H589V159L712 429L803 396L700 167H781L798 264H882V167H930Z" />
<glyph unicode="&#xbd;" glyph-name="onehalf" horiz-adv-x="960" d="M293 692V272H187V589L93 533L46 605L196 692H293ZM643 757L727 715L317 -84L233 -42L643 757ZM828 429T868 394T909 305Q909 273 895 244T844 178T738 83H918L907 0H617V76Q695 148 731 185T782
247T797 296Q797 320 783 333T743 347Q720 347 702 337T664 305L601 354Q628 389 667 409T755 429Q828 429 868 394Z" />
<glyph unicode="&#xbe;" glyph-name="threequarters" horiz-adv-x="960" d="M269 701T308 671T348 592Q348 556 325 531T256 494Q305 490 334 465T363 392Q363 336 318 299T191 261Q94 261 37 326L97 383Q136 343 184 343Q214 343 232 357T250 399Q250 428 233
441T180 454H144L156 528H181Q210 528 226 541T242 577Q242 598 227 609T186 621Q139 621 101 586L46 643Q110 701 198 701Q269 701 308 671ZM643 757L727 715L317 -84L233 -42L643 757ZM930 167V87H882V0H779V87H589V159L712 429L803 396L700 167H781L798 264H882V167H930Z"
/>
<glyph unicode="&#xbf;" glyph-name="questiondown" horiz-adv-x="476" d="M226 335T201 360T176 420Q176 455 201 480T262 506Q298 506 322 481T347 420Q347 385 323 360T262 335Q226 335 201 360ZM162 -221T114 -199T42 -139T18 -56Q18 -15 32 14T66 61T120
101Q160 128 179 149T198 206V239H329V201Q329 155 315 124T280 74T228 34Q196 13 182 -3T167 -44Q167 -75 187 -91T244 -108Q311 -108 366 -44L458 -116Q414 -167 358 -194T230 -221Q162 -221 114 -199Z" />
<glyph unicode="&#xc0;" glyph-name="Agrave" horiz-adv-x="586" d="M439 0L400 155H183L144 0H-9L204 692H383L595 0H439ZM211 264H372L291 583L211 264ZM208 945L424 825L388 752L154 837L208 945Z" />
<glyph unicode="&#xc1;" glyph-name="Aacute" horiz-adv-x="586" d="M439 0L400 155H183L144 0H-9L204 692H383L595 0H439ZM211 264H372L291 583L211 264ZM375 945L429 837L195 752L159 825L375 945Z" />
<glyph unicode="&#xc2;" glyph-name="Acircumflex" horiz-adv-x="586" d="M439 0L400 155H183L144 0H-9L204 692H383L595 0H439ZM211 264H372L291 583L211 264ZM163 756L110 816L250 940H338L478 816L426 756L294 839L163 756Z" />
<glyph unicode="&#xc3;" glyph-name="Atilde" horiz-adv-x="586" d="M439 0L400 155H183L144 0H-9L204 692H383L595 0H439ZM211 264H372L291 583L211 264ZM331 766T316 773T279 793Q266 803 257 807T237 812Q221 812 209 801T184 767L111 803Q131 852 163 883T235
914Q258 914 274 907T310 886Q323 877 332 873T351 868Q367 868 378 878T404 912L477 876Q457 825 425 796T352 766Q331 766 316 773Z" />
<glyph unicode="&#xc4;" glyph-name="Adieresis" horiz-adv-x="586" d="M439 0L400 155H183L144 0H-9L204 692H383L595 0H439ZM211 264H372L291 583L211 264ZM211 918T232 897T254 844Q254 813 233 792T179 770Q148 770 126 791T104 844Q104 875 126 896T179 918Q211
918 232 897ZM437 918T459 897T481 844Q481 813 459 792T405 770Q374 770 353 791T331 844Q331 875 352 896T405 918Q437 918 459 897Z" />
<glyph unicode="&#xc5;" glyph-name="Aring" horiz-adv-x="586" d="M439 0L400 155H183L144 0H-9L204 692H383L595 0H439ZM211 264H372L291 583L211 264ZM353 986T390 950T427 861Q427 808 390 772T294 735Q235 735 198 771T161 861Q161 913 198 949T294 986Q353
986 390 950ZM273 912T260 899T247 861Q247 836 259 823T294 809Q316 809 328 822T341 861Q341 885 328 898T294 912Q273 912 260 899Z" />
<glyph unicode="&#xc6;" glyph-name="AE" horiz-adv-x="838" d="M570 108H800V0H448L419 155H190L136 0H-20L252 692H762L746 585H467L506 403H753V297H529L570 108ZM227 264H398L338 583L227 264Z" />
<glyph unicode="&#xc7;" glyph-name="Ccedilla" horiz-adv-x="571" d="M529 38T484 15T382 -14V-50Q433 -55 458 -80T483 -146Q483 -196 444 -226T340 -257Q307 -257 280 -249T233 -228L266 -160Q297 -177 330 -177Q378 -177 378 -145Q378 -126 357 -118T286 -109L298
-13Q177 4 108 97T38 347Q38 460 78 541T188 665T346 708Q411 708 459 690T553 633L480 548Q420 597 354 597Q280 597 237 537T193 347Q193 221 236 161T355 100Q394 100 426 114T493 156L561 71Q529 38 484 15Z" />
<glyph unicode="&#xc8;" glyph-name="Egrave" horiz-adv-x="528" d="M486 692L470 585H220V405H438V299H220V108H488V0H73V692H486ZM196 945L412 825L376 752L142 837L196 945Z" />
<glyph unicode="&#xc9;" glyph-name="Eacute" horiz-adv-x="528" d="M486 692L470 585H220V405H438V299H220V108H488V0H73V692H486ZM363 945L417 837L183 752L147 825L363 945Z" />
<glyph unicode="&#xca;" glyph-name="Ecircumflex" horiz-adv-x="528" d="M486 692L470 585H220V405H438V299H220V108H488V0H73V692H486ZM151 756L98 816L238 940H326L466 816L414 756L282 839L151 756Z" />
<glyph unicode="&#xcb;" glyph-name="Edieresis" horiz-adv-x="528" d="M486 692L470 585H220V405H438V299H220V108H488V0H73V692H486ZM199 918T220 897T242 844Q242 813 221 792T167 770Q136 770 114 791T92 844Q92 875 114 896T167 918Q199 918 220 897ZM425
918T447 897T469 844Q469 813 447 792T393 770Q362 770 341 791T319 844Q319 875 340 896T393 918Q425 918 447 897Z" />
<glyph unicode="&#xcc;" glyph-name="Igrave" horiz-adv-x="294" d="M220 692V0H73V692H220ZM61 945L277 825L241 752L7 837L61 945Z" />
<glyph unicode="&#xcd;" glyph-name="Iacute" horiz-adv-x="294" d="M220 692V0H73V692H220ZM228 945L282 837L48 752L12 825L228 945Z" />
<glyph unicode="&#xce;" glyph-name="Icircumflex" horiz-adv-x="294" d="M220 692V0H73V692H220ZM16 756L-37 816L103 940H191L331 816L279 756L147 839L16 756Z" />
<glyph unicode="&#xcf;" glyph-name="Idieresis" horiz-adv-x="294" d="M220 692V0H73V692H220ZM64 918T85 897T107 844Q107 813 86 792T32 770Q1 770 -21 791T-43 844Q-43 875 -21 896T32 918Q64 918 85 897ZM290 918T312 897T334 844Q334 813 312 792T258 770Q227
770 206 791T184 844Q184 875 205 896T258 918Q290 918 312 897Z" />
<glyph unicode="&#xd0;" glyph-name="Eth" horiz-adv-x="663" d="M429 692T526 619T624 349Q624 157 529 79T284 0H86V307H15V399H86V692H267Q429 692 526 619ZM378 108T424 160T471 349Q471 443 448 495T385 565T290 584H233V399H374V307H233V108H293Q378 108 424 160Z" />
<glyph unicode="&#xd1;" glyph-name="Ntilde" horiz-adv-x="668" d="M595 0H406L186 549Q195 478 200 416T206 269V0H73V692H258L482 142Q462 276 462 388V692H595V0ZM377 766T362 773T325 793Q312 803 303 807T283 812Q267 812 255 801T230 767L157 803Q177 852
209 883T281 914Q304 914 320 907T356 886Q369 877 378 873T397 868Q413 868 424 878T450 912L523 876Q503 825 471 796T398 766Q377 766 362 773Z" />
<glyph unicode="&#xd2;" glyph-name="Ograve" horiz-adv-x="691" d="M441 708T510 666T616 542T653 346Q653 233 616 152T510 27T346 -16Q251 -16 182 26T75 150T38 346Q38 458 75 539T182 664T346 708Q441 708 510 666ZM270 598T232 538T193 346Q193 214 232
154T346 94Q422 94 460 153T498 346Q498 479 460 538T346 598Q270 598 232 538ZM260 945L476 825L440 752L206 837L260 945Z" />
<glyph unicode="&#xd3;" glyph-name="Oacute" horiz-adv-x="691" d="M441 708T510 666T616 542T653 346Q653 233 616 152T510 27T346 -16Q251 -16 182 26T75 150T38 346Q38 458 75 539T182 664T346 708Q441 708 510 666ZM270 598T232 538T193 346Q193 214 232
154T346 94Q422 94 460 153T498 346Q498 479 460 538T346 598Q270 598 232 538ZM427 945L481 837L247 752L211 825L427 945Z" />
<glyph unicode="&#xd4;" glyph-name="Ocircumflex" horiz-adv-x="691" d="M441 708T510 666T616 542T653 346Q653 233 616 152T510 27T346 -16Q251 -16 182 26T75 150T38 346Q38 458 75 539T182 664T346 708Q441 708 510 666ZM270 598T232 538T193 346Q193 214
232 154T346 94Q422 94 460 153T498 346Q498 479 460 538T346 598Q270 598 232 538ZM215 756L162 816L302 940H390L530 816L478 756L346 839L215 756Z" />
<glyph unicode="&#xd5;" glyph-name="Otilde" horiz-adv-x="691" d="M441 708T510 666T616 542T653 346Q653 233 616 152T510 27T346 -16Q251 -16 182 26T75 150T38 346Q38 458 75 539T182 664T346 708Q441 708 510 666ZM270 598T232 538T193 346Q193 214 232
154T346 94Q422 94 460 153T498 346Q498 479 460 538T346 598Q270 598 232 538ZM383 766T368 773T331 793Q318 803 309 807T289 812Q273 812 261 801T236 767L163 803Q183 852 215 883T287 914Q310 914 326 907T362 886Q375 877 384 873T403 868Q419 868 430 878T456
912L529 876Q509 825 477 796T404 766Q383 766 368 773Z" />
<glyph unicode="&#xd6;" glyph-name="Odieresis" horiz-adv-x="691" d="M441 708T510 666T616 542T653 346Q653 233 616 152T510 27T346 -16Q251 -16 182 26T75 150T38 346Q38 458 75 539T182 664T346 708Q441 708 510 666ZM270 598T232 538T193 346Q193 214 232
154T346 94Q422 94 460 153T498 346Q498 479 460 538T346 598Q270 598 232 538ZM263 918T284 897T306 844Q306 813 285 792T231 770Q200 770 178 791T156 844Q156 875 178 896T231 918Q263 918 284 897ZM489 918T511 897T533 844Q533 813 511 792T457 770Q426 770
405 791T383 844Q383 875 404 896T457 918Q489 918 511 897Z" />
<glyph unicode="&#xd7;" glyph-name="multiply" horiz-adv-x="514" d="M375 504L454 424L337 309L454 189L375 109L259 231L139 109L60 189L176 304L60 424L139 504L255 382L375 504Z" />
<glyph unicode="&#xd8;" glyph-name="Oslash" horiz-adv-x="691" d="M578 625T615 544T653 346Q653 233 616 152T510 27T346 -16Q315 -16 292 -12L256 -133L143 -103L183 26Q113 68 76 149T38 346Q38 458 75 539T182 664T346 708Q376 708 399 704L436 826L548
796L507 667Q578 625 615 544ZM270 598T232 538T193 346Q193 191 241 134L380 596Q358 598 346 598Q270 598 232 538ZM422 94T460 153T498 346Q498 505 449 560L310 97Q328 94 346 94Q422 94 460 153Z" />
<glyph unicode="&#xd9;" glyph-name="Ugrave" horiz-adv-x="654" d="M590 228Q590 157 560 102T471 16T326 -16Q198 -16 131 50T63 228V692H210V235Q210 165 238 131T326 96Q386 96 414 130T443 235V692H590V228ZM241 945L457 825L421 752L187 837L241 945Z" />
<glyph unicode="&#xda;" glyph-name="Uacute" horiz-adv-x="654" d="M590 228Q590 157 560 102T471 16T326 -16Q198 -16 131 50T63 228V692H210V235Q210 165 238 131T326 96Q386 96 414 130T443 235V692H590V228ZM408 945L462 837L228 752L192 825L408 945Z" />
<glyph unicode="&#xdb;" glyph-name="Ucircumflex" horiz-adv-x="654" d="M590 228Q590 157 560 102T471 16T326 -16Q198 -16 131 50T63 228V692H210V235Q210 165 238 131T326 96Q386 96 414 130T443 235V692H590V228ZM196 756L143 816L283 940H371L511 816L459
756L327 839L196 756Z" />
<glyph unicode="&#xdc;" glyph-name="Udieresis" horiz-adv-x="654" d="M590 228Q590 157 560 102T471 16T326 -16Q198 -16 131 50T63 228V692H210V235Q210 165 238 131T326 96Q386 96 414 130T443 235V692H590V228ZM244 918T265 897T287 844Q287 813 266 792T212
770Q181 770 159 791T137 844Q137 875 159 896T212 918Q244 918 265 897ZM470 918T492 897T514 844Q514 813 492 792T438 770Q407 770 386 791T364 844Q364 875 385 896T438 918Q470 918 492 897Z" />
<glyph unicode="&#xdd;" glyph-name="Yacute" horiz-adv-x="583" d="M587 692L365 261V0H218V260L-4 692H157L295 378L432 692H587ZM373 945L427 837L193 752L157 825L373 945Z" />
<glyph unicode="&#xde;" glyph-name="Thorn" horiz-adv-x="595" d="M422 581T496 525T571 356Q571 236 497 177T299 117H220V0H73V692H220V581H287Q422 581 496 525ZM352 225T385 254T419 355Q419 475 285 475H220V225H287Q352 225 385 254Z" />
<glyph unicode="&#xdf;" glyph-name="germandbls" horiz-adv-x="603" d="M359 757T404 737T474 683T498 609Q498 571 483 547T437 495Q415 475 405 462T395 430Q395 409 410 394T459 354Q496 328 520 306T561 249T579 165Q579 110 553 69T483 6T383 -16Q321 -16
269 10L311 107Q332 95 366 95Q397 95 415 113T433 167Q433 204 414 228T355 280Q313 311 292 338T270 409Q270 445 283 466T320 511Q341 531 352 548T363 593Q363 622 345 638T295 655Q212 655 212 538V0H70V535Q70 639 129 698T297 757Q359 757 404 737Z" />
<glyph unicode="&#xe0;" glyph-name="agrave" horiz-adv-x="547" d="M475 116T484 102T514 80L484 -14Q437 -10 408 8T362 64Q310 -16 203 -16Q124 -16 78 29T31 148Q31 235 94 281T275 327H336V353Q336 402 314 421T241 440Q185 440 101 412L69 507Q168 546 265
546Q373 546 424 500T475 361V147Q475 116 484 102ZM302 86T336 145V246H289Q174 246 174 160Q174 125 191 106T242 86Q302 86 336 145ZM201 827L414 699L374 626L144 718L201 827Z" />
<glyph unicode="&#xe1;" glyph-name="aacute" horiz-adv-x="547" d="M475 116T484 102T514 80L484 -14Q437 -10 408 8T362 64Q310 -16 203 -16Q124 -16 78 29T31 148Q31 235 94 281T275 327H336V353Q336 402 314 421T241 440Q185 440 101 412L69 507Q168 546 265
546Q373 546 424 500T475 361V147Q475 116 484 102ZM302 86T336 145V246H289Q174 246 174 160Q174 125 191 106T242 86Q302 86 336 145ZM343 827L399 718L169 626L129 699L343 827Z" />
<glyph unicode="&#xe2;" glyph-name="acircumflex" horiz-adv-x="547" d="M475 116T484 102T514 80L484 -14Q437 -10 408 8T362 64Q310 -16 203 -16Q124 -16 78 29T31 148Q31 235 94 281T275 327H336V353Q336 402 314 421T241 440Q185 440 101 412L69 507Q168
546 265 546Q373 546 424 500T475 361V147Q475 116 484 102ZM302 86T336 145V246H289Q174 246 174 160Q174 125 191 106T242 86Q302 86 336 145ZM137 624L85 684L225 815H313L453 684L400 624L269 713L137 624Z" />
<glyph unicode="&#xe3;" glyph-name="atilde" horiz-adv-x="547" d="M475 116T484 102T514 80L484 -14Q437 -10 408 8T362 64Q310 -16 203 -16Q124 -16 78 29T31 148Q31 235 94 281T275 327H336V353Q336 402 314 421T241 440Q185 440 101 412L69 507Q168 546 265
546Q373 546 424 500T475 361V147Q475 116 484 102ZM302 86T336 145V246H289Q174 246 174 160Q174 125 191 106T242 86Q302 86 336 145ZM306 640T291 647T254 667Q241 677 232 681T212 686Q196 686 184 675T159 641L86 677Q106 726 138 757T210 788Q233 788 249
781T285 760Q298 751 307 747T326 742Q342 742 353 752T379 786L452 750Q432 699 400 670T327 640Q306 640 291 647Z" />
<glyph unicode="&#xe4;" glyph-name="adieresis" horiz-adv-x="547" d="M475 116T484 102T514 80L484 -14Q437 -10 408 8T362 64Q310 -16 203 -16Q124 -16 78 29T31 148Q31 235 94 281T275 327H336V353Q336 402 314 421T241 440Q185 440 101 412L69 507Q168 546
265 546Q373 546 424 500T475 361V147Q475 116 484 102ZM302 86T336 145V246H289Q174 246 174 160Q174 125 191 106T242 86Q302 86 336 145ZM187 792T208 771T230 718Q230 687 209 666T155 644Q124 644 102 665T80 718Q80 749 102 770T155 792Q187 792 208 771ZM413
792T435 771T457 718Q457 687 435 666T381 644Q350 644 329 665T307 718Q307 749 328 770T381 792Q413 792 435 771Z" />
<glyph unicode="&#xe5;" glyph-name="aring" horiz-adv-x="547" d="M475 116T484 102T514 80L484 -14Q437 -10 408 8T362 64Q310 -16 203 -16Q124 -16 78 29T31 148Q31 235 94 281T275 327H336V353Q336 402 314 421T241 440Q185 440 101 412L69 507Q168 546 265
546Q373 546 424 500T475 361V147Q475 116 484 102ZM302 86T336 145V246H289Q174 246 174 160Q174 125 191 106T242 86Q302 86 336 145ZM328 860T365 824T402 735Q402 682 365 646T269 609Q210 609 173 645T136 735Q136 787 173 823T269 860Q328 860 365 824ZM248
786T235 773T222 735Q222 710 234 697T269 683Q291 683 303 696T316 735Q316 759 303 772T269 786Q248 786 235 773Z" />
<glyph unicode="&#xe6;" glyph-name="ae" horiz-adv-x="854" d="M821 267T818 222H487Q494 150 526 120T613 90Q647 90 677 101T742 136L801 56Q712 -16 600 -16Q532 -16 480 8T395 76Q360 26 313 5T206 -16Q125 -16 78 29T31 148Q31 235 95 281T280 327H341V352Q341
401 320 420T247 439Q189 439 107 411L74 507Q173 546 270 546Q381 546 431 476Q493 546 592 546Q661 546 713 514T793 421T821 277Q821 267 818 222ZM681 317Q679 449 585 449Q541 449 517 417T487 311H681V317ZM281 86T306 104T355 158Q345 195 343 240V243H296Q238
243 210 223T181 158Q181 124 198 105T249 86Q281 86 306 104Z" />
<glyph unicode="&#xe7;" glyph-name="ccedilla" horiz-adv-x="478" d="M400 -8T320 -15V-50Q371 -55 396 -80T421 -146Q421 -196 382 -226T278 -257Q245 -257 218 -249T171 -228L204 -160Q235 -177 268 -177Q316 -177 316 -145Q316 -126 295 -118T224 -109L237
-11Q143 6 91 78T38 261Q38 345 69 409T157 510T291 546Q344 546 386 531T467 482L405 398Q379 418 355 427T301 436Q188 436 188 262Q188 174 217 136T300 98Q328 98 351 106T405 135L467 46Q400 -8 320 -15Z" />
<glyph unicode="&#xe8;" glyph-name="egrave" horiz-adv-x="551" d="M518 267T515 222H184Q191 150 223 120T310 90Q344 90 374 101T439 136L498 56Q409 -16 297 -16Q172 -16 105 59T38 262Q38 343 66 407T149 509T279 546Q392 546 455 475T518 277Q518 267 515
222ZM377 317Q377 449 282 449Q238 449 214 417T184 311H377V317ZM214 827L427 699L387 626L157 718L214 827Z" />
<glyph unicode="&#xe9;" glyph-name="eacute" horiz-adv-x="551" d="M518 267T515 222H184Q191 150 223 120T310 90Q344 90 374 101T439 136L498 56Q409 -16 297 -16Q172 -16 105 59T38 262Q38 343 66 407T149 509T279 546Q392 546 455 475T518 277Q518 267 515
222ZM377 317Q377 449 282 449Q238 449 214 417T184 311H377V317ZM356 827L412 718L182 626L142 699L356 827Z" />
<glyph unicode="&#xea;" glyph-name="ecircumflex" horiz-adv-x="551" d="M518 267T515 222H184Q191 150 223 120T310 90Q344 90 374 101T439 136L498 56Q409 -16 297 -16Q172 -16 105 59T38 262Q38 343 66 407T149 509T279 546Q392 546 455 475T518 277Q518 267
515 222ZM377 317Q377 449 282 449Q238 449 214 417T184 311H377V317ZM150 624L98 684L238 815H326L466 684L413 624L282 713L150 624Z" />
<glyph unicode="&#xeb;" glyph-name="edieresis" horiz-adv-x="551" d="M518 267T515 222H184Q191 150 223 120T310 90Q344 90 374 101T439 136L498 56Q409 -16 297 -16Q172 -16 105 59T38 262Q38 343 66 407T149 509T279 546Q392 546 455 475T518 277Q518 267
515 222ZM377 317Q377 449 282 449Q238 449 214 417T184 311H377V317ZM200 792T221 771T243 718Q243 687 222 666T168 644Q137 644 115 665T93 718Q93 749 115 770T168 792Q200 792 221 771ZM426 792T448 771T470 718Q470 687 448 666T394 644Q363 644 342 665T320
718Q320 749 341 770T394 792Q426 792 448 771Z" />
<glyph unicode="&#xec;" glyph-name="igrave" horiz-adv-x="282" d="M212 530V0H70V530H212ZM73 827L286 699L246 626L16 718L73 827Z" />
<glyph unicode="&#xed;" glyph-name="iacute" horiz-adv-x="282" d="M212 530V0H70V530H212ZM215 827L271 718L41 626L1 699L215 827Z" />
<glyph unicode="&#xee;" glyph-name="icircumflex" horiz-adv-x="282" d="M212 530V0H70V530H212ZM9 624L-43 684L97 815H185L325 684L272 624L141 713L9 624Z" />
<glyph unicode="&#xef;" glyph-name="idieresis" horiz-adv-x="282" d="M212 530V0H70V530H212ZM59 792T80 771T102 718Q102 687 81 666T27 644Q-4 644 -26 665T-48 718Q-48 749 -26 770T27 792Q59 792 80 771ZM285 792T307 771T329 718Q329 687 307 666T253 644Q222
644 201 665T179 718Q179 749 200 770T253 792Q285 792 307 771Z" />
<glyph unicode="&#xf0;" glyph-name="eth" horiz-adv-x="577" d="M451 599T492 504T533 274Q533 191 503 125T416 22T282 -16Q213 -16 158 14T70 100T38 234Q38 300 64 356T137 445T244 478Q286 478 319 465T380 427Q367 477 342 515T274 588L215 529L124 572L185
636Q144 650 89 661L117 756Q200 741 263 716L336 793L411 728L353 668Q451 599 492 504ZM335 89T362 131T389 258L388 327Q346 377 280 377Q183 377 183 237Q183 163 209 126T283 89Q335 89 362 131Z" />
<glyph unicode="&#xf1;" glyph-name="ntilde" horiz-adv-x="579" d="M436 546T475 504T514 386V0H372V362Q372 405 358 422T314 440Q284 440 260 422T212 366V0H70V530H193L204 463Q237 504 276 525T366 546Q436 546 475 504ZM332 640T317 647T280 667Q267 677
258 681T238 686Q222 686 210 675T185 641L112 677Q132 726 164 757T236 788Q259 788 275 781T311 760Q324 751 333 747T352 742Q368 742 379 752T405 786L478 750Q458 699 426 670T353 640Q332 640 317 647Z" />
<glyph unicode="&#xf2;" glyph-name="ograve" horiz-adv-x="584" d="M412 546T479 472T546 265Q546 181 516 118T428 19T292 -16Q173 -16 106 58T38 265Q38 349 68 412T156 511T293 546Q412 546 479 472ZM239 440T213 398T186 265Q186 175 212 133T292 90Q345
90 371 132T398 265Q398 355 372 397T293 440Q239 440 213 398ZM224 827L437 699L397 626L167 718L224 827Z" />
<glyph unicode="&#xf3;" glyph-name="oacute" horiz-adv-x="584" d="M412 546T479 472T546 265Q546 181 516 118T428 19T292 -16Q173 -16 106 58T38 265Q38 349 68 412T156 511T293 546Q412 546 479 472ZM239 440T213 398T186 265Q186 175 212 133T292 90Q345
90 371 132T398 265Q398 355 372 397T293 440Q239 440 213 398ZM366 827L422 718L192 626L152 699L366 827Z" />
<glyph unicode="&#xf4;" glyph-name="ocircumflex" horiz-adv-x="584" d="M412 546T479 472T546 265Q546 181 516 118T428 19T292 -16Q173 -16 106 58T38 265Q38 349 68 412T156 511T293 546Q412 546 479 472ZM239 440T213 398T186 265Q186 175 212 133T292 90Q345
90 371 132T398 265Q398 355 372 397T293 440Q239 440 213 398ZM160 624L108 684L248 815H336L476 684L423 624L292 713L160 624Z" />
<glyph unicode="&#xf5;" glyph-name="otilde" horiz-adv-x="584" d="M412 546T479 472T546 265Q546 181 516 118T428 19T292 -16Q173 -16 106 58T38 265Q38 349 68 412T156 511T293 546Q412 546 479 472ZM239 440T213 398T186 265Q186 175 212 133T292 90Q345
90 371 132T398 265Q398 355 372 397T293 440Q239 440 213 398ZM329 640T314 647T277 667Q264 677 255 681T235 686Q219 686 207 675T182 641L109 677Q129 726 161 757T233 788Q256 788 272 781T308 760Q321 751 330 747T349 742Q365 742 376 752T402 786L475 750Q455
699 423 670T350 640Q329 640 314 647Z" />
<glyph unicode="&#xf6;" glyph-name="odieresis" horiz-adv-x="584" d="M412 546T479 472T546 265Q546 181 516 118T428 19T292 -16Q173 -16 106 58T38 265Q38 349 68 412T156 511T293 546Q412 546 479 472ZM239 440T213 398T186 265Q186 175 212 133T292 90Q345
90 371 132T398 265Q398 355 372 397T293 440Q239 440 213 398ZM210 792T231 771T253 718Q253 687 232 666T178 644Q147 644 125 665T103 718Q103 749 125 770T178 792Q210 792 231 771ZM436 792T458 771T480 718Q480 687 458 666T404 644Q373 644 352 665T330
718Q330 749 351 770T404 792Q436 792 458 771Z" />
<glyph unicode="&#xf7;" glyph-name="divide" horiz-adv-x="514" d="M293 180T318 155T343 95Q343 60 318 35T257 9Q222 9 197 34T172 95Q172 130 197 155T257 180Q293 180 318 155ZM293 656T318 631T343 571Q343 536 318 511T257 485Q222 485 197 510T172 571Q172
606 197 631T257 656Q293 656 318 631ZM52 277V388H463V277H52Z" />
<glyph unicode="&#xf8;" glyph-name="oslash" horiz-adv-x="584" d="M488 476T517 414T546 265Q546 181 516 118T428 19T292 -16Q280 -16 254 -14L217 -134L111 -103L151 21Q97 54 68 116T38 265Q38 349 68 412T156 511T293 546Q306 546 330 544L369 664L475 633L433
509Q488 476 517 414ZM177 440T177 265Q177 160 207 121L313 439Q307 440 293 440Q177 440 177 265ZM349 90T378 133T407 265Q407 371 377 408L272 91Q278 90 292 90Q349 90 378 133Z" />
<glyph unicode="&#xf9;" glyph-name="ugrave" horiz-adv-x="574" d="M504 0H381L374 71Q346 27 306 6T213 -16Q141 -16 103 27T65 149V530H207V167Q207 125 221 108T265 90Q322 90 362 159V530H504V0ZM217 827L430 699L390 626L160 718L217 827Z" />
<glyph unicode="&#xfa;" glyph-name="uacute" horiz-adv-x="574" d="M504 0H381L374 71Q346 27 306 6T213 -16Q141 -16 103 27T65 149V530H207V167Q207 125 221 108T265 90Q322 90 362 159V530H504V0ZM359 827L415 718L185 626L145 699L359 827Z" />
<glyph unicode="&#xfb;" glyph-name="ucircumflex" horiz-adv-x="574" d="M504 0H381L374 71Q346 27 306 6T213 -16Q141 -16 103 27T65 149V530H207V167Q207 125 221 108T265 90Q322 90 362 159V530H504V0ZM153 624L101 684L241 815H329L469 684L416 624L285 713L153
624Z" />
<glyph unicode="&#xfc;" glyph-name="udieresis" horiz-adv-x="574" d="M504 0H381L374 71Q346 27 306 6T213 -16Q141 -16 103 27T65 149V530H207V167Q207 125 221 108T265 90Q322 90 362 159V530H504V0ZM203 792T224 771T246 718Q246 687 225 666T171 644Q140
644 118 665T96 718Q96 749 118 770T171 792Q203 792 224 771ZM429 792T451 771T473 718Q473 687 451 666T397 644Q366 644 345 665T323 718Q323 749 344 770T397 792Q429 792 451 771Z" />
<glyph unicode="&#xfd;" glyph-name="yacute" horiz-adv-x="512" d="M343 -1Q311 -102 243 -157T57 -220L42 -118Q118 -108 153 -82T212 0H163L-2 530H149L255 92L367 530H514L343 -1ZM330 827L386 718L156 626L116 699L330 827Z" />
<glyph unicode="&#xfe;" glyph-name="thorn" horiz-adv-x="596" d="M456 546T504 473T553 266Q553 185 528 121T456 21T343 -16Q262 -16 212 41V-202L70 -220V741L212 757V477Q241 513 278 529T354 546Q456 546 504 473ZM405 90T405 265Q405 361 382 401T310 441Q281
441 256 423T212 373V142Q246 90 301 90Q405 90 405 265Z" />
<glyph unicode="&#xff;" glyph-name="ydieresis" horiz-adv-x="512" d="M343 -1Q311 -102 243 -157T57 -220L42 -118Q118 -108 153 -82T212 0H163L-2 530H149L255 92L367 530H514L343 -1ZM174 792T195 771T217 718Q217 687 196 666T142 644Q111 644 89 665T67
718Q67 749 89 770T142 792Q174 792 195 771ZM400 792T422 771T444 718Q444 687 422 666T368 644Q337 644 316 665T294 718Q294 749 315 770T368 792Q400 792 422 771Z" />
<glyph unicode="&#x2013;" glyph-name="endash" horiz-adv-x="520" d="M24 257V369H496V257H24Z" />
<glyph unicode="&#x2014;" glyph-name="emdash" horiz-adv-x="795" d="M24 257V369H771V257H24Z" />
<glyph unicode="&#x2018;" glyph-name="quoteleft" horiz-adv-x="239" d="M85 468T62 490T39 545Q39 562 45 581T65 630L130 764H206L165 608Q199 584 199 544Q199 512 176 490T119 468Q85 468 62 490Z" />
<glyph unicode="&#x2019;" glyph-name="quoteright" horiz-adv-x="239" d="M154 763T177 741T200 686Q200 669 194 650T174 601L109 467H33L74 623Q40 647 40 687Q40 719 63 741T120 763Q154 763 177 741Z" />
<glyph unicode="&#x201a;" glyph-name="quotesinglbase" horiz-adv-x="239" d="M154 134T177 112T200 57Q200 40 194 21T174 -28L109 -162H33L74 -6Q40 18 40 58Q40 90 63 112T120 134Q154 134 177 112Z" />
<glyph unicode="&#x201c;" glyph-name="quotedblleft" horiz-adv-x="438" d="M85 468T62 490T39 545Q39 562 45 581T65 630L130 764H206L165 608Q199 584 199 544Q199 512 176 490T119 468Q85 468 62 490ZM284 468T261 490T238 545Q238 562 244 581T264 630L329
764H405L364 608Q398 584 398 544Q398 512 375 490T318 468Q284 468 261 490Z" />
<glyph unicode="&#x201d;" glyph-name="quotedblright" horiz-adv-x="438" d="M154 763T177 741T200 686Q200 669 194 650T174 601L109 467H33L74 623Q40 647 40 687Q40 719 63 741T120 763Q154 763 177 741ZM353 763T376 741T399 686Q399 669 393 650T373 601L308
467H232L273 623Q239 647 239 687Q239 719 262 741T319 763Q353 763 376 741Z" />
<glyph unicode="&#x201e;" glyph-name="quotedblbase" horiz-adv-x="438" d="M154 134T177 112T200 57Q200 40 194 21T174 -28L109 -162H33L74 -6Q40 18 40 58Q40 90 63 112T120 134Q154 134 177 112ZM353 134T376 112T399 57Q399 40 393 21T373 -28L308 -162H232L273
-6Q239 18 239 58Q239 90 262 112T319 134Q353 134 376 112Z" />
<glyph unicode="&#x2022;" glyph-name="bullet" horiz-adv-x="341" d="M227 473T264 435T302 341Q302 285 265 248T170 210Q114 210 77 248T39 342Q39 398 76 435T170 473Q227 473 264 435Z" />
<glyph unicode="&#x2039;" glyph-name="guilsinglleft" horiz-adv-x="355" d="M227 551L314 493L183 285L314 77L227 19L41 239V330L227 551Z" />
<glyph unicode="&#x203a;" glyph-name="guilsinglright" horiz-adv-x="355" d="M128 551L314 330V239L128 19L41 77L171 285L41 493L128 551Z" />
</font>
</defs>
</svg>
