<?xml version="1.0" standalone="no"?>
<!DOCTYPE svg PUBLIC "-//W3C//DTD SVG 1.1//EN" "http://www.w3.org/Graphics/SVG/1.1/DTD/svg11.dtd">
<svg xmlns="http://www.w3.org/2000/svg">
<defs >
<font id="TitanOne" horiz-adv-x="545" ><font-face
    font-family="Titan One"
    units-per-em="1000"
    panose-1="2 0 0 0 0 0 0 0 0 0"
    ascent="970"
    descent="-175"
    alphabetic="0" />
<glyph unicode=" " glyph-name="space" horiz-adv-x="225" />
<glyph unicode="!" glyph-name="exclam" horiz-adv-x="332" d="M30 711T88 717T224 724T302 701Q302 672 284 219Q283 194 248 174T149 154Q62 154 58 201L31 700Q30 711 88 717ZM291 -42T259 -61T168 -81T78 -64T47 9Q47 99 169 99T291 9Q291 -42 259 -61Z" />
<glyph unicode="&quot;" glyph-name="quotedbl" horiz-adv-x="522" d="M30 745T49 762T127 780T208 764T231 690Q231 437 131 437T30 690Q30 745 49 762ZM291 745T310 762T388 780T469 764T492 690Q492 437 392 437T291 690Q291 745 310 762Z" />
<glyph unicode="#" glyph-name="numbersign" horiz-adv-x="814" d="M105 0Q83 0 74 13T64 42T83 130H37Q26 130 18 148T10 201T32 271T75 307H131L157 403H95Q84 403 76 421T68 474T90 544T133 580H205Q213 612 226 657Q241 711 380 711Q432 711 432 676Q432 670
408 580H513Q521 612 534 657Q549 711 688 711Q740 711 740 676Q740 670 716 580H778Q804 580 804 515Q804 482 783 443T743 403H668L642 307H720Q746 307 746 242Q746 209 725 170T685 130H595L572 44Q560 0 413 0Q391 0 382 13T372 42T391 130H287L264 44Q252
0 105 0ZM360 403L334 307H439L465 403H360Z" />
<glyph unicode="$" glyph-name="dollar" horiz-adv-x="664" d="M235 716Q235 739 273 759T373 780Q421 780 435 760Q445 746 445 734V704Q558 692 602 662Q620 650 620 639Q620 587 596 527T548 467Q544 467 522 476Q456 505 413 505T354 497T338 473T360 447T414
432T485 410T557 374T612 312T634 227T626 156T599 98T540 45T445 10V-6Q445 -29 407 -49T307 -70Q259 -70 245 -50Q235 -36 235 -24V6Q170 12 122 25Q30 50 30 79Q30 135 46 195T84 256Q88 256 167 229T286 202T338 210T350 235T328 262T273 281T202 303T130 338T75
397T53 488Q53 672 235 703V716Z" />
<glyph unicode="%" glyph-name="percent" horiz-adv-x="975" d="M374 23T353 12T283 0T234 26Q234 28 236 34L590 660Q599 676 606 684T634 701T684 710Q746 710 746 683Q746 678 744 674L386 44Q374 23 353 12ZM224 329Q180 329 148 337T87 365Q30 406 30 524Q30
639 90 678Q141 711 224 711Q306 711 359 678Q419 639 419 524Q419 405 362 365Q310 329 224 329ZM224 426Q232 426 237 432Q250 446 250 503T246 581T237 608T224 613Q198 613 198 520T224 426ZM750 -10Q706 -10 674 -2T613 26Q556 67 556 185Q556 300 616 338Q667
372 750 372Q832 372 885 338Q945 300 945 185Q945 66 888 26Q836 -10 750 -10ZM750 87Q758 87 763 92Q776 107 776 164T772 242T763 269T750 274Q724 274 724 181T750 87Z" />
<glyph unicode="&amp;" glyph-name="ampersand" horiz-adv-x="776" d="M447 438H716Q761 438 761 362Q761 326 753 297T734 267H684V238Q684 107 675 94Q604 -9 326 -9Q188 -9 109 43T30 205Q30 294 88 349Q101 362 119 373Q116 375 111 378T91 394T66 423Q39
465 39 524Q39 711 327 711Q408 711 466 700T548 672T573 639Q573 611 554 544T512 477Q507 477 454 493T358 509T314 479Q314 453 352 446Q391 438 447 438ZM423 200L424 211V266Q314 264 314 223Q314 193 368 193Q393 193 423 200Z" />
<glyph unicode="&apos;" glyph-name="quotesingle" horiz-adv-x="261" d="M30 745T49 762T127 780T208 764T231 690Q231 437 131 437T30 690Q30 745 49 762Z" />
<glyph unicode="(" glyph-name="parenleft" horiz-adv-x="450" d="M388 -149Q35 -149 35 295Q35 511 126 615T378 720Q420 720 420 671Q420 631 413 597T388 562Q346 562 324 491T302 290T325 85T381 10Q401 10 409 -12T418 -74T412 -131T388 -149Z" />
<glyph unicode=")" glyph-name="parenright" horiz-adv-x="450" d="M62 -149Q44 -149 38 -132T32 -74Q32 10 69 10Q102 10 125 84T148 289T126 491T62 562Q45 562 38 596T30 671Q30 720 72 720Q233 720 324 616T415 295Q415 -149 62 -149Z" />
<glyph unicode="*" glyph-name="asterisk" horiz-adv-x="558" d="M15 549Q15 582 32 618T79 655Q100 655 132 639T208 590Q201 686 201 719T215 766T276 780T340 768T357 710Q357 694 350 646T340 590Q351 597 358 601T375 612T396 624T419 636T442 646Q464 656
481 656Q510 656 526 620T543 550Q543 526 501 509T416 486L374 481Q480 394 480 353Q480 329 444 301T382 272Q343 272 279 421Q258 362 228 318T175 274T116 300T80 347T103 400T174 480Q174 480 170 480T130 486T55 509T15 549Z" />
<glyph unicode="+" glyph-name="plus" horiz-adv-x="553" d="M253 31Q188 31 188 57V190H57Q46 190 38 208T30 261T52 331T95 367H188V479Q188 498 221 511T291 524T346 516T365 497V367H497Q523 367 523 302Q523 269 502 230T462 190H365V72Q365 55 328 43T253 31Z" />
<glyph unicode="," glyph-name="comma" horiz-adv-x="293" d="M47 48Q40 68 40 105T61 166T146 191T231 166T253 90Q253 -153 89 -153Q74 -153 60 -117T45 -60T52 -39Q72 -39 85 -30T101 -10L104 0Q64 0 47 48Z" />
<glyph unicode="-" glyph-name="hyphen" horiz-adv-x="553" d="M462 190H57Q46 190 38 208T30 261T52 331T95 367H497Q523 367 523 302Q523 269 502 230T462 190Z" />
<glyph unicode="." glyph-name="period" horiz-adv-x="293" d="M253 35T226 13T147 -9T67 13T40 94T67 172T147 192T226 173T253 94Z" />
<glyph unicode="/" glyph-name="slash" horiz-adv-x="418" d="M66 0Q44 0 35 13T25 42T187 657Q202 711 341 711Q393 711 393 676Q393 670 225 44Q213 0 66 0Z" />
<glyph unicode="0" glyph-name="zero" horiz-adv-x="726" d="M446 -9T363 -9T224 5T121 59Q30 136 30 360Q30 576 125 653Q172 691 228 706T362 721T497 706T601 653Q696 576 696 360Q696 136 605 59Q559 20 503 6ZM342 161Q350 148 363 148T385 161T398 221T403
352T398 484T385 547T364 563T342 548Q322 514 322 352Q322 191 342 161Z" />
<glyph unicode="1" glyph-name="one" horiz-adv-x="453" d="M413 13T352 7T230 0T152 5T134 24V456H32Q15 456 15 529T32 661Q37 680 138 696T293 712T365 708T392 699T406 686Q413 675 413 665V24Q413 13 352 7Z" />
<glyph unicode="2" glyph-name="two" horiz-adv-x="614" d="M99 451Q71 451 51 517T30 644Q30 658 61 675T155 707T292 721Q579 721 579 520Q579 464 555 415T502 337T434 282Q389 254 348 238H548Q554 238 561 233T576 201T584 135T579 69T567 30Q552 3 540 1L535
0H97Q34 0 34 197Q34 219 164 318Q213 354 254 397T295 467Q295 497 250 497T156 474T99 451Z" />
<glyph unicode="3" glyph-name="three" horiz-adv-x="609" d="M570 534Q570 433 490 383Q501 378 518 359T548 321Q579 272 579 205Q579 95 500 43T283 -9Q215 -9 155 2T62 28T30 55Q30 110 42 152T69 211T98 229Q102 229 151 211T247 193T295 223Q295 264 194
267Q154 268 150 269Q129 276 129 357T150 446Q154 448 194 448Q295 450 295 489Q295 519 252 519T155 498T97 477Q74 477 55 544T36 639Q36 665 94 692Q158 721 282 721Q570 721 570 534Z" />
<glyph unicode="4" glyph-name="four" horiz-adv-x="618" d="M578 13T517 7T395 0T317 5T299 24V147H49Q15 147 15 313Q15 332 96 476T209 665Q221 682 299 697T451 712Q578 712 578 665V24Q578 13 517 7ZM316 303L317 521L247 303H316Z" />
<glyph unicode="5" glyph-name="five" horiz-adv-x="611" d="M30 67Q30 132 48 184T88 237Q94 237 152 213T238 188T281 197T297 221Q297 276 94 286Q59 288 59 500T92 712H534Q560 712 560 632Q560 584 551 527T518 469H238V424Q431 424 514 362Q581 311 581
212T507 52T270 -9Q164 -9 97 15T30 67Z" />
<glyph unicode="6" glyph-name="six" horiz-adv-x="662" d="M318 445T357 458T445 471T529 457T583 420T614 365Q632 311 632 255T628 171T606 107T559 48T475 8T347 -9Q190 -9 110 77T30 357T105 636T333 722Q438 722 515 707T593 670Q593 644 574 579T538 514Q533
514 508 519Q440 533 384 533T312 506T296 425Q300 430 309 437ZM331 347Q302 347 302 240T331 132Q362 132 362 239T331 347Z" />
<glyph unicode="7" glyph-name="seven" horiz-adv-x="539" d="M391 13T328 7T202 0T123 5T106 24Q106 45 241 470H36Q22 470 14 518Q10 541 10 579T20 664T54 712H456Q505 712 518 690Q529 673 529 646T506 513T447 255T394 24Q391 13 328 7Z" />
<glyph unicode="8" glyph-name="eight" horiz-adv-x="659" d="M629 224Q629 -9 330 -9T30 224Q30 329 78 382Q65 397 54 434T43 509Q43 624 116 672T329 721T542 673T616 509Q616 472 605 435T581 382Q629 329 629 224ZM297 167T305 152T329 136T353 151T361 217T354
283T330 300T305 284T297 217ZM330 456Q361 456 361 515T330 575Q297 575 297 516T330 456Z" />
<glyph unicode="9" glyph-name="nine" horiz-adv-x="662" d="M205 252Q119 252 75 314T30 479Q30 565 86 636Q116 675 175 698T315 722Q474 722 553 640T632 359T558 76T329 -9Q221 -9 145 4T69 39Q69 64 88 129T124 194Q129 194 154 190Q227 180 280 180T350
208T366 284Q352 273 305 263T205 252ZM331 376Q360 376 360 478T331 581Q300 581 300 479T331 376Z" />
<glyph unicode=":" glyph-name="colon" horiz-adv-x="293" d="M253 359T226 338T147 316T67 337T40 418T67 497T147 517T226 498T253 419ZM253 35T226 13T147 -9T67 13T40 94T67 172T147 192T226 173T253 94Z" />
<glyph unicode=";" glyph-name="semicolon" horiz-adv-x="293" d="M253 359T226 338T147 316T67 337T40 418T67 497T147 517T226 498T253 419ZM40 142T61 166T146 191T231 166T253 90Q253 -153 89 -153Q74 -153 60 -117T45 -60T52 -39Q78 -39 94 -21Q104 -10 104
0Q82 2 62 20Q53 29 47 48T40 105Z" />
<glyph unicode="&lt;" glyph-name="less" horiz-adv-x="362" d="M215 288Q332 48 332 24T280 0Q197 0 169 9T126 39T64 163T15 284T39 354T94 464T129 532T144 552T190 571T278 580T332 545Q332 524 215 288Z" />
<glyph unicode="=" glyph-name="equal" horiz-adv-x="553" d="M462 317H57Q46 317 38 335T30 388T52 458T95 494H497Q523 494 523 429Q523 396 502 357T462 317ZM462 74H57Q46 74 38 92T30 145T52 215T95 251H497Q523 251 523 186Q523 153 502 114T462 74Z" />
<glyph unicode="&gt;" glyph-name="greater" horiz-adv-x="362" d="M30 545Q30 580 152 580Q212 580 236 526Q237 523 268 464Q347 312 347 289T299 164T237 40T205 10T143 0T70 3T36 12T30 26T59 101T147 288Q30 523 30 545Z" />
<glyph unicode="?" glyph-name="question" horiz-adv-x="599" d="M89 441Q61 441 41 507T20 635Q20 649 51 666T145 697T282 711Q569 711 569 511Q569 454 546 413T489 352Q422 315 366 314L343 313Q343 302 348 278T353 236Q353 220 299 212T204 203Q143 203
129 233T114 360Q114 383 200 394Q232 399 258 415T285 459T240 487T146 464T89 441ZM246 169Q314 169 350 152T386 79Q386 -11 246 -11T106 79T246 169Z" />
<glyph unicode="@" glyph-name="at" horiz-adv-x="786" d="M431 235H427Q412 182 347 182Q214 182 214 286Q214 319 232 342T280 376Q330 393 385 393H404Q404 407 396 419T367 431T315 417T281 403Q271 403 253 434T235 489Q235 509 304 522Q343 530 393 530T477
519T526 492T551 453T561 414T562 377V267H594Q623 267 632 291T642 370T633 465T598 542Q549 613 395 613Q240 613 191 544Q166 508 158 467T149 370T152 282T168 212T207 151T280 114T396 98Q407 98 417 74T427 27Q427 -10 396 -10Q255 -10 182 32Q114 70 80
142Q40 226 40 359Q40 454 61 522T115 628T197 687T292 714T397 720Q574 720 660 637T746 404Q746 242 662 204Q634 191 613 189T559 186Q431 186 431 235ZM405 279V347Q390 347 381 334T371 305Q371 267 388 267T405 279Z" />
<glyph unicode="A" glyph-name="A" horiz-adv-x="738" d="M314 22T286 11T183 0T60 13T10 48Q10 72 99 354T201 680Q206 693 281 701T443 710T539 680Q728 52 728 42T716 22Q688 0 605 0Q428 0 424 42L417 107H321L316 51Q314 22 286 11ZM396 297L381 477H359L342
297H396Z" />
<glyph unicode="B" glyph-name="B" horiz-adv-x="705" d="M343 0H124Q74 0 57 7T40 29V672Q40 720 329 720Q495 720 558 688Q622 655 640 604Q650 574 650 534Q650 456 624 417T566 373Q613 363 644 327T675 205Q675 105 614 57Q561 15 452 4Q406 0 343 0ZM344
436Q395 436 395 504Q395 538 382 554T351 571H319V436H344ZM319 149H344Q395 149 395 217Q395 251 382 267T351 284H319V149Z" />
<glyph unicode="C" glyph-name="C" horiz-adv-x="656" d="M501 -2T460 -5T379 -9T318 -7T261 3T197 25T136 66T81 130Q30 216 30 352Q30 443 58 513T127 621T220 682Q304 720 389 720Q511 720 564 700Q588 691 607 672T626 617T609 526T558 471Q548 471 484 487T397
503Q362 503 338 464T313 353T334 241T391 201Q416 201 481 221T558 242Q589 242 606 185T624 93T603 38T541 8Z" />
<glyph unicode="D" glyph-name="D" horiz-adv-x="731" d="M359 0H123Q74 0 57 7T40 30V661Q40 687 62 698T138 710H363Q555 710 628 635T701 360T625 81T359 0ZM351 561Q327 561 319 557V153L357 149Q387 149 402 197T418 363T402 521T351 561Z" />
<glyph unicode="E" glyph-name="E" horiz-adv-x="610" d="M547 0H123Q74 0 57 7T40 29V662Q40 688 63 699T148 710H550Q571 710 571 641T562 535T538 498Q473 498 319 511V444Q467 450 512 450Q539 450 539 387T529 292T500 259L319 263V199Q493 212 559 212Q580
212 580 142T571 36T547 0Z" />
<glyph unicode="F" glyph-name="F" horiz-adv-x="586" d="M319 14T255 7T132 0T57 7T40 29V663Q40 689 66 700T164 711H535Q556 711 556 636T547 521T522 481L319 491V423Q452 429 497 429Q512 429 517 413T523 352T513 265T485 223L319 229V29Q319 14 255 7Z" />
<glyph unicode="G" glyph-name="G" horiz-adv-x="674" d="M257 -8Q223 -8 194 -1T134 28T80 88Q30 172 30 341Q30 434 55 505T118 615T209 680T308 712T406 720Q526 720 575 700T624 621Q624 575 607 522T557 468Q549 468 489 483T399 499Q313 499 313 354Q313
281 333 246T383 206V296Q383 321 434 342T532 363T600 357T630 340Q644 322 644 308V31Q644 18 592 10T483 2T411 7T394 38L387 97H379Q372 54 344 23T257 -8Z" />
<glyph unicode="H" glyph-name="H" horiz-adv-x="727" d="M319 16T259 8T137 0T58 7T40 29V644Q40 669 98 689T224 710Q319 710 319 665V445H408V644Q408 669 466 689T593 710Q687 710 687 665V29Q687 16 626 8T504 0T426 7T408 29V258H319V29Q319 16 259 8Z" />
<glyph unicode="I" glyph-name="I" horiz-adv-x="359" d="M319 13T258 7T136 0T57 5T40 24V646Q40 668 98 689T228 711Q292 711 312 684Q319 674 319 664V24Q319 13 258 7Z" />
<glyph unicode="J" glyph-name="J" horiz-adv-x="410" d="M319 -108T282 -121T197 -135T127 -134T81 -126T42 -108Q10 -81 10 -24Q10 58 52 58Q65 58 72 62Q91 71 91 124V645Q91 667 148 688T271 710Q370 710 370 663V110Q370 41 364 0T339 -74Z" />
<glyph unicode="K" glyph-name="K" horiz-adv-x="709" d="M319 18T258 10T135 2T57 9T40 31V644Q40 670 96 690T227 710Q288 710 306 686Q319 669 319 655V490H327Q327 495 357 573Q414 720 440 720Q489 720 578 691Q621 677 652 651T683 592Q683 572 643 515T520
361Q539 341 568 310T645 218T694 130T647 70T547 14T468 -8Q451 -8 422 43T350 198L319 161V31Q319 18 258 10Z" />
<glyph unicode="L" glyph-name="L" horiz-adv-x="544" d="M124 0Q74 0 57 5T40 24V646Q40 668 98 689T228 711Q292 711 312 684Q319 674 319 664V221Q441 229 503 229Q524 229 524 163T515 48T491 0H124Z" />
<glyph unicode="M" glyph-name="M" horiz-adv-x="880" d="M194 0Q169 0 122 0T57 7T40 29V660Q40 683 101 696T233 710T333 692T368 654L436 390H445L509 642Q516 669 574 689T703 710T806 699T840 671V29Q840 16 783 8T644 0T562 29Q562 108 579 310H570L518
49Q515 34 494 27T429 20T377 26T364 49L310 310H301Q319 104 319 29Q319 3 194 0Z" />
<glyph unicode="N" glyph-name="N" horiz-adv-x="734" d="M319 16T258 8T135 0T57 7T40 29V643Q40 668 97 689T228 710Q254 710 267 708Q301 703 315 665L411 407H415V643Q415 668 472 689T602 710Q665 710 682 686Q694 669 694 655V29Q694 16 633 8T498 0T417
19L324 265H319V29Q319 16 258 8Z" />
<glyph unicode="O" glyph-name="O" horiz-adv-x="756" d="M378 -9Q295 -9 236 6T126 62Q25 141 25 365Q25 459 52 529T129 640Q225 720 378 720Q457 720 515 706T626 655Q731 579 731 365Q731 173 636 82T378 -9ZM357 148T378 148T411 162T431 224T439 357T431
488T411 548T378 562T345 548T325 488T317 357T325 225T345 163Z" />
<glyph unicode="P" glyph-name="P" horiz-adv-x="707" d="M318 29Q318 16 257 8T135 0T57 7T40 29V672Q40 720 328 720Q502 720 558 696Q626 668 650 620Q682 558 682 461Q682 328 636 268Q603 224 570 211T516 193T462 184Q418 180 342 180L318 181V29ZM319 347H343Q362
347 373 352T392 382T401 451T392 519T373 547T350 552H319V347Z" />
<glyph unicode="Q" glyph-name="Q" horiz-adv-x="746" d="M20 373Q20 465 47 533T124 641Q221 720 373 720Q436 720 484 712T580 682T658 622Q726 539 726 386T681 145T555 24Q600 -50 600 -62Q600 -84 578 -99T522 -122Q459 -135 416 -135T357 -127T329 -92L286
0Q164 0 92 90T20 373ZM342 148T373 148T419 195T434 345T426 492T406 549T373 562T340 550Q312 520 312 382T327 196Z" />
<glyph unicode="R" glyph-name="R" horiz-adv-x="716" d="M320 29Q320 16 259 8T137 0T58 7T40 29V672Q40 698 105 709T271 720T400 720T470 716T533 706T585 688T630 660T661 618Q688 575 688 496T662 362T591 279Q706 98 706 49T509 0Q452 0 430 5T402 27L337
233L320 234V29ZM320 388H346Q404 388 404 478Q404 524 389 543T353 562H320V388Z" />
<glyph unicode="S" glyph-name="S" horiz-adv-x="654" d="M519 20T466 6T328 -9T167 5T58 36T25 69Q25 125 41 185T79 246Q83 246 162 219T281 192T333 200T345 225T323 253T268 275T197 303T125 343T70 405T48 498Q48 720 313 720Q412 720 484 708T585 680T615
649Q615 597 591 537T543 477Q539 477 517 486Q451 515 408 515T349 507T333 483T355 456T409 437T480 411T552 370T607 303T629 203Q629 143 598 94Q579 64 549 42Z" />
<glyph unicode="T" glyph-name="T" horiz-adv-x="651" d="M465 13T404 7T281 0T203 5T186 24V454H47Q36 454 28 482T20 565T32 665T64 710H605Q620 710 625 682T631 601T620 501T590 454H465V24Q465 13 404 7Z" />
<glyph unicode="U" glyph-name="U" horiz-adv-x="726" d="M686 135T604 64T365 -8T124 63T40 279V646Q40 671 96 691T228 711Q288 711 306 688Q319 670 319 657V359Q319 246 327 210T364 173T399 208T407 360V646Q407 671 463 691T594 711Q657 711 674 688Q686
670 686 657V279Q686 135 604 64Z" />
<glyph unicode="V" glyph-name="V" horiz-adv-x="727" d="M10 639Q10 651 36 667T109 697T213 710T295 694T323 659L358 295H372L403 650Q406 678 471 694T592 710T675 701T709 681T717 663T703 616T672 533Q619 393 493 31Q482 0 321 0Q271 0 255 7T233 31Q174
201 92 417T10 639Z" />
<glyph unicode="W" glyph-name="W" horiz-adv-x="1016" d="M315 0Q267 0 252 7T231 31L10 641Q10 660 81 685T226 710Q320 710 326 651L360 334H374L402 651Q407 710 537 710Q587 710 604 697T623 661L656 334H670L696 651Q699 680 764 695T894 710T982 691T1006
651L792 31Q781 0 644 0Q603 0 589 7T570 31L518 205H506L453 31Q444 0 315 0Z" />
<glyph unicode="X" glyph-name="X" horiz-adv-x="721" d="M209 0Q136 0 73 12T10 49Q10 63 51 140T177 360Q27 642 27 656Q27 678 90 694T206 710T292 694T329 662L368 485H373L401 660Q402 667 425 679T486 700T575 710T660 698T694 653Q694 636 658 554T549
326Q711 63 711 49Q711 0 592 0Q415 0 402 48L363 187H357L325 48Q314 0 209 0Z" />
<glyph unicode="Y" glyph-name="Y" horiz-adv-x="698" d="M487 16T426 8T305 0T226 6T208 29V203Q10 608 10 643Q10 664 77 687T218 710Q313 710 319 654L346 385H357L376 647Q378 675 447 692T578 710T664 692T688 654Q688 635 487 203V29Q487 16 426 8Z" />
<glyph unicode="Z" glyph-name="Z" horiz-adv-x="627" d="M582 507Q582 489 529 424T370 248H581Q592 248 599 219T607 136T595 41T561 0H74Q45 0 33 58T20 184Q20 199 76 266T245 453H51Q24 453 24 540Q24 601 37 655T70 710H531Q582 710 582 507Z" />
<glyph unicode="[" glyph-name="bracketleft" horiz-adv-x="470" d="M134 -143Q84 -143 67 -138T50 -119V686Q50 699 67 704T134 710H387Q402 710 411 682T420 618Q420 551 399 551Q344 551 294 559V8Q337 16 399 16Q420 16 420 -51Q420 -87 411 -115T387 -143H134Z" />
<glyph unicode="\" glyph-name="backslash" horiz-adv-x="368" d="M0 676Q0 711 132 711Q160 711 180 695T206 657Q368 57 368 44Q368 0 247 0Q219 0 196 12T168 44Q0 670 0 676Z" />
<glyph unicode="]" glyph-name="bracketright" horiz-adv-x="470" d="M336 -143H83Q68 -143 59 -115T50 -51Q50 16 71 16Q126 16 176 8V559Q133 551 71 551Q50 551 50 618Q50 654 59 682T83 710H336Q386 710 403 705T420 686V-119Q420 -132 403 -137T336 -143Z" />
<glyph unicode="^" glyph-name="asciicircum" horiz-adv-x="440" d="M40 711T113 745T222 780T329 746T400 700Q400 665 389 638T360 610Q346 610 220 649Q93 610 80 610Q62 610 51 637T40 700Q40 711 113 745Z" />
<glyph unicode="_" glyph-name="underscore" horiz-adv-x="593" d="M537 -145H42Q15 -145 15 -94Q15 -58 29 -34T65 -10H552Q560 -10 565 -13Q578 -21 578 -59T567 -121T537 -145Z" />
<glyph unicode="`" glyph-name="grave" horiz-adv-x="380" d="M120 780Q181 780 255 751T330 690T315 634T280 610Q223 610 137 621T50 648Q50 704 73 742T120 780Z" />
<glyph unicode="a" glyph-name="a" horiz-adv-x="664" d="M225 -9Q134 -9 82 34Q61 52 46 87T30 169T52 251T107 305T182 336Q247 353 325 353H358Q358 394 330 411Q318 418 294 418T235 405T177 379T146 365Q128 365 97 412T66 499Q66 512 103 533T207 571T339
589T449 579T525 553T575 513T606 468T622 416Q629 379 629 325V24Q629 13 576 7T470 0T402 3T383 10T378 24L370 81H362Q337 -9 225 -9ZM359 157V274Q333 274 317 252T301 202Q301 136 331 136Q344 136 351 142T359 157Z" />
<glyph unicode="b" glyph-name="b" horiz-adv-x="668" d="M90 10Q35 24 35 52V686Q35 708 94 729T218 750Q306 750 306 704V591L295 522H303Q309 531 325 544T360 566Q404 589 457 589T540 576T589 541T619 486Q638 429 638 344Q638 203 606 128T502 22T299 -9T90
10ZM305 138H336Q368 138 368 291T335 445H305V138Z" />
<glyph unicode="c" glyph-name="c" horiz-adv-x="550" d="M164 17Q140 28 113 50T67 102Q25 174 25 290Q25 362 48 418T104 506T180 557Q249 589 318 589Q434 589 479 571T525 510T510 419T469 370Q461 370 421 387T351 404T306 381T290 290T304 198T347 173T421
193T470 213Q489 213 506 168T524 88Q524 34 468 13T317 -9T164 17Z" />
<glyph unicode="d" glyph-name="d" horiz-adv-x="664" d="M223 -9Q186 -9 154 2T102 29T66 72T43 123T31 184Q25 237 25 305Q25 444 76 516T216 589Q307 589 348 546Q357 536 362 522H370L358 591V716Q358 738 414 759T535 780Q603 780 622 754Q629 744 629 734V24Q629
13 574 7T467 0T401 3T383 11T378 24L370 81H362Q353 46 326 22Q292 -9 223 -9ZM335 137Q351 137 359 157V424Q359 434 349 439T330 445Q296 445 296 289Q296 206 305 172T335 137Z" />
<glyph unicode="e" glyph-name="e" horiz-adv-x="640" d="M298 226Q298 161 360 161Q396 161 454 185T515 210Q534 210 565 153T596 69Q596 30 516 10T360 -10T232 2T148 32T91 78T54 129T35 184Q25 228 25 275Q25 457 120 526Q167 561 225 575T362 589Q615 589
615 413Q615 226 331 226H298ZM296 372V306Q325 306 343 329T362 385Q362 445 331 445Q296 445 296 372Z" />
<glyph unicode="f" glyph-name="f" horiz-adv-x="559" d="M358 330V24Q358 13 303 7T168 0T88 24V330H37Q10 330 10 421Q10 457 22 488T55 520H88Q88 587 107 637T154 713T221 756Q279 780 353 780Q539 780 539 719Q539 653 526 611T491 569Q482 569 458 575T411
582Q353 582 353 542Q353 532 358 520H491Q518 520 518 432Q518 393 507 362T476 330H358Z" />
<glyph unicode="g" glyph-name="g" horiz-adv-x="659" d="M369 66V124H361Q357 119 347 112T298 91T209 78T125 93T72 130T42 191Q25 250 25 351Q25 467 74 529Q93 554 130 571T211 589T282 580T324 557Q352 529 356 508L357 499H365L374 538Q384 580 532 580Q598
580 612 560Q620 548 622 538T624 506V87Q624 -31 547 -93T321 -155Q163 -155 106 -124Q81 -110 81 -95Q81 -71 100 -14T137 43Q141 43 165 36Q241 16 288 16T352 28T369 66ZM329 192Q340 192 347 200T354 218V424Q350 445 332 445Q294 445 294 320Q294 262 303
227T329 192Z" />
<glyph unicode="h" glyph-name="h" horiz-adv-x="665" d="M360 24V302Q360 377 354 411T325 445Q305 445 305 418V24Q305 13 247 7T128 0T51 5T35 24V717Q35 738 93 759T215 780Q282 780 300 755Q306 747 306 738V591L295 522H302Q316 543 346 559Q402 589 468
589Q563 589 596 529T630 332V24Q630 13 572 7T453 0T376 5T360 24Z" />
<glyph unicode="i" glyph-name="i" horiz-adv-x="350" d="M310 517V24Q310 13 253 7T135 0T57 5T39 24V499Q39 521 95 542T219 564Q310 564 310 517ZM174 780Q240 780 277 761T315 690Q315 600 175 600T35 690T174 780Z" />
<glyph unicode="j" glyph-name="j" horiz-adv-x="400" d="M360 -33T305 -94T152 -155T28 -137T0 -54T25 14Q60 19 74 32T89 80V499Q89 521 145 542T268 564Q360 564 360 517V90Q360 -33 305 -94ZM365 600T225 600T85 691Q85 742 122 761T227 780T329 763T365 693Q365
600 225 600Z" />
<glyph unicode="k" glyph-name="k" horiz-adv-x="636" d="M305 13T249 7T132 0T53 5T35 24V716Q35 738 91 759T213 780Q305 780 305 734V360H318Q366 589 389 589Q447 589 529 562T611 502Q611 478 571 410T488 299Q631 128 631 96Q631 66 540 23T412 -20Q394
-20 374 23T331 154L305 123V24Q305 13 249 7Z" />
<glyph unicode="l" glyph-name="l" horiz-adv-x="340" d="M305 734V24Q305 13 248 7T131 0T53 5T35 24V716Q35 738 91 759T213 780Q305 780 305 734Z" />
<glyph unicode="m" glyph-name="m" horiz-adv-x="981" d="M946 330V24Q946 13 890 7T773 0T694 5T676 24V301Q676 444 647 444Q640 444 633 438T626 417V24Q626 13 570 7T452 0T374 5T356 24V301Q356 412 342 434Q335 444 324 444Q305 444 305 417V24Q305 13 248
7T131 0T53 5T35 24V517Q35 538 92 559T214 580T286 543L295 499H302Q331 556 398 580Q426 589 470 589Q558 589 598 499Q611 529 663 559T778 589Q877 589 911 528T946 330Z" />
<glyph unicode="n" glyph-name="n" horiz-adv-x="673" d="M638 332V24Q638 13 581 7T464 0T386 5T368 24V342Q368 387 365 401T358 426Q351 445 333 445Q305 445 305 418V24Q305 13 249 7T132 0T53 5T35 24V517Q35 538 92 559T214 580T286 543L295 499H302Q331
557 402 580Q431 589 466 589Q567 589 602 529T638 332Z" />
<glyph unicode="o" glyph-name="o" horiz-adv-x="685" d="M343 -9Q268 -9 214 4T116 50Q25 116 25 296Q25 456 118 525Q205 589 343 589Q402 589 444 584T529 560T599 511T643 426T660 296Q660 144 574 68T343 -9ZM315 150T322 143T342 136T362 143T376 186T383
276T381 360T375 406T365 431Q356 444 344 444T323 437T308 393T301 289T308 186Z" />
<glyph unicode="p" glyph-name="p" horiz-adv-x="663" d="M35 -121V515Q35 536 91 558T212 580Q242 580 259 573T280 559Q284 552 295 499H303Q305 508 321 527T353 558T401 579T473 589T549 571T599 528T625 466T636 406T638 341T635 257T624 172T601 98T563
42Q517 -8 428 -8Q396 -8 372 1T335 24Q310 51 306 72L305 82H297L311 -8V-121Q311 -132 254 -138T136 -145T55 -140T35 -121ZM367 378T358 412T331 446T305 426V164Q305 138 332 138Q367 138 367 293Q367 378 358 412Z" />
<glyph unicode="q" glyph-name="q" horiz-adv-x="663" d="M314 7T288 0T218 -8T137 8T78 50T44 114Q25 174 25 265Q25 438 104 513T362 589Q461 589 504 582T573 569Q628 556 628 527V-121Q628 -132 573 -138T437 -145T357 -121V-8L369 61H361Q361 53 351 39T328
16ZM328 444Q296 444 296 291T330 138Q338 138 348 143T358 157V440Q351 444 328 444Z" />
<glyph unicode="r" glyph-name="r" horiz-adv-x="586" d="M305 316V24Q305 13 249 7T132 0T53 5T35 24V517Q35 536 90 558T211 580T285 544L295 498H302Q316 536 369 562T475 589T549 572T571 529T567 461T548 372T507 324Q497 324 444 339T357 354T314 344T305 316Z" />
<glyph unicode="s" glyph-name="s" horiz-adv-x="611" d="M307 -9Q141 -9 64 23Q25 40 25 56Q25 97 49 152T91 207Q101 207 158 185T255 163T307 168T320 187T300 210T250 222T186 234T121 257T71 303T51 373T53 429T69 481T110 536T192 574T317 591T432 587T505
575T549 559Q578 544 578 526Q578 487 550 436T506 385T434 402T353 420Q311 420 311 396Q311 381 339 374T408 358T488 336T557 283T586 187Q586 -9 307 -9Z" />
<glyph unicode="t" glyph-name="t" horiz-adv-x="482" d="M410 -8T346 -8T240 0T160 34Q87 83 87 238V394H37Q26 394 18 417T10 480T22 550T55 581H87V702Q87 733 147 752T266 771Q357 771 357 726V581H431Q457 581 457 506Q457 457 446 426T416 394H357V211Q357
184 380 173T420 161T442 144T446 93Q446 26 428 9Z" />
<glyph unicode="u" glyph-name="u" horiz-adv-x="678" d="M236 -9Q124 -9 80 49T35 251V523Q35 543 94 561T218 580Q305 580 305 535V281Q305 205 311 171T341 136Q373 136 373 163V523Q373 544 435 562T570 580T643 541V26Q643 12 580 6T456 0T394 16L384 81H376Q367
45 340 22Q326 10 299 1T236 -9Z" />
<glyph unicode="v" glyph-name="v" horiz-adv-x="679" d="M5 509Q5 519 34 535T113 566T211 580Q308 580 311 533L336 215H349L371 517Q373 542 440 561T558 580T634 571T667 553T674 536T632 433T462 24Q452 0 299 0Q251 0 236 5T216 24Q147 198 76 351T5 509Z" />
<glyph unicode="w" glyph-name="w" horiz-adv-x="983" d="M794 24Q781 0 659 0T531 24L497 206H483L451 24Q448 0 276 0Q228 0 213 5T191 24Q5 481 5 505T77 554T217 580Q303 580 306 534L340 260H352L364 481Q365 506 415 525T516 544T592 532T619 501L630 260H641L674
517Q677 541 741 560T855 580T932 566Q978 544 978 514Q978 511 888 270T794 24Z" />
<glyph unicode="x" glyph-name="x" horiz-adv-x="679" d="M306 38Q298 0 217 0T71 9T5 39Q5 51 47 114T174 291Q14 509 14 519Q14 538 84 559T202 580T276 569T306 543L350 390H359L375 534Q376 540 398 550T459 570T532 580Q664 580 664 535Q664 521 625 457T508
277Q674 52 674 39Q674 0 561 0Q386 0 378 38L339 169H332L306 38Z" />
<glyph unicode="y" glyph-name="y" horiz-adv-x="661" d="M372 65V124H364Q359 119 349 111T302 90T220 77T140 91T85 130T54 196Q35 261 35 380V518Q35 539 94 559T218 580Q305 580 305 535V409Q305 209 337 209Q356 209 356 236V518Q356 539 419 559T554 580T626
541V68Q626 -155 324 -155Q165 -155 108 -124Q83 -110 83 -95Q83 -71 103 -15T140 42Q144 42 168 36Q242 16 291 16T356 27T372 65Z" />
<glyph unicode="z" glyph-name="z" horiz-adv-x="576" d="M531 428Q531 414 490 354T365 187H526Q551 187 551 117Q551 71 538 36T506 0H75Q48 0 37 47T25 150Q25 162 71 222T211 393H58Q33 393 33 463Q33 509 45 544T78 580H483Q531 580 531 428Z" />
<glyph unicode="{" glyph-name="braceleft" horiz-adv-x="466" d="M403 719T412 712T421 663T406 591T364 560Q325 560 313 526T300 437T294 359T278 322Q259 296 235 283Q299 240 299 144Q299 70 312 41T362 11Q421 11 421 -103Q421 -125 410 -138T370 -151T317
-149T256 -140T188 -117T130 -75Q69 -22 69 87Q69 199 48 216Q40 223 31 226Q10 231 10 286Q10 340 26 342Q57 347 64 400Q69 431 69 483T85 576T129 643T188 684T256 708Q322 719 362 719Z" />
<glyph unicode="|" glyph-name="bar" horiz-adv-x="280" d="M235 669V-101Q235 -145 99 -145Q45 -145 45 -101V651Q45 710 173 710Q235 710 235 669Z" />
<glyph unicode="}" glyph-name="braceright" horiz-adv-x="466" d="M76 560T61 590T45 662T54 711T94 719T149 717T210 708T278 685T336 643Q397 590 397 481Q397 371 420 352Q426 347 432 346T444 340Q456 330 456 292T450 241T436 226T418 216Q397 200 397 87Q397
-22 337 -75T210 -140Q144 -151 106 -151T57 -138T45 -103Q45 11 104 11Q140 11 153 40T167 122T174 199T190 240Q210 269 231 283Q224 285 211 297T188 322Q166 356 166 408Q166 492 154 526T102 560Q76 560 61 590Z" />
<glyph unicode="~" glyph-name="asciitilde" horiz-adv-x="561" d="M521 674T470 642T380 610T288 627T219 645T159 628T97 610T60 645T40 700Q40 717 94 748T185 780T273 763T349 746Q356 746 398 763T460 780T500 743T521 689Q521 674 470 642Z" />
<glyph unicode="&#xa1;" glyph-name="exclamdown" horiz-adv-x="332" d="M302 -132T244 -138T108 -145T30 -122Q46 272 48 293T85 335T183 355Q270 355 274 308L301 -121Q302 -132 244 -138ZM42 550T74 569T165 589T255 572T286 499Q286 409 164 409T42 499Q42
550 74 569Z" />
<glyph unicode="&#xa2;" glyph-name="cent" d="M400 -53Q400 -97 264 -97Q210 -97 210 -53V1Q25 46 25 289T210 578V618Q210 677 338 677Q400 677 400 636V586Q468 581 496 563T525 506T510 419T469 370Q461 370 421 387T351 404T306 381T290 290T304 198T347
173T421 193T470 213Q489 213 506 168T524 88Q524 11 400 -4V-53Z" />
<glyph unicode="&#xa3;" glyph-name="sterling" horiz-adv-x="594" d="M97 257Q97 279 90 300H37Q24 300 17 326T10 387T18 448T36 482T56 490H88Q88 569 112 627T178 718Q258 780 361 780T502 763T539 713Q539 658 526 613T493 568Q481 568 458 575T413 582T377
559T361 513L359 490H492Q502 490 510 473T518 428Q518 300 473 300H356Q356 236 316 215V209Q506 219 539 219Q564 219 564 134Q564 60 555 38Q540 3 532 1L529 0H64Q15 0 15 92Q15 204 50 204Q97 204 97 257Z" />
<glyph unicode="&#xa4;" glyph-name="currency" horiz-adv-x="721" d="M500 14Q436 -9 358 -9T215 14L171 -30Q159 -41 142 -41T98 -15Q36 48 36 86Q36 104 49 117L71 139Q39 205 39 295T69 446L49 466Q36 479 36 497Q36 536 98 598Q124 624 149 624Q162 624 171
613L215 568Q280 589 360 589T501 569L543 611Q557 625 574 625T612 604Q685 531 685 496Q685 485 677 477L645 445Q674 382 674 295T642 141L677 106Q685 98 685 87Q685 52 612 -21Q591 -42 574 -42T543 -28L500 14ZM357 136Q417 136 417 290T357 444Q295 444
295 290T357 136Z" />
<glyph unicode="&#xa5;" glyph-name="yen" horiz-adv-x="698" d="M547 78H487V29Q487 16 426 8T305 0T226 6T208 29V78H112Q97 78 97 119Q97 139 109 159T134 179H208V218H132Q117 218 117 258Q117 279 129 299T154 320H185Q10 612 10 643Q10 664 77 687T218 710Q313
710 319 654L346 385H357L376 647Q378 675 447 692T578 710T664 692T688 655T508 320H587Q602 320 602 283Q602 264 590 241T567 218H487V179H567Q582 179 582 142Q582 123 570 101T547 78Z" />
<glyph unicode="&#xa6;" glyph-name="brokenbar" horiz-adv-x="280" d="M235 669V367Q235 323 99 323Q45 323 45 367V651Q45 710 173 710Q235 710 235 669ZM235 202V-100Q235 -144 99 -144Q45 -144 45 -100V184Q45 243 173 243Q235 243 235 202Z" />
<glyph unicode="&#xa7;" glyph-name="section" horiz-adv-x="579" d="M291 -106Q136 -106 58 -70Q20 -53 20 -36Q20 5 43 59T83 114Q93 114 148 90T242 65T291 70T303 89T284 112T236 124T174 136T112 159T64 205T45 286Q45 397 115 446Q45 483 45 575Q45 644
66 682Q76 698 95 718T142 751Q204 781 309 781Q465 781 524 749Q551 734 551 716Q551 677 525 627T482 576T420 593T351 611Q295 611 295 587Q295 563 364 554Q428 547 490 513Q520 497 539 462T559 378Q559 276 484 227Q559 182 559 89Q559 -106 291 -106ZM308
352Q244 352 244 320Q258 302 298 302Q362 302 362 334Q348 352 308 352Z" />
<glyph unicode="&#xa8;" glyph-name="dieresis" horiz-adv-x="570" d="M198 600T146 600T67 619T40 691T67 762T146 780T225 762T253 692T226 620ZM475 600T423 600T344 619T317 691T344 762T423 780T502 762T530 692T503 620Z" />
<glyph unicode="&#xa9;" glyph-name="copyright" horiz-adv-x="685" d="M525 17T471 4T343 -9T214 4T116 50Q25 116 25 296Q25 440 86 511Q112 542 155 560T241 583T343 589T444 584T529 560T599 511T643 426T660 288T637 144T570 50ZM109 167T169 119T342 71T515
119T575 295Q575 432 506 473Q471 494 434 501T349 509T269 505T205 488T154 452Q109 400 109 295Q109 167 169 119ZM340 148Q303 148 262 168Q238 181 223 213T207 293Q207 441 351 441Q446 441 446 404Q446 386 439 364T419 341Q415 341 389 347T352 354T331
339T321 293Q321 233 352 233Q362 233 388 241T419 249Q431 249 438 227T445 187Q445 148 340 148Z" />
<glyph unicode="&#xaa;" glyph-name="ordfeminine" horiz-adv-x="332" d="M138 464T91 464T30 470T15 479T24 514Q51 613 84 700Q85 704 129 707T209 710T250 700Q284 608 300 546T317 481Q317 464 256 464T193 479L190 502H143L141 482Q138 464 91 464ZM181 568L175
629H158L151 568H181Z" />
<glyph unicode="&#xab;" glyph-name="guillemotleft" horiz-adv-x="716" d="M255 288Q372 48 372 24T318 0T232 5T189 18T162 45T80 165T15 288Q15 310 84 409Q109 445 136 484T170 533T186 552T230 570T318 580T372 545Q372 524 255 288ZM569 288Q686 48 686
24T632 0T546 5T503 18T476 45T394 165T329 288Q329 310 398 409Q423 445 450 484T484 533T500 552T544 570T632 580T686 545Q686 524 569 288Z" />
<glyph unicode="&#xac;" glyph-name="logicalnot" horiz-adv-x="553" d="M525 308V103Q525 92 485 86T398 80T350 95V190H63Q30 190 30 253Q30 296 51 331T95 367H498Q525 367 525 308Z" />
<glyph unicode="&#xad;" glyph-name="uni00AD" horiz-adv-x="833" />
<glyph unicode="&#xae;" glyph-name="registered" horiz-adv-x="685" d="M525 17T471 4T343 -9T214 4T116 50Q25 116 25 296Q25 440 86 511Q112 542 155 560T241 583T343 589T444 584T529 560T599 511T643 426T660 288T637 144T570 50ZM109 167T169 119T342 71T515
119T575 295Q575 432 506 473Q471 494 434 501T349 509T269 505T205 488T154 452Q109 400 109 295Q109 167 169 119ZM329 162Q329 151 279 151T228 162V417Q228 424 234 428Q247 436 325 436T437 418T470 338T425 251Q478 190 478 171T407 151Q382 151 376 153T367
162L336 235L329 236V162ZM329 306H341Q354 306 361 312T368 338Q368 369 344 369H329V306Z" />
<glyph unicode="&#xaf;" glyph-name="overscore" horiz-adv-x="553" d="M462 610H57Q46 610 38 628T30 678T52 739T95 770H497Q523 770 523 705Q523 673 502 642T462 610Z" />
<glyph unicode="&#xb0;" glyph-name="degree" horiz-adv-x="375" d="M330 519T293 492T188 464T82 491T45 590T82 686T187 710T292 686T330 591ZM149 587Q149 553 187 553T226 587Q226 607 216 613T191 620T168 618Q149 613 149 587Z" />
<glyph unicode="&#xb1;" glyph-name="plusminus" horiz-adv-x="553" d="M253 217Q188 217 188 243V376H57Q46 376 38 394T30 447T52 517T95 553H188V665Q188 684 221 697T291 710T346 702T365 683V553H497Q523 553 523 488Q523 455 502 416T462 376H365V258Q365
241 328 229T253 217ZM462 0H57Q46 0 38 18T30 71T52 141T95 177H497Q523 177 523 112Q523 79 502 40T462 0Z" />
<glyph unicode="&#xb2;" glyph-name="twosuperior" horiz-adv-x="362" d="M62 596Q47 596 36 635T25 708Q25 715 42 724Q82 748 159 748T285 722T334 640Q334 611 320 586T287 546T245 518Q214 502 193 497H317Q337 497 337 440Q337 411 331 394T318 374L311 371H60Q27
371 27 475Q27 484 61 507T131 558T166 604Q166 620 142 620T92 608T62 596Z" />
<glyph unicode="&#xb3;" glyph-name="threesuperior" horiz-adv-x="364" d="M25 400Q25 459 46 490Q54 501 59 501T90 492T141 482T166 498Q166 520 118 522Q99 522 98 522Q86 527 86 557T98 593Q100 594 118 594Q166 596 166 616Q166 632 143 632T92 621T61 609Q48
609 39 648T29 701T42 724Q76 748 161 748T288 719T329 648Q329 623 318 604Q305 579 287 568Q305 561 319 535T334 480Q334 422 285 394T159 366Q88 366 42 386Q25 394 25 400Z" />
<glyph unicode="&#xb4;" glyph-name="acute" horiz-adv-x="380" d="M260 780Q283 780 306 742T330 648Q330 633 244 622T100 610Q81 610 66 634T50 689T124 750T260 780Z" />
<glyph unicode="&#xb5;" glyph-name="mu" horiz-adv-x="688" d="M247 31H243Q310 -106 310 -125Q310 -155 138 -155Q58 -155 46 -144Q40 -140 40 -132V523Q40 545 103 562T224 580Q310 580 310 532V265Q310 196 317 166T349 136Q378 136 378 170V522Q378 546 443
563T570 580Q648 580 648 541V25Q648 13 590 7T466 0T399 17L389 81H381Q380 78 379 73T372 53T358 28Q336 0 303 0T247 31Z" />
<glyph unicode="&#xb6;" glyph-name="paragraph" horiz-adv-x="703" d="M222 197Q117 197 69 265T20 440Q20 576 78 642Q130 700 248 714Q298 720 369 720Q658 720 658 668V-121Q658 -145 535 -145Q487 -145 487 -121V537H443V-121Q443 -145 320 -145Q272 -145
272 -121V197H222Z" />
<glyph unicode="&#xb7;" glyph-name="middot" horiz-adv-x="293" d="M253 245T226 223T147 201T67 223T40 304T67 382T147 402T226 383T253 304Z" />
<glyph unicode="&#xb8;" glyph-name="cedilla" horiz-adv-x="268" d="M85 -74L56 -75Q40 -75 40 -44V3Q40 11 64 18T114 25T141 10V-15Q228 -18 228 -84Q228 -115 198 -134T135 -159T63 -165Q55 -165 50 -150T45 -117T53 -100Q127 -100 127 -84Q127 -74 85 -74Z" />
<glyph unicode="&#xb9;" glyph-name="onesuperior" horiz-adv-x="275" d="M123 367Q78 367 78 380V604H24Q15 604 15 644T24 712Q26 722 84 730T188 739T235 714V380Q235 367 123 367Z" />
<glyph unicode="&#xba;" glyph-name="ordmasculine" horiz-adv-x="375" d="M330 519T293 492T188 464T82 491T45 590T82 686T187 710T292 686T330 591ZM189 556Q209 556 209 587T188 619T166 589Q166 574 172 565T189 556Z" />
<glyph unicode="&#xbb;" glyph-name="guillemotright" horiz-adv-x="694" d="M30 545Q30 580 152 580Q192 580 216 551Q219 548 227 538T247 512T318 403T377 287T317 166T238 42T203 10T142 0T70 3T36 12T30 26T59 101T147 288Q30 523 30 545ZM332 545Q332 580
454 580Q494 580 518 551Q521 548 529 538T549 512T620 403T679 287T619 166T540 42T505 10T444 0T372 3T338 12T332 26T361 101T449 288Q332 523 332 545Z" />
<glyph unicode="&#xbc;" glyph-name="onequarter" horiz-adv-x="771" d="M266 23T245 12T175 0T126 26Q126 28 128 34L482 660Q491 676 498 684T526 701T576 710Q638 710 638 683Q638 678 636 674L278 44Q266 23 245 12ZM138 327Q93 327 93 340V564H39Q30 564
30 604T39 672Q41 682 99 690T203 699T250 674V340Q250 327 138 327ZM628 0Q584 0 584 13V73H446Q428 73 428 161Q428 171 473 246T536 347Q543 356 588 364T673 372Q741 372 741 347V13Q741 0 628 0ZM593 156V271L556 156H593Z" />
<glyph unicode="&#xbd;" glyph-name="onehalf" horiz-adv-x="828" d="M256 23T235 12T165 0T116 26Q116 28 118 34L472 660Q481 676 488 684T516 701T566 710Q628 710 628 683Q628 678 626 674L268 44Q256 23 235 12ZM138 327Q93 327 93 340V564H39Q30 564 30
604T39 672Q41 682 99 690T203 699T250 674V340Q250 327 138 327ZM523 225Q508 225 497 264T486 337Q486 344 502 354Q543 377 620 377T746 351T795 269Q795 240 781 215T748 175T706 148Q675 131 654 126H778Q798 126 798 69Q798 40 792 23T778 2L772 0H521Q488
0 488 104Q488 113 523 136T592 187T627 233Q627 249 603 249T552 237T523 225Z" />
<glyph unicode="&#xbe;" glyph-name="threequarters" horiz-adv-x="799" d="M312 23T291 12T221 0T172 26Q172 28 174 34L528 660Q537 676 544 684T572 701T622 710Q684 710 684 683Q684 678 682 674L324 44Q312 23 291 12ZM30 363Q30 422 51 452Q59 464 64 464T95
455T146 445T171 461Q171 483 124 484Q104 485 103 485Q91 490 91 521T103 556Q105 557 124 558Q171 559 171 579Q171 595 148 595T97 584T66 572Q53 572 44 611T34 664T47 686Q81 711 166 711T293 682T334 611Q334 586 324 566Q310 542 292 531Q310 524 324 498T339
443Q339 385 290 357T164 329Q93 329 47 350Q30 357 30 363ZM656 0Q612 0 612 13V73H474Q456 73 456 161Q456 171 501 246T564 347Q571 356 616 364T701 372Q769 372 769 347V13Q769 0 656 0ZM621 156V271L584 156H621Z" />
<glyph unicode="&#xbf;" glyph-name="questiondown" horiz-adv-x="599" d="M510 115Q538 115 558 49T579 -79Q579 -93 548 -110T454 -141T317 -155Q30 -155 30 46Q30 103 53 146T110 210Q178 255 232 260L256 263Q256 275 251 299T246 339T300 364T395 373Q456
373 470 343T485 216Q485 194 399 172Q367 164 340 145T313 99Q313 69 358 69T453 92T510 115ZM353 410Q285 410 249 427T213 500Q213 590 353 590T493 500T353 410Z" />
<glyph unicode="&#xc0;" glyph-name="Agrave" horiz-adv-x="748" d="M319 22T291 11T188 0T65 13T15 48Q15 72 104 354T206 680Q211 693 286 701T448 710T544 680Q733 52 733 42T721 22Q693 0 610 0Q433 0 429 42L422 107H326L321 51Q319 22 291 11ZM401 297L386
477H364L347 297H401ZM244 910Q305 910 379 881T454 820T439 764T404 740Q347 740 261 751T174 778Q174 834 197 872T244 910Z" />
<glyph unicode="&#xc1;" glyph-name="Aacute" horiz-adv-x="748" d="M319 22T291 11T188 0T65 13T15 48Q15 72 104 354T206 680Q211 693 286 701T448 710T544 680Q733 52 733 42T721 22Q693 0 610 0Q433 0 429 42L422 107H326L321 51Q319 22 291 11ZM401 297L386
477H364L347 297H401ZM484 910Q507 910 530 872T554 778Q554 763 468 752T324 740Q305 740 290 764T274 819T348 880T484 910Z" />
<glyph unicode="&#xc2;" glyph-name="Acircumflex" horiz-adv-x="748" d="M319 22T291 11T188 0T65 13T15 48Q15 72 104 354T206 680Q211 693 286 701T448 710T544 680Q733 52 733 42T721 22Q693 0 610 0Q433 0 429 42L422 107H326L321 51Q319 22 291 11ZM401
297L386 477H364L347 297H401ZM194 831T267 865T376 900T483 866T554 820Q554 785 543 758T514 730Q500 730 374 769Q247 730 234 730Q216 730 205 757T194 820Q194 831 267 865Z" />
<glyph unicode="&#xc3;" glyph-name="Atilde" horiz-adv-x="748" d="M319 22T291 11T188 0T65 13T15 48Q15 72 104 354T206 680Q211 693 286 701T448 710T544 680Q733 52 733 42T721 22Q693 0 610 0Q433 0 429 42L422 107H326L321 51Q319 22 291 11ZM401 297L386
477H364L347 297H401ZM623 804T572 772T482 740T390 757T321 775T261 758T199 740T162 775T142 830Q142 847 196 878T287 910T375 893T451 876Q458 876 500 893T562 910T602 873T623 819Q623 804 572 772Z" />
<glyph unicode="&#xc4;" glyph-name="Adieresis" horiz-adv-x="748" d="M319 22T291 11T188 0T65 13T15 48Q15 72 104 354T206 680Q211 693 286 701T448 710T544 680Q733 52 733 42T721 22Q693 0 610 0Q433 0 429 42L422 107H326L321 51Q319 22 291 11ZM401 297L386
477H364L347 297H401ZM292 730T240 730T161 749T134 821T161 892T240 910T319 892T347 822T320 750ZM569 730T517 730T438 749T411 821T438 892T517 910T596 892T624 822T597 750Z" />
<glyph unicode="&#xc5;" glyph-name="Aring" horiz-adv-x="748" d="M319 22T291 11T188 0T65 13T15 48Q15 72 104 354T206 680Q211 693 286 701T448 710T544 680Q733 52 733 42T721 22Q693 0 610 0Q433 0 429 42L422 107H326L321 51Q319 22 291 11ZM401 297L386
477H364L347 297H401ZM489 767T461 749T374 730T287 748T259 817T287 884T374 900T461 884T489 818ZM347 805T352 801T374 797T395 801T401 815T395 829T374 833T353 830T347 816Z" />
<glyph unicode="&#xc6;" glyph-name="AE" horiz-adv-x="1004" d="M941 0H517Q468 0 451 7T434 29V107H320L303 51Q294 22 263 11T174 0T78 8Q15 21 15 48Q15 67 128 318T297 672Q304 685 368 693T528 702H944Q965 702 965 633T956 528T932 493Q893 493 713 506V439Q861
445 906 445Q933 445 933 382T923 287T894 254L713 258V194Q887 207 953 207Q974 207 974 138Q974 0 941 0ZM434 297V466L375 297H434Z" />
<glyph unicode="&#xc7;" glyph-name="Ccedilla" horiz-adv-x="661" d="M423 -9T464 -6T546 7T607 37T629 93T612 185T563 242Q552 242 487 222T396 201Q361 201 340 241T318 353T342 464T402 503Q425 503 489 487T563 471Q596 471 613 526T631 617T612 672T569
700Q516 720 394 720Q309 720 226 682Q173 659 133 621T64 513T35 352Q35 216 86 130Q108 93 140 66T202 25T266 3T322 -7T383 -9ZM356 -84L327 -85Q311 -85 311 -54V-7Q311 1 335 8T385 15T412 0V-25Q499 -28 499 -94Q499 -125 469 -144T406 -169T334 -175Q326
-175 321 -160T316 -127T324 -110Q398 -110 398 -94Q398 -84 356 -84Z" />
<glyph unicode="&#xc8;" glyph-name="Egrave" horiz-adv-x="615" d="M552 0H128Q79 0 62 7T45 29V662Q45 688 68 699T153 710H555Q576 710 576 641T567 535T543 498Q478 498 324 511V444Q472 450 517 450Q544 450 544 387T534 292T505 259L324 263V199Q498 212
564 212Q585 212 585 142T576 36T552 0ZM207 910Q268 910 342 881T417 820T402 764T367 740Q310 740 224 751T137 778Q137 834 160 872T207 910Z" />
<glyph unicode="&#xc9;" glyph-name="Eacute" horiz-adv-x="615" d="M552 0H128Q79 0 62 7T45 29V662Q45 688 68 699T153 710H555Q576 710 576 641T567 535T543 498Q478 498 324 511V444Q472 450 517 450Q544 450 544 387T534 292T505 259L324 263V199Q498 212
564 212Q585 212 585 142T576 36T552 0ZM417 910Q440 910 463 872T487 778Q487 763 401 752T257 740Q238 740 223 764T207 819T281 880T417 910Z" />
<glyph unicode="&#xca;" glyph-name="Ecircumflex" horiz-adv-x="615" d="M552 0H128Q79 0 62 7T45 29V662Q45 688 68 699T153 710H555Q576 710 576 641T567 535T543 498Q478 498 324 511V444Q472 450 517 450Q544 450 544 387T534 292T505 259L324 263V199Q498
212 564 212Q585 212 585 142T576 36T552 0ZM127 831T200 865T309 900T416 866T487 820Q487 785 476 758T447 730Q433 730 307 769Q180 730 167 730Q149 730 138 757T127 820Q127 831 200 865Z" />
<glyph unicode="&#xcb;" glyph-name="Edieresis" horiz-adv-x="615" d="M552 0H128Q79 0 62 7T45 29V662Q45 688 68 699T153 710H555Q576 710 576 641T567 535T543 498Q478 498 324 511V444Q472 450 517 450Q544 450 544 387T534 292T505 259L324 263V199Q498
212 564 212Q585 212 585 142T576 36T552 0ZM225 730T173 730T94 749T67 821T94 892T173 910T252 892T280 822T253 750ZM502 730T450 730T371 749T344 821T371 892T450 910T529 892T557 822T530 750Z" />
<glyph unicode="&#xcc;" glyph-name="Igrave" horiz-adv-x="369" d="M324 13T263 7T141 0T62 5T45 24V646Q45 668 103 689T233 711Q297 711 316 684Q324 674 324 664V24Q324 13 263 7ZM85 910Q146 910 220 881T295 820T280 764T245 740Q188 740 102 751T15 778Q15
834 38 872T85 910Z" />
<glyph unicode="&#xcd;" glyph-name="Iacute" horiz-adv-x="369" d="M324 13T263 7T141 0T62 5T45 24V646Q45 668 103 689T233 711Q297 711 316 684Q324 674 324 664V24Q324 13 263 7ZM285 910Q308 910 331 872T355 778Q355 763 269 752T125 740Q106 740 91 764T75
819T149 880T285 910Z" />
<glyph unicode="&#xce;" glyph-name="Icircumflex" horiz-adv-x="369" d="M324 13T263 7T141 0T62 5T45 24V646Q45 668 103 689T233 711Q297 711 316 684Q324 674 324 664V24Q324 13 263 7ZM9 831T82 865T191 900T298 866T369 820Q369 785 358 758T329 730Q315
730 189 769Q62 730 49 730Q31 730 20 757T9 820Q9 831 82 865Z" />
<glyph unicode="&#xcf;" glyph-name="Idieresis" horiz-adv-x="369" d="M324 13T263 7T141 0T62 5T45 24V646Q45 668 103 689T233 711Q297 711 316 684Q324 674 324 664V24Q324 13 263 7ZM103 730T51 730T-28 749T-55 821T-28 892T51 910T130 892T158 822T131
750ZM380 730T328 730T249 749T222 821T249 892T328 910T407 892T435 822T408 750Z" />
<glyph unicode="&#xd0;" glyph-name="Eth" horiz-adv-x="776" d="M80 273H37Q26 273 18 291T10 344T32 414T75 450H80V661Q80 687 102 698T178 710H403Q595 710 668 635T741 360T665 81T399 0H163Q114 0 97 7T80 30V273ZM391 561Q367 561 359 557V450H399Q425
450 425 385Q425 352 404 313T364 273H359V152Q374 149 397 149Q427 149 442 197T458 363T442 521T391 561Z" />
<glyph unicode="&#xd1;" glyph-name="Ntilde" horiz-adv-x="734" d="M319 16T258 8T135 0T57 7T40 29V643Q40 668 97 689T228 710Q254 710 267 708Q301 703 315 665L411 407H415V643Q415 668 472 689T602 710Q665 710 682 686Q694 669 694 655V29Q694 16 633 8T498
0T417 19L324 265H319V29Q319 16 258 8ZM602 794T551 762T461 730T369 747T300 765T240 748T178 730T141 765T121 820Q121 837 175 868T266 900T354 883T430 866Q437 866 479 883T541 900T581 863T602 809Q602 794 551 762Z" />
<glyph unicode="&#xd2;" glyph-name="Ograve" horiz-adv-x="776" d="M388 -9Q305 -9 246 6T136 62Q35 141 35 365Q35 459 62 529T139 640Q235 720 388 720Q467 720 525 706T636 655Q741 579 741 365Q741 173 646 82T388 -9ZM367 148T388 148T421 162T441 224T449
357T441 488T421 548T388 562T355 548T335 488T327 357T335 225T355 163ZM268 910Q329 910 403 881T478 820T463 764T428 740Q371 740 285 751T198 778Q198 834 221 872T268 910Z" />
<glyph unicode="&#xd3;" glyph-name="Oacute" horiz-adv-x="776" d="M388 -9Q305 -9 246 6T136 62Q35 141 35 365Q35 459 62 529T139 640Q235 720 388 720Q467 720 525 706T636 655Q741 579 741 365Q741 173 646 82T388 -9ZM367 148T388 148T421 162T441 224T449
357T441 488T421 548T388 562T355 548T335 488T327 357T335 225T355 163ZM498 920Q521 920 544 882T568 788Q568 773 482 762T338 750Q319 750 304 774T288 829T362 890T498 920Z" />
<glyph unicode="&#xd4;" glyph-name="Ocircumflex" horiz-adv-x="776" d="M388 -9Q305 -9 246 6T136 62Q35 141 35 365Q35 459 62 529T139 640Q235 720 388 720Q467 720 525 706T636 655Q741 579 741 365Q741 173 646 82T388 -9ZM367 148T388 148T421 162T441
224T449 357T441 488T421 548T388 562T355 548T335 488T327 357T335 225T355 163ZM208 841T281 875T390 910T497 876T568 830Q568 795 557 768T528 740Q514 740 388 779Q261 740 248 740Q230 740 219 767T208 830Q208 841 281 875Z" />
<glyph unicode="&#xd5;" glyph-name="Otilde" horiz-adv-x="776" d="M388 -9Q305 -9 246 6T136 62Q35 141 35 365Q35 459 62 529T139 640Q235 720 388 720Q467 720 525 706T636 655Q741 579 741 365Q741 173 646 82T388 -9ZM367 148T388 148T421 162T441 224T449
357T441 488T421 548T388 562T355 548T335 488T327 357T335 225T355 163ZM633 804T582 772T492 740T400 757T331 775T271 758T209 740T172 775T152 830Q152 847 206 878T297 910T385 893T461 876Q468 876 510 893T572 910T612 873T633 819Q633 804 582 772Z" />
<glyph unicode="&#xd6;" glyph-name="Odieresis" horiz-adv-x="776" d="M388 -9Q305 -9 246 6T136 62Q35 141 35 365Q35 459 62 529T139 640Q235 720 388 720Q467 720 525 706T636 655Q741 579 741 365Q741 173 646 82T388 -9ZM367 148T388 148T421 162T441 224T449
357T441 488T421 548T388 562T355 548T335 488T327 357T335 225T355 163ZM301 730T249 730T170 749T143 821T170 892T249 910T328 892T356 822T329 750ZM578 730T526 730T447 749T420 821T447 892T526 910T605 892T633 822T606 750Z" />
<glyph unicode="&#xd7;" glyph-name="multiply" horiz-adv-x="553" d="M181 64Q151 64 102 104T52 170Q52 176 83 208T152 278Q122 308 93 336T60 369T56 382Q56 416 101 447T183 478Q194 478 211 466T277 403Q353 479 359 483T367 488T372 489H376Q408 489 453
448T498 381Q498 370 482 356Q450 325 403 278Q443 238 451 230T468 214T480 201T489 192T496 185T500 180T502 176T503 172V168Q503 141 453 105T378 68Q366 68 355 77T277 153Q262 138 249 124T228 102T213 87T202 76Q193 66 191 66T186 65T181 64Z" />
<glyph unicode="&#xd8;" glyph-name="Oslash" horiz-adv-x="776" d="M389 -9Q389 -34 322 -47Q285 -54 230 -54Q208 -54 199 -41T189 -13T194 24Q35 95 35 365Q35 607 178 680Q225 703 273 711T384 720Q396 774 538 774Q590 774 590 739Q590 722 566 693Q741 627
741 365Q741 110 600 34Q518 -9 389 -9ZM367 148T388 148T421 162T441 224T449 357T441 488T421 548T388 562T355 548T335 488T327 357T335 225T355 163Z" />
<glyph unicode="&#xd9;" glyph-name="Ugrave" horiz-adv-x="736" d="M691 135T609 64T370 -8T129 63T45 279V646Q45 671 101 691T233 711Q293 711 311 688Q324 670 324 657V359Q324 246 332 210T369 173T404 208T412 360V646Q412 671 468 691T599 711Q662 711
678 688Q691 670 691 657V279Q691 135 609 64ZM258 910Q319 910 393 881T468 820T453 764T418 740Q361 740 275 751T188 778Q188 834 211 872T258 910Z" />
<glyph unicode="&#xda;" glyph-name="Uacute" horiz-adv-x="736" d="M691 135T609 64T370 -8T129 63T45 279V646Q45 671 101 691T233 711Q293 711 311 688Q324 670 324 657V359Q324 246 332 210T369 173T404 208T412 360V646Q412 671 468 691T599 711Q662 711
678 688Q691 670 691 657V279Q691 135 609 64ZM488 910Q511 910 534 872T558 778Q558 763 472 752T328 740Q309 740 294 764T278 819T352 880T488 910Z" />
<glyph unicode="&#xdb;" glyph-name="Ucircumflex" horiz-adv-x="736" d="M691 135T609 64T370 -8T129 63T45 279V646Q45 671 101 691T233 711Q293 711 311 688Q324 670 324 657V359Q324 246 332 210T369 173T404 208T412 360V646Q412 671 468 691T599 711Q662
711 678 688Q691 670 691 657V279Q691 135 609 64ZM188 831T261 865T370 900T477 866T548 820Q548 785 537 758T508 730Q494 730 368 769Q241 730 228 730Q210 730 199 757T188 820Q188 831 261 865Z" />
<glyph unicode="&#xdc;" glyph-name="Udieresis" horiz-adv-x="736" d="M691 135T609 64T370 -8T129 63T45 279V646Q45 671 101 691T233 711Q293 711 311 688Q324 670 324 657V359Q324 246 332 210T369 173T404 208T412 360V646Q412 671 468 691T599 711Q662 711
678 688Q691 670 691 657V279Q691 135 609 64ZM281 730T229 730T150 749T123 821T150 892T229 910T308 892T336 822T309 750ZM558 730T506 730T427 749T400 821T427 892T506 910T585 892T613 822T586 750Z" />
<glyph unicode="&#xdd;" glyph-name="Yacute" horiz-adv-x="698" d="M487 16T426 8T305 0T226 6T208 29V203Q10 608 10 643Q10 664 77 687T218 710Q313 710 319 654L346 385H357L376 647Q378 675 447 692T578 710T664 692T688 654Q688 635 487 203V29Q487 16 426
8ZM469 910Q492 910 515 872T539 778Q539 763 453 752T309 740Q290 740 275 764T259 819T333 880T469 910Z" />
<glyph unicode="&#xde;" glyph-name="Thorn" horiz-adv-x="718" d="M324 696V630Q489 630 538 615Q609 593 632 566Q672 518 682 458Q688 422 688 377T682 296T668 232T642 185T610 150T568 127T522 112T468 104Q421 100 348 100L324 101V24Q324 14 273 7T163
0T81 3T52 11T45 24V678Q45 699 104 716T231 733Q324 733 324 696ZM325 257H349Q369 257 379 261T398 292T407 361T403 428T388 460Q375 472 356 472H325V257Z" />
<glyph unicode="&#xdf;" glyph-name="germandbls" horiz-adv-x="919" d="M185 0Q131 0 110 5T89 28V282H38Q27 282 19 309T10 373T24 441T56 472H86Q86 598 155 665T374 733T587 703T651 593Q651 562 638 518T624 446T641 403T685 378T741 355T798 322T841 269T859
185T840 99T792 41T724 8Q661 -11 584 -11Q403 -11 403 63Q403 108 417 155T450 202Q454 202 493 185T559 167Q604 167 604 188Q604 213 556 224Q510 233 467 270Q446 287 433 325T419 433T413 533T390 564T366 549T359 482V26Q359 0 185 0Z" />
<glyph unicode="&#xe0;" glyph-name="agrave" horiz-adv-x="659" d="M220 -9Q129 -9 78 34Q56 52 41 87T25 169T47 251T102 305T177 336Q242 353 320 353H353Q353 394 324 411Q313 418 289 418T230 405T172 379T141 365Q123 365 92 412T61 499Q61 512 98 533T202
571T334 589T444 579T520 553T570 513T601 468T618 416Q624 379 624 325V24Q624 13 571 7T465 0T397 3T378 10T373 24L365 81H357Q332 -9 220 -9ZM354 157V274Q328 274 312 252T296 202Q296 136 326 136Q339 136 346 142T354 157ZM239 780Q300 780 374 751T449
690T434 634T399 610Q342 610 256 621T169 648Q169 704 192 742T239 780Z" />
<glyph unicode="&#xe1;" glyph-name="aacute" horiz-adv-x="659" d="M220 -9Q129 -9 78 34Q56 52 41 87T25 169T47 251T102 305T177 336Q242 353 320 353H353Q353 394 324 411Q313 418 289 418T230 405T172 379T141 365Q123 365 92 412T61 499Q61 512 98 533T202
571T334 589T444 579T520 553T570 513T601 468T618 416Q624 379 624 325V24Q624 13 571 7T465 0T397 3T378 10T373 24L365 81H357Q332 -9 220 -9ZM354 157V274Q328 274 312 252T296 202Q296 136 326 136Q339 136 346 142T354 157ZM439 780Q462 780 485 742T509
648Q509 633 423 622T279 610Q260 610 245 634T229 689T303 750T439 780Z" />
<glyph unicode="&#xe2;" glyph-name="acircumflex" horiz-adv-x="659" d="M220 -9Q129 -9 78 34Q56 52 41 87T25 169T47 251T102 305T177 336Q242 353 320 353H353Q353 394 324 411Q313 418 289 418T230 405T172 379T141 365Q123 365 92 412T61 499Q61 512 98
533T202 571T334 589T444 579T520 553T570 513T601 468T618 416Q624 379 624 325V24Q624 13 571 7T465 0T397 3T378 10T373 24L365 81H357Q332 -9 220 -9ZM354 157V274Q328 274 312 252T296 202Q296 136 326 136Q339 136 346 142T354 157ZM179 711T252 745T361
780T468 746T539 700Q539 665 528 638T499 610Q485 610 359 649Q232 610 219 610Q201 610 190 637T179 700Q179 711 252 745Z" />
<glyph unicode="&#xe3;" glyph-name="atilde" horiz-adv-x="659" d="M220 -9Q129 -9 78 34Q56 52 41 87T25 169T47 251T102 305T177 336Q242 353 320 353H353Q353 394 324 411Q313 418 289 418T230 405T172 379T141 365Q123 365 92 412T61 499Q61 512 98 533T202
571T334 589T444 579T520 553T570 513T601 468T618 416Q624 379 624 325V24Q624 13 571 7T465 0T397 3T378 10T373 24L365 81H357Q332 -9 220 -9ZM354 157V274Q328 274 312 252T296 202Q296 136 326 136Q339 136 346 142T354 157ZM579 674T528 642T438 610T346
627T277 645T217 628T155 610T118 645T98 700Q98 717 152 748T243 780T331 763T407 746Q414 746 456 763T518 780T558 743T579 689Q579 674 528 642Z" />
<glyph unicode="&#xe4;" glyph-name="adieresis" horiz-adv-x="659" d="M220 -9Q129 -9 78 34Q56 52 41 87T25 169T47 251T102 305T177 336Q242 353 320 353H353Q353 394 324 411Q313 418 289 418T230 405T172 379T141 365Q123 365 92 412T61 499Q61 512 98 533T202
571T334 589T444 579T520 553T570 513T601 468T618 416Q624 379 624 325V24Q624 13 571 7T465 0T397 3T378 10T373 24L365 81H357Q332 -9 220 -9ZM354 157V274Q328 274 312 252T296 202Q296 136 326 136Q339 136 346 142T354 157ZM244 599T192 599T113 618T86 690T113
761T192 779T271 761T299 691T272 619ZM521 599T469 599T390 618T363 690T390 761T469 779T548 761T576 691T549 619Z" />
<glyph unicode="&#xe5;" glyph-name="aring" horiz-adv-x="659" d="M220 -9Q129 -9 78 34Q56 52 41 87T25 169T47 251T102 305T177 336Q242 353 320 353H353Q353 394 324 411Q313 418 298 418Q252 418 199 394T141 370Q123 370 92 425T61 519Q61 548 155 572Q225
590 311 590T444 580T520 554T570 514T601 468T618 417Q624 380 624 325V24Q624 13 571 7T465 0T397 3T378 10T373 24L365 81H357Q332 -9 220 -9ZM354 157V274Q328 274 312 252T296 202Q296 136 326 136Q339 136 346 142T354 157ZM457 647T429 629T342 610T255
628T227 697T255 764T342 780T429 764T457 698ZM315 685T320 681T342 677T363 681T369 695T363 709T342 713T321 710T315 696Z" />
<glyph unicode="&#xe6;" glyph-name="ae" horiz-adv-x="970" d="M627 226Q627 161 689 161Q725 161 783 185T845 210Q863 210 894 153T925 69Q925 30 846 11T676 -9Q522 -9 439 59Q394 -9 220 -9Q129 -9 78 34Q56 52 41 87T25 169T47 251T102 305T177 336Q242
353 320 353H353Q353 394 324 411Q313 418 298 418Q252 418 199 394T141 370Q123 370 92 425T61 519Q61 535 102 554Q179 589 340 589Q445 589 506 560Q578 589 692 589Q945 589 945 413Q945 226 660 226H627ZM625 372V306Q654 306 672 329T691 385Q691 445 660
445Q625 445 625 372ZM354 157V274Q328 274 312 252T296 202Q296 136 326 136Q339 136 346 142T354 157Z" />
<glyph unicode="&#xe7;" glyph-name="ccedilla" d="M279 -84L250 -85Q234 -85 234 -54V-4Q25 30 25 290Q25 362 48 418T104 506T180 557Q249 589 318 589Q434 589 479 571T525 510T510 419T469 370Q461 370 421 387T351 404T306 381T290 290T304 198T347 173T421
193T470 213Q489 213 506 168T524 88Q524 37 475 15T335 -9V-25Q422 -28 422 -94Q422 -125 392 -144T329 -169T257 -175Q249 -175 244 -160T239 -127T247 -110Q321 -110 321 -94Q321 -84 279 -84Z" />
<glyph unicode="&#xe8;" glyph-name="egrave" horiz-adv-x="640" d="M298 226Q298 161 360 161Q396 161 454 185T515 210Q534 210 565 153T596 69Q596 30 516 10T360 -10T232 2T148 32T91 78T54 129T35 184Q25 228 25 275Q25 457 120 526Q167 561 225 575T362
589Q615 589 615 413Q615 226 331 226H298ZM296 372V306Q325 306 343 329T362 385Q362 445 331 445Q296 445 296 372ZM220 780Q281 780 355 751T430 690T415 634T380 610Q323 610 237 621T150 648Q150 704 173 742T220 780Z" />
<glyph unicode="&#xe9;" glyph-name="eacute" horiz-adv-x="640" d="M298 226Q298 161 360 161Q396 161 454 185T515 210Q534 210 565 153T596 69Q596 30 516 10T360 -10T232 2T148 32T91 78T54 129T35 184Q25 228 25 275Q25 457 120 526Q167 561 225 575T362
589Q615 589 615 413Q615 226 331 226H298ZM296 372V306Q325 306 343 329T362 385Q362 445 331 445Q296 445 296 372ZM439 780Q462 780 485 742T509 648Q509 633 423 622T279 610Q260 610 245 634T229 689T303 750T439 780Z" />
<glyph unicode="&#xea;" glyph-name="ecircumflex" horiz-adv-x="640" d="M298 226Q298 161 360 161Q396 161 454 185T515 210Q534 210 565 153T596 69Q596 30 516 10T360 -10T232 2T148 32T91 78T54 129T35 184Q25 228 25 275Q25 457 120 526Q167 561 225 575T362
589Q615 589 615 413Q615 226 331 226H298ZM296 372V306Q325 306 343 329T362 385Q362 445 331 445Q296 445 296 372ZM150 711T223 745T332 780T439 746T510 700Q510 665 499 638T470 610Q456 610 330 649Q203 610 190 610Q172 610 161 637T150 700Q150 711 223
745Z" />
<glyph unicode="&#xeb;" glyph-name="edieresis" horiz-adv-x="640" d="M298 226Q298 161 360 161Q396 161 454 185T515 210Q534 210 565 153T596 69Q596 30 516 10T360 -10T232 2T148 32T91 78T54 129T35 184Q25 228 25 275Q25 457 120 526Q167 561 225 575T362
589Q615 589 615 413Q615 226 331 226H298ZM296 372V306Q325 306 343 329T362 385Q362 445 331 445Q296 445 296 372ZM242 600T190 600T111 619T84 691T111 762T190 780T269 762T297 692T270 620ZM519 600T467 600T388 619T361 691T388 762T467 780T546 762T574
692T547 620Z" />
<glyph unicode="&#xec;" glyph-name="igrave" horiz-adv-x="341" d="M306 534V24Q306 13 249 7T131 0T53 5T35 24V516Q35 538 92 559T215 580Q306 580 306 534ZM71 780Q132 780 206 751T281 690T266 634T231 610Q174 610 88 621T1 648Q1 704 24 742T71 780Z" />
<glyph unicode="&#xed;" glyph-name="iacute" horiz-adv-x="341" d="M306 534V24Q306 13 249 7T131 0T53 5T35 24V516Q35 538 92 559T215 580Q306 580 306 534ZM271 780Q294 780 317 742T341 648Q341 633 255 622T111 610Q92 610 77 634T61 689T135 750T271 780Z" />
<glyph unicode="&#xee;" glyph-name="icircumflex" horiz-adv-x="341" d="M306 534V24Q306 13 249 7T131 0T53 5T35 24V516Q35 538 92 559T215 580Q306 580 306 534ZM-4 701T69 735T178 770T285 736T356 690Q356 655 345 628T316 600Q302 600 176 639Q49 600 36
600Q18 600 7 627T-4 690Q-4 701 69 735Z" />
<glyph unicode="&#xef;" glyph-name="idieresis" horiz-adv-x="341" d="M306 534V24Q306 13 249 7T131 0T53 5T35 24V516Q35 538 92 559T215 580Q306 580 306 534ZM90 600T38 600T-41 619T-68 691T-41 762T38 780T117 762T145 692T118 620ZM367 600T315 600T236
619T209 691T236 762T315 780T394 762T422 692T395 620Z" />
<glyph unicode="&#xf0;" glyph-name="eth" horiz-adv-x="705" d="M634 590H629V24Q629 13 574 7T467 0T401 3T383 11T378 24L370 81H362Q353 46 326 22Q313 10 287 1T223 -9T154 2T102 29T66 72T43 123T31 184Q25 237 25 313T38 446T77 533T137 576T211 589T280
582T324 566Q353 546 360 529L362 522H370V590H332Q305 590 305 651Q305 686 327 716T370 747H387Q449 780 529 780T626 747H669Q695 747 695 692Q695 659 674 625T634 590ZM335 137Q351 137 359 157V424Q359 434 349 439T330 445Q296 445 296 289Q296 206 305
172T335 137Z" />
<glyph unicode="&#xf1;" glyph-name="ntilde" horiz-adv-x="673" d="M638 332V24Q638 13 581 7T464 0T386 5T368 24V342Q368 387 365 401T358 426Q351 445 333 445Q305 445 305 418V24Q305 13 249 7T132 0T53 5T35 24V517Q35 538 92 559T214 580T286 543L295 499H302Q331
557 402 580Q431 589 466 589Q567 589 602 529T638 332ZM549 674T498 642T408 610T316 627T247 645T187 628T125 610T88 645T68 700Q68 717 122 748T213 780T301 763T377 746Q384 746 426 763T488 780T528 743T549 689Q549 674 498 642Z" />
<glyph unicode="&#xf2;" glyph-name="ograve" horiz-adv-x="685" d="M343 -9Q268 -9 214 4T116 50Q25 116 25 296Q25 456 118 525Q205 589 343 589Q402 589 444 584T529 560T599 511T643 426T660 296Q660 144 574 68T343 -9ZM315 150T322 143T342 136T362 143T376
186T383 276T381 360T375 406T365 431Q356 444 344 444T323 437T308 393T301 289T308 186ZM232 780Q293 780 367 751T442 690T427 634T392 610Q335 610 249 621T162 648Q162 704 185 742T232 780Z" />
<glyph unicode="&#xf3;" glyph-name="oacute" horiz-adv-x="685" d="M343 -9Q268 -9 214 4T116 50Q25 116 25 296Q25 456 118 525Q205 589 343 589Q402 589 444 584T529 560T599 511T643 426T660 296Q660 144 574 68T343 -9ZM315 150T322 143T342 136T362 143T376
186T383 276T381 360T375 406T365 431Q356 444 344 444T323 437T308 393T301 289T308 186ZM462 780Q485 780 508 742T532 648Q532 633 446 622T302 610Q283 610 268 634T252 689T326 750T462 780Z" />
<glyph unicode="&#xf4;" glyph-name="ocircumflex" horiz-adv-x="685" d="M343 -9Q268 -9 214 4T116 50Q25 116 25 296Q25 456 118 525Q205 589 343 589Q402 589 444 584T529 560T599 511T643 426T660 296Q660 144 574 68T343 -9ZM315 150T322 143T342 136T362
143T376 186T383 276T381 360T375 406T365 431Q356 444 344 444T323 437T308 393T301 289T308 186ZM162 711T235 745T344 780T451 746T522 700Q522 665 511 638T482 610Q468 610 342 649Q215 610 202 610Q184 610 173 637T162 700Q162 711 235 745Z" />
<glyph unicode="&#xf5;" glyph-name="otilde" horiz-adv-x="685" d="M343 -9Q268 -9 214 4T116 50Q25 116 25 296Q25 456 118 525Q205 589 343 589Q402 589 444 584T529 560T599 511T643 426T660 296Q660 144 574 68T343 -9ZM315 150T322 143T342 136T362 143T376
186T383 276T381 360T375 406T365 431Q356 444 344 444T323 437T308 393T301 289T308 186ZM589 674T538 642T448 610T356 627T287 645T227 628T165 610T128 645T108 700Q108 717 162 748T253 780T341 763T417 746Q424 746 466 763T528 780T568 743T589 689Q589
674 538 642Z" />
<glyph unicode="&#xf6;" glyph-name="odieresis" horiz-adv-x="685" d="M343 -9Q268 -9 214 4T116 50Q25 116 25 296Q25 456 118 525Q205 589 343 589Q402 589 444 584T529 560T599 511T643 426T660 296Q660 144 574 68T343 -9ZM315 150T322 143T342 136T362 143T376
186T383 276T381 360T375 406T365 431Q356 444 344 444T323 437T308 393T301 289T308 186ZM255 600T203 600T124 619T97 691T124 762T203 780T282 762T310 692T283 620ZM532 600T480 600T401 619T374 691T401 762T480 780T559 762T587 692T560 620Z" />
<glyph unicode="&#xf7;" glyph-name="divide" horiz-adv-x="533" d="M310 -10T268 -10T204 7T182 72T204 136T268 152T331 136T354 73T332 8ZM452 190H47Q36 190 28 208T20 261T42 331T85 367H487Q513 367 513 302Q513 269 492 230T452 190ZM310 407T268 407T204
424T182 489T204 553T268 569T331 553T354 490T332 425Z" />
<glyph unicode="&#xf8;" glyph-name="oslash" horiz-adv-x="685" d="M193 -87Q171 -87 162 -74T152 -44T164 20Q25 80 25 296Q25 499 145 556Q185 575 225 581T321 589L330 624Q344 678 484 678Q536 678 536 643Q536 630 519 565Q660 510 660 296Q660 121 575
54Q533 21 482 7T361 -9L352 -43Q340 -87 193 -87ZM315 150T322 143T342 136T362 143T376 186T383 276T381 360T375 406T365 431Q356 444 344 444T323 437T308 393T301 289T308 186Z" />
<glyph unicode="&#xf9;" glyph-name="ugrave" horiz-adv-x="678" d="M236 -9Q124 -9 80 49T35 251V523Q35 543 94 561T218 580Q305 580 305 535V281Q305 205 311 171T341 136Q373 136 373 163V523Q373 544 435 562T570 580T643 541V26Q643 12 580 6T456 0T394
16L384 81H376Q367 45 340 22Q326 10 299 1T236 -9ZM249 780Q310 780 384 751T459 690T444 634T409 610Q352 610 266 621T179 648Q179 704 202 742T249 780Z" />
<glyph unicode="&#xfa;" glyph-name="uacute" horiz-adv-x="678" d="M394 16L384 81H376L374 72Q370 50 340 23Q326 10 299 1T236 -9Q124 -9 80 49T35 251V523Q35 543 94 561T218 580Q305 580 305 535V281Q305 205 311 171T341 136Q373 136 373 163V523Q373 544
435 562T570 580T643 541V26Q643 12 580 6T456 0T394 16ZM459 780Q482 780 505 742T529 648Q529 633 443 622T299 610Q280 610 265 634T249 689T323 750T459 780Z" />
<glyph unicode="&#xfb;" glyph-name="ucircumflex" horiz-adv-x="678" d="M394 16L384 81H376L374 72Q370 50 340 23Q326 10 299 1T236 -9Q124 -9 80 49T35 251V523Q35 543 94 561T218 580Q305 580 305 535V281Q305 205 311 171T341 136Q373 136 373 163V523Q373
544 435 562T570 580T643 541V26Q643 12 580 6T456 0T394 16ZM161 701T234 735T343 770T450 736T521 690Q521 655 510 628T481 600Q467 600 341 639Q214 600 201 600Q183 600 172 627T161 690Q161 701 234 735Z" />
<glyph unicode="&#xfc;" glyph-name="udieresis" horiz-adv-x="678" d="M394 16L384 81H376L374 72Q370 50 340 23Q326 10 299 1T236 -9Q124 -9 80 49T35 251V523Q35 543 94 561T218 580Q305 580 305 535V281Q305 205 311 171T341 136Q373 136 373 163V523Q373
544 435 562T570 580T643 541V26Q643 12 580 6T456 0T394 16ZM252 600T200 600T121 619T94 691T121 762T200 780T279 762T307 692T280 620ZM529 600T477 600T398 619T371 691T398 762T477 780T556 762T584 692T557 620Z" />
<glyph unicode="&#xfd;" glyph-name="yacute" horiz-adv-x="661" d="M372 65V124H364Q359 119 349 111T302 90T220 77T140 91T85 130T54 196Q35 261 35 380V518Q35 539 94 559T218 580Q305 580 305 535V409Q305 209 337 209Q356 209 356 236V518Q356 539 419 559T554
580T626 541V68Q626 -155 324 -155Q165 -155 108 -124Q83 -110 83 -95Q83 -71 103 -15T140 42Q144 42 168 36Q242 16 291 16T356 27T372 65ZM440 780Q463 780 486 742T510 648Q510 633 424 622T280 610Q261 610 246 634T230 689T304 750T440 780Z" />
<glyph unicode="&#xfe;" glyph-name="thorn" horiz-adv-x="735" d="M31 -102V669Q31 691 90 712T214 733Q302 733 302 687V591L291 522H299Q326 554 369 571T456 589T531 579T580 546T610 502T627 442Q634 389 634 316T624 190T591 90T526 18T424 -8Q392 -8 368
1T331 24Q306 51 302 72L301 82H293L307 -8V-102Q307 -113 250 -119T132 -126T51 -121T31 -102ZM363 378T354 412T327 446T301 426V182Q301 156 328 156Q340 156 348 166Q363 185 363 281Z" />
<glyph unicode="&#xff;" glyph-name="ydieresis" horiz-adv-x="661" d="M372 65V124H364Q359 119 349 111T302 90T220 77T140 91T85 130T54 196Q35 261 35 380V518Q35 539 94 559T218 580Q305 580 305 535V409Q305 209 337 209Q356 209 356 236V518Q356 539 419
559T554 580T626 541V68Q626 -155 324 -155Q165 -155 108 -124Q83 -110 83 -95Q83 -71 103 -15T140 42Q144 42 168 36Q242 16 291 16T356 27T372 65ZM243 600T191 600T112 619T85 691T112 762T191 780T270 762T298 692T271 620ZM520 600T468 600T389 619T362 691T389
762T468 780T547 762T575 692T548 620Z" />
<glyph unicode="&#x2013;" glyph-name="endash" horiz-adv-x="673" d="M582 190H57Q46 190 38 208T30 261T52 331T95 367H617Q643 367 643 302Q643 269 622 230T582 190Z" />
<glyph unicode="&#x2014;" glyph-name="emdash" horiz-adv-x="954" d="M890 190H57Q46 190 38 208T30 261T52 331T95 367H925Q951 367 951 302Q951 269 930 230T890 190Z" />
<glyph unicode="&#x2018;" glyph-name="quoteleft" horiz-adv-x="274" d="M174 780Q203 780 216 733Q229 683 231 633Q234 559 234 490Q234 437 72 437Q44 437 37 473T30 598Q30 780 174 780Z" />
<glyph unicode="&#x2019;" glyph-name="quoteright" horiz-adv-x="274" d="M100 437Q71 437 58 484Q45 534 43 584Q40 658 40 727Q40 780 202 780Q230 780 237 744T244 620Q244 437 100 437Z" />
<glyph unicode="&#x201a;" glyph-name="quotesinglbase" horiz-adv-x="274" d="M100 -154Q71 -154 58 -107Q45 -57 43 -7Q40 67 40 136Q40 189 202 189Q230 189 237 153T244 28Q244 -154 100 -154Z" />
<glyph unicode="&#x201c;" glyph-name="quotedblleft" horiz-adv-x="565" d="M465 780Q505 780 516 682Q525 607 525 490Q525 437 363 437Q335 437 328 473T321 598Q321 780 465 780ZM174 780Q203 780 216 733Q229 683 231 633Q234 559 234 490Q234 437 72 437Q44
437 37 473T30 598Q30 780 174 780Z" />
<glyph unicode="&#x201d;" glyph-name="quotedblright" horiz-adv-x="565" d="M100 437Q60 437 48 536Q40 610 40 727Q40 780 202 780Q230 780 237 744T244 620Q244 437 100 437ZM391 437Q362 437 350 484Q336 534 334 584Q331 658 331 727Q331 780 493 780Q521
780 528 744T535 620Q535 437 391 437Z" />
<glyph unicode="&#x201e;" glyph-name="quotedblbase" horiz-adv-x="565" d="M100 -154Q60 -154 48 -56Q40 19 40 136Q40 189 202 189Q230 189 237 153T244 28Q244 -154 100 -154ZM391 -154Q362 -154 350 -107Q336 -57 334 -7Q331 67 331 136Q331 189 493 189Q521
189 528 153T535 28Q535 -154 391 -154Z" />
<glyph unicode="&#x2022;" glyph-name="bullet" horiz-adv-x="375" d="M330 300Q330 164 188 164T45 300Q45 373 83 401T186 430T291 402T330 300Z" />
<glyph unicode="&#x2039;" glyph-name="guilsinglleft" horiz-adv-x="402" d="M255 288Q372 48 372 24T318 0T232 5T189 18T162 45T80 165T15 288Q15 310 84 409Q109 445 136 484T170 533T186 552T230 570T318 580T372 545Q372 524 255 288Z" />
<glyph unicode="&#x203a;" glyph-name="guilsinglright" horiz-adv-x="392" d="M30 545Q30 580 152 580Q192 580 216 551Q219 548 227 538T247 512T318 403T377 287T317 166T238 42T203 10T142 0T70 3T36 12T30 26T59 101T147 288Q30 523 30 545Z" />
</font>
</defs>
</svg>
