<?xml version="1.0" standalone="no"?>
<!DOCTYPE svg PUBLIC "-//W3C//DTD SVG 1.1//EN" "http://www.w3.org/Graphics/SVG/1.1/DTD/svg11.dtd">
<svg xmlns="http://www.w3.org/2000/svg">
<defs >
<font id="PTSansNarrow" horiz-adv-x="428" ><font-face
    font-family="PT Sans Narrow"
    units-per-em="1000"
    panose-1="2 11 5 6 2 2 3 2 2 4"
    ascent="1018"
    descent="-276"
    alphabetic="0" />
<glyph unicode=" " glyph-name="space" horiz-adv-x="212" />
<glyph unicode="!" glyph-name="exclam" horiz-adv-x="247" d="M101 700H176V353L161 177H116L101 353V700ZM88 45Q88 73 101 87T138 101Q161 101 174 87T188 45Q188 16 175 2T138 -12Q115 -12 102 2T88 45Z" />
<glyph unicode="&quot;" glyph-name="quotedbl" horiz-adv-x="286" d="M177 700H246L220 507H177V700ZM72 700H141L115 507H72V700Z" />
<glyph unicode="#" glyph-name="numbersign" horiz-adv-x="450" d="M230 225H148L116 58H55L87 225H24L37 285H98L125 425H64L77 485H137L167 642H228L198 485H280L311 642H372L342 485H403L389 425H330L303 285H363L349 225H292L260 58H198L230 225ZM159 285H242L269
425H186L159 285Z" />
<glyph unicode="$" glyph-name="dollar" horiz-adv-x="450" d="M196 -12Q152 -10 119 -3T63 18L86 86Q102 75 130 65T196 53V337Q171 353 148 371T106 413T76 468T64 543Q64 609 97 653T196 709V800H257V711Q296 709 322 704T371 687L348 622Q331 631 310 637T257
646V388Q282 371 307 352T351 309T383 253T395 179Q395 107 360 57T257 -7V-100H196V-12ZM241 57Q277 65 298 94T320 174Q320 222 297 252T241 306V57ZM212 644Q171 636 155 607T139 546Q139 502 159 473T212 420V644Z" />
<glyph unicode="%" glyph-name="percent" horiz-adv-x="637" d="M55 542Q55 588 64 620T91 673T132 703T183 712Q210 712 233 704T274 676T301 623T311 542Q311 494 302 461T275 409T234 381T183 372Q156 372 133 380T92 408T65 461T55 542ZM120 542Q120 477 137
452T183 427Q197 427 208 432T228 449T240 484T245 542Q245 576 241 598T228 634T209 652T183 657Q168 657 157 652T137 634T125 599T120 542ZM349 171Q349 217 358 249T385 302T426 332T477 341Q504 341 527 333T568 305T595 252T605 171Q605 123 596 90T569 38T528
10T477 1Q450 1 427 9T386 37T359 90T349 171ZM414 171Q414 106 431 81T477 56Q491 56 502 61T522 78T534 113T539 171Q539 205 535 227T522 263T503 281T477 286Q462 286 451 281T431 263T419 228T414 171ZM518 713L565 683L139 -12L92 18L518 713Z" />
<glyph unicode="&amp;" glyph-name="ampersand" horiz-adv-x="656" d="M91 188Q91 228 103 263T134 329T179 385T230 430Q210 466 195 504T180 584Q180 608 186 631T208 672T246 701T302 712Q336 712 359 702T397 676T417 640T424 597Q424 554 397 509T315 421Q328
393 344 363T379 302T417 242T456 187Q474 212 490 254T516 335L574 312Q569 295 560 271T541 223T519 176T497 138Q530 99 552 78T598 40L553 -12Q508 14 455 81Q441 63 424 47T385 17T337 -4T279 -12Q240 -12 206 0T146 38T106 100T91 188ZM413 130Q390 159 368
192T326 258T290 322T262 379Q241 359 223 339T192 297T171 248T163 189Q163 156 173 131T200 88T240 62T288 53Q307 53 326 60T361 78T391 102T413 130ZM252 584Q252 554 261 525T286 466Q327 501 342 530T358 582Q358 610 347 630T305 651Q277 651 265 632T252
584Z" />
<glyph unicode="&apos;" glyph-name="quotesingle" horiz-adv-x="181" d="M72 700H141L115 507H72V700Z" />
<glyph unicode="(" glyph-name="parenleft" horiz-adv-x="233" d="M183 -220Q145 -172 120 -115T78 3T55 125T48 243Q48 298 55 359T78 481T120 602T185 712L230 685Q198 634 177 578T144 465T126 351T120 243Q120 195 126 138T145 22T180 -91T230 -190L183 -220Z" />
<glyph unicode=")" glyph-name="parenright" horiz-adv-x="233" d="M48 -190Q77 -146 98 -91T132 22T152 137T158 243Q158 294 153 350T135 464T101 578T48 685L93 712Q131 661 157 602T200 482T223 359T230 243Q230 187 223 126T200 4T158 -114T95 -220L48 -190Z" />
<glyph unicode="*" glyph-name="asterisk" horiz-adv-x="291" d="M108 703L128 665L143 613L159 665L180 702L224 678L201 638L163 595L218 606H260V555H221L167 566L206 522L226 487L183 462L162 500L143 555L128 502L107 465L63 490L86 528L121 566L74 555H30V606H74L124
595L86 636L64 677L108 703Z" />
<glyph unicode="+" glyph-name="plus" horiz-adv-x="415" d="M35 373H173V529H241V373H379V306H241V150H173V306H35V373Z" />
<glyph unicode="," glyph-name="comma" horiz-adv-x="186" d="M36 43Q36 68 50 83T88 98Q114 98 130 77T147 11Q147 -22 139 -48T117 -95T87 -128T56 -147L31 -113Q44 -106 55 -95T74 -69T86 -40T90 -9Q70 -15 53 -1T36 43Z" />
<glyph unicode="-" glyph-name="hyphen" horiz-adv-x="291" d="M47 320H244V251H47V320Z" />
<glyph unicode="." glyph-name="period" horiz-adv-x="178" d="M39 45Q39 73 52 87T89 101Q112 101 125 87T139 45Q139 16 126 2T89 -12Q66 -12 53 2T39 45Z" />
<glyph unicode="/" glyph-name="slash" horiz-adv-x="295" d="M266 712L322 690L30 -140L-28 -119L266 712Z" />
<glyph unicode="0" glyph-name="zero" horiz-adv-x="450" d="M38 350Q38 446 50 515T86 627T145 691T225 712Q273 712 308 692T367 628T401 515T412 350Q412 253 400 185T364 73T306 9T226 -12Q177 -12 142 9T83 74T49 186T38 350ZM113 350Q113 207 140 130T227
53Q285 53 311 123T338 350Q338 492 313 569T225 647Q167 647 140 577T113 350Z" />
<glyph unicode="1" glyph-name="one" horiz-adv-x="450" d="M94 67H207V554L216 613L182 565L98 497L60 542L242 712H279V67H388V0H94V67Z" />
<glyph unicode="2" glyph-name="two" horiz-adv-x="450" d="M368 547Q368 492 352 432T310 314T253 201T191 105L151 61V58L204 67H379V0H55V32Q74 55 99 90T150 166T202 254T248 349T280 444T293 534Q293 585 270 615T201 645Q172 645 145 635T97 608L69 661Q96
685 135 698T217 712Q291 712 329 667T368 547Z" />
<glyph unicode="3" glyph-name="three" horiz-adv-x="450" d="M93 76Q112 65 136 59T193 53Q220 53 242 64T281 95T307 142T316 203Q316 277 284 311T193 345H133V374L249 598L288 640L233 633H76V700H366V671L238 432L208 403V401L237 407Q268 407 296 395T344
358T376 297T388 213Q388 159 373 117T331 47T269 3T193 -12Q158 -12 127 -6T73 11L93 76Z" />
<glyph unicode="4" glyph-name="four" horiz-adv-x="450" d="M431 215H338V0H266V215H20V249L285 711H338V280H431V215ZM266 504L278 590H275L245 513L135 322L97 273L152 280H266V504Z" />
<glyph unicode="5" glyph-name="five" horiz-adv-x="450" d="M357 700V630H167V426L201 429Q281 428 327 374T374 219Q373 163 358 120T315 48T252 3T175 -12Q106 -12 64 7L82 71Q100 62 122 59T173 55Q230 55 265 96T302 213Q301 290 266 327T167 364L101 359V700H357Z" />
<glyph unicode="6" glyph-name="six" horiz-adv-x="450" d="M405 211Q404 161 393 120T359 49T304 4T230 -12Q146 -12 99 49T51 235Q51 341 72 424T131 567T218 663T325 712L345 654Q300 642 263 614T198 546T152 456T126 349Q139 376 169 396T245 416Q317 416
360 365T405 211ZM332 204Q332 351 226 351Q188 351 161 327T123 273Q121 260 121 248T122 224Q121 191 127 161T147 106T181 68T230 53Q275 53 303 93T332 204Z" />
<glyph unicode="7" glyph-name="seven" horiz-adv-x="450" d="M95 0L297 591L333 640L285 631H56V700H397V673L167 0H95Z" />
<glyph unicode="8" glyph-name="eight" horiz-adv-x="450" d="M58 162Q58 229 85 276T167 361Q147 376 130 392T99 430T79 477T71 537Q71 618 113 665T230 712Q299 712 339 670T380 553Q380 496 358 452T289 366Q310 351 329 333T362 293T385 242T393 176Q393
91 348 40T221 -12Q182 -12 152 1T101 37T69 92T58 162ZM214 333Q168 299 148 257T127 173Q127 122 152 88T225 53Q264 53 292 81T321 172Q321 203 312 227T288 269T254 303T214 333ZM241 392Q275 426 293 460T311 537Q311 592 287 619T229 647Q208 647 192 639T164
615T147 581T141 539Q141 512 149 491T171 452T203 420T241 392Z" />
<glyph unicode="9" glyph-name="nine" horiz-adv-x="450" d="M46 488Q46 592 90 652T223 712Q307 712 353 650T400 460Q400 347 379 264T321 123T234 32T126 -12L107 47Q203 72 256 147T323 337Q302 308 277 296T209 284Q177 284 148 296T96 334T60 398T46 488ZM119
496Q119 425 148 387T225 349Q263 349 289 365T328 408Q330 421 330 433T330 456Q330 494 324 528T304 589T269 631T219 647Q172 647 146 606T119 496Z" />
<glyph unicode=":" glyph-name="colon" horiz-adv-x="206" d="M76 448Q76 476 89 490T126 504Q149 504 162 490T176 448Q176 419 163 405T126 391Q103 391 90 405T76 448ZM76 45Q76 73 89 87T126 101Q149 101 162 87T176 45Q176 16 163 2T126 -12Q103 -12 90 2T76 45Z" />
<glyph unicode=";" glyph-name="semicolon" horiz-adv-x="216" d="M75 43Q75 68 89 83T127 98Q153 98 169 77T186 11Q186 -22 178 -48T156 -95T126 -128T95 -147L70 -113Q83 -106 94 -95T113 -69T125 -40T129 -9Q109 -15 92 -1T75 43ZM85 448Q85 476 98 490T135
504Q158 504 171 490T185 448Q185 419 172 405T135 391Q112 391 99 405T85 448Z" />
<glyph unicode="&lt;" glyph-name="less" horiz-adv-x="415" d="M36 305V334L336 557L375 503L184 358L110 320L183 288L379 144L341 90L36 305Z" />
<glyph unicode="=" glyph-name="equal" horiz-adv-x="415" d="M35 456H379V389H35V456ZM35 547H379V480H35V547Z" />
<glyph unicode="&gt;" glyph-name="greater" horiz-adv-x="415" d="M379 344V315L81 92L40 145L232 290L305 328L233 360L36 504L76 557L379 344Z" />
<glyph unicode="?" glyph-name="question" horiz-adv-x="358" d="M123 177Q120 221 128 255T152 317T184 371T218 422T244 478T255 545Q255 591 235 619T167 647Q138 647 110 637T60 610L32 666Q62 686 97 699T184 712Q256 712 293 670T330 555Q330 512 319 478T292
416T257 361T222 308T194 249T183 177H123ZM108 45Q108 73 121 87T158 101Q181 101 194 87T208 45Q208 16 195 2T158 -12Q135 -12 122 2T108 45Z" />
<glyph unicode="@" glyph-name="at" horiz-adv-x="857" d="M565 491H598L557 200Q548 133 551 101T581 68Q607 68 633 85T679 135T712 216T725 326Q725 397 705 450T648 540T559 594T444 613Q379 613 322 587T223 511T157 394T132 242Q132 155 154 91T218 -16T315
-80T439 -101Q463 -101 494 -95T549 -77L567 -133Q533 -149 500 -155T429 -162Q356 -162 291 -139T176 -68T97 56T68 236Q68 339 98 420T180 558T301 644T447 674Q521 674 583 652T692 586T763 477T789 326Q789 257 771 198T723 96T652 29T565 4Q546 4 531 9T506
26T492 58T492 107H488Q477 87 462 69T430 36T392 13T349 4Q307 4 278 41T248 150Q248 224 264 288T309 399T376 472T457 499Q486 499 504 489T540 462L565 491ZM519 400Q506 418 493 426T459 434Q429 434 403 412T358 352T328 266T317 167Q317 122 330 96T376
69Q391 69 407 80T438 108T468 148T492 192L519 400Z" />
<glyph unicode="A" glyph-name="A" horiz-adv-x="473" d="M333 196H135L79 0H5L216 711H257L468 0H390L333 196ZM155 263H315L254 479L235 584H233L214 477L155 263Z" />
<glyph unicode="B" glyph-name="B" horiz-adv-x="471" d="M411 541Q411 515 405 489T386 440T354 399T306 372V368Q330 363 352 352T391 320T418 270T428 199Q428 145 411 106T365 41T297 4T215 -8Q201 -8 183 -8T143 -7T102 -3T64 5V694Q94 700 134 704T222 708Q256
708 290 702T351 677T394 627T411 541ZM221 61Q248 61 271 69T311 95T339 136T349 194Q349 235 337 260T304 300T259 319T206 324H139V68Q145 66 154 65T175 63T199 62T221 61ZM180 389Q194 389 212 390T242 393Q279 408 305 441T332 524Q332 557 323 579T299 615T262
633T218 639Q192 639 171 638T139 634V389H180Z" />
<glyph unicode="C" glyph-name="C" horiz-adv-x="458" d="M430 27Q405 6 367 -3T287 -12Q234 -12 189 8T112 71T61 184T43 350Q43 450 63 519T118 631T196 693T288 712Q336 712 367 705T422 688L404 620Q384 631 357 637T295 643Q260 643 229 628T174 578T136
487T122 350Q122 204 172 131T305 57Q339 57 366 66T412 89L430 27Z" />
<glyph unicode="D" glyph-name="D" horiz-adv-x="525" d="M64 700Q80 703 99 704T139 706T178 707T215 708Q288 708 339 683T422 612T468 500T482 355Q482 283 469 217T423 101T339 21T207 -9Q194 -9 174 -9T133 -7T93 -4T64 -1V700ZM219 639Q209 639 198 639T175
638T155 636T139 634V64Q143 63 153 63T175 62T197 61T213 60Q268 60 305 84T363 148T394 242T403 356Q403 409 395 460T367 550T311 614T219 639Z" />
<glyph unicode="E" glyph-name="E" horiz-adv-x="429" d="M64 700H375V631H139V394H356V325H139V69H380V0H64V700Z" />
<glyph unicode="F" glyph-name="F" horiz-adv-x="413" d="M64 700H375V631H139V384H359V315H139V0H64V700Z" />
<glyph unicode="G" glyph-name="G" horiz-adv-x="492" d="M257 349H450V41Q422 15 378 2T289 -12Q233 -12 188 9T110 74T61 187T43 350Q43 448 64 516T120 628T201 692T295 712Q343 712 375 706T431 688L413 620Q393 631 366 637T302 643Q267 643 235 628T178
579T137 488T122 350Q122 200 169 129T300 57Q352 57 386 82V286L257 305V349Z" />
<glyph unicode="H" glyph-name="H" horiz-adv-x="536" d="M397 323H139V0H64V700H139V392H397V700H472V0H397V323Z" />
<glyph unicode="I" glyph-name="I" horiz-adv-x="233" d="M79 700H154V0H79V700Z" />
<glyph unicode="J" glyph-name="J" horiz-adv-x="241" d="M93 700H168V157Q168 75 142 33T49 -10Q33 -10 11 -6T-26 6L-10 71Q0 65 12 62T38 59Q56 59 67 67T84 89T91 124T93 171V700Z" />
<glyph unicode="K" glyph-name="K" horiz-adv-x="493" d="M175 324H139V0H64V700H139V374L174 388L356 700H442L259 398L224 366L265 326L468 0H373L175 324Z" />
<glyph unicode="L" glyph-name="L" horiz-adv-x="415" d="M401 0H64V700H139V69H401V0Z" />
<glyph unicode="M" glyph-name="M" horiz-adv-x="637" d="M498 460L507 566H503L471 467L330 163H305L157 467L126 566H122L136 460V0H64V700H127L296 356L321 274H323L347 357L507 700H573V0H498V460Z" />
<glyph unicode="N" glyph-name="N" horiz-adv-x="538" d="M171 444L128 554H125L136 444V0H64V711H109L368 257L409 152H413L402 257V700H474V-11H428L171 444Z" />
<glyph unicode="O" glyph-name="O" horiz-adv-x="549" d="M43 350Q43 528 100 620T274 712Q337 712 381 687T452 614T493 500T506 350Q506 172 449 80T274 -12Q212 -12 168 13T96 86T56 200T43 350ZM122 350Q122 291 130 238T157 145T204 81T274 57Q349 57 388
129T427 350Q427 408 419 461T392 554T345 619T274 643Q200 643 161 571T122 350Z" />
<glyph unicode="P" glyph-name="P" horiz-adv-x="451" d="M64 693Q96 702 132 705T203 708Q243 708 282 699T352 666T403 600T423 493Q423 430 405 386T356 315T286 275T204 262Q200 262 191 262T172 262T153 264T139 266V0H64V693ZM207 639Q187 639 169 638T139
633V335Q143 333 151 333T169 332T186 331T199 331Q227 331 253 338T299 363T331 413T344 493Q344 535 333 563T303 608T259 632T207 639Z" />
<glyph unicode="Q" glyph-name="Q" horiz-adv-x="549" d="M566 -166Q546 -173 528 -175T490 -178Q450 -178 412 -168T338 -145T269 -123T206 -112Q188 -112 170 -118V-50Q192 -44 214 -44Q247 -44 280 -54T348 -76T418 -98T494 -108Q530 -108 566 -98V-166ZM43
350Q43 528 100 620T274 712Q337 712 381 687T452 614T493 500T506 350Q506 172 449 80T274 -12Q212 -12 168 13T96 86T56 200T43 350ZM122 350Q122 291 130 238T157 145T204 81T274 57Q349 57 388 129T427 350Q427 408 419 461T392 554T345 619T274 643Q200 643
161 571T122 350Z" />
<glyph unicode="R" glyph-name="R" horiz-adv-x="480" d="M64 693Q97 701 136 704T209 708Q248 708 283 699T344 667T385 608T401 516Q401 433 367 383T275 316L313 279L451 0H364L214 305L139 320V0H64V693ZM139 370H199Q256 370 289 405T322 512Q322 567 295
603T213 639Q193 639 172 638T139 633V370Z" />
<glyph unicode="S" glyph-name="S" d="M59 93Q78 80 112 69T191 57Q247 57 282 84T317 171Q317 210 297 239T247 292T183 340T118 392T68 458T48 547Q48 631 98 671T230 712Q280 712 319 703T382 680L358 614Q340 625 307 634T229 643Q175 643 149 617T123 550Q123
515 143 488T193 437T257 389T322 334T372 266T392 176Q392 88 340 38T193 -12Q133 -12 95 -1T33 24L59 93Z" />
<glyph unicode="T" glyph-name="T" horiz-adv-x="447" d="M433 631H261V0H186V631H14V700H433V631Z" />
<glyph unicode="U" glyph-name="U" horiz-adv-x="521" d="M385 700H457V231Q457 104 408 48T267 -9Q161 -9 113 46T64 215V700H139V254Q139 200 146 163T169 103T209 70T268 60Q334 60 359 106T385 254V700Z" />
<glyph unicode="V" glyph-name="V" horiz-adv-x="463" d="M218 221L236 114H238L258 223L388 700H465L253 -11H213L-2 700H81L218 221Z" />
<glyph unicode="W" glyph-name="W" horiz-adv-x="672" d="M182 237L194 120H196L208 239L320 700H363L475 238L487 120H488L502 239L591 700H666L510 -11H464L353 450L339 557H336L322 449L211 -11H164L5 700H86L182 237Z" />
<glyph unicode="X" glyph-name="X" horiz-adv-x="500" d="M203 356L35 700H125L234 463L254 404L274 463L389 700H472L298 363L480 0H392L271 251L248 313L227 251L103 0H19L203 356Z" />
<glyph unicode="Y" glyph-name="Y" horiz-adv-x="455" d="M191 278L5 700H93L219 395L232 334H234L247 397L369 700H450L266 279V0H191V278Z" />
<glyph unicode="Z" glyph-name="Z" horiz-adv-x="439" d="M29 69L307 591L340 631H29V700H410V631L131 106L99 69H410V0H29V69Z" />
<glyph unicode="[" glyph-name="bracketleft" horiz-adv-x="248" d="M64 700H220V635H136V-165H220V-230H64V700Z" />
<glyph unicode="\" glyph-name="backslash" horiz-adv-x="316" d="M330 -117L270 -140L-28 689L33 712L330 -117Z" />
<glyph unicode="]" glyph-name="bracketright" horiz-adv-x="248" d="M184 -230H29V-165H112V635H29V700H184V-230Z" />
<glyph unicode="^" glyph-name="asciicircum" horiz-adv-x="412" d="M191 711H221L360 435H285L223 570L205 639L181 569L109 435H40L191 711Z" />
<glyph unicode="_" glyph-name="underscore" horiz-adv-x="334" d="M0 -140H334V-205H0V-140Z" />
<glyph unicode="`" glyph-name="grave" horiz-adv-x="255" d="M195 571H154L60 699V720H143L195 571Z" />
<glyph unicode="a" glyph-name="a" horiz-adv-x="400" d="M54 470Q83 488 124 498T212 508Q254 508 279 496T319 462T338 413T343 355Q343 295 341 238T338 130Q338 92 340 60T350 -2H295L278 57H274Q259 31 230 12T152 -7Q98 -7 64 30T29 134Q29 177 43 206T84
253T147 278T229 286Q239 286 249 286T270 285Q273 316 273 340Q273 397 256 420T194 443Q166 443 133 435T78 413L54 470ZM271 228Q261 229 251 229T231 230Q207 230 184 226T143 212T115 185T104 142Q104 102 123 80T174 58Q216 58 239 78T271 122V228Z" />
<glyph unicode="b" glyph-name="b" horiz-adv-x="434" d="M59 700H131V462H134Q175 512 243 512Q320 512 358 451T397 258Q397 123 346 57T200 -9Q154 -9 116 1T59 26V700ZM131 73Q145 65 165 61T209 56Q261 56 291 105T322 258Q322 301 317 335T300 395T270 433T225
447Q189 447 166 426T131 367V73Z" />
<glyph unicode="c" glyph-name="c" horiz-adv-x="356" d="M335 25Q310 6 278 -3T211 -12Q163 -12 130 6T77 59T47 142T37 250Q37 378 82 445T213 512Q252 512 280 505T328 487L308 424Q268 447 221 447Q167 447 140 400T112 250Q112 209 118 173T138 111T174 69T229
53Q255 53 277 62T314 83L335 25Z" />
<glyph unicode="d" glyph-name="d" horiz-adv-x="433" d="M374 172Q374 121 375 80T382 -2H333L317 58H313Q299 28 269 8T197 -12Q116 -12 77 51T37 249Q37 377 85 443T219 509Q248 509 265 506T302 494V700H374V172ZM302 421Q288 433 271 438T224 444Q171 444
142 396T112 248Q112 204 117 169T134 107T164 67T210 53Q282 53 302 138V421Z" />
<glyph unicode="e" glyph-name="e" horiz-adv-x="413" d="M358 34Q334 12 297 0T219 -12Q172 -12 138 6T81 59T48 142T37 250Q37 378 84 445T217 512Q245 512 272 505T322 477T357 418T371 319Q371 302 370 283T366 242H112Q112 199 119 164T141 105T179 67T238
53Q265 53 291 63T332 87L358 34ZM302 302Q304 377 281 412T218 447Q172 447 145 412T113 302H302Z" />
<glyph unicode="f" glyph-name="f" horiz-adv-x="257" d="M16 500H77V528Q77 622 104 664T196 706Q222 706 243 703T286 690L268 628Q250 636 235 638T205 641Q185 641 174 633T158 608T151 565T149 500H253V435H149V0H77V435H16V500Z" />
<glyph unicode="g" glyph-name="g" horiz-adv-x="432" d="M374 -23Q374 -120 331 -166T206 -212Q156 -212 124 -204T72 -184L93 -122Q113 -131 137 -139T196 -147Q257 -147 279 -113T302 1V38H299Q283 15 258 2T194 -11Q113 -11 75 51T37 248Q37 377 86 443T233
509Q280 509 314 500T374 479V-23ZM302 428Q272 444 225 444Q174 444 143 398T112 249Q112 207 117 172T134 110T164 69T210 54Q248 54 270 74T302 134V428Z" />
<glyph unicode="h" glyph-name="h" horiz-adv-x="440" d="M315 0V304Q315 374 299 410T233 447Q198 447 170 422T131 359V0H59V700H131V453H134Q154 479 183 495T257 512Q290 512 314 503T355 472T379 414T387 323V0H315Z" />
<glyph unicode="i" glyph-name="i" horiz-adv-x="217" d="M71 500H143V0H71V500ZM58 652Q58 676 71 691T107 706Q129 706 143 692T158 652Q158 628 144 615T107 601Q85 601 72 615T58 652Z" />
<glyph unicode="j" glyph-name="j" horiz-adv-x="215" d="M72 500H144V-27Q144 -130 111 -175T4 -210V-145Q26 -145 39 -136T60 -109T70 -63T72 2V500ZM58 652Q58 676 71 691T107 706Q129 706 143 692T158 652Q158 628 144 615T107 601Q85 601 72 615T58 652Z" />
<glyph unicode="k" glyph-name="k" horiz-adv-x="388" d="M168 225H131V0H59V700H131V274L164 288L281 500H364L246 298L211 266L252 227L381 0H294L168 225Z" />
<glyph unicode="l" glyph-name="l" horiz-adv-x="233" d="M136 119Q136 84 145 69T172 54Q193 54 221 65L228 7Q215 -1 192 -6T149 -11Q111 -11 88 12T64 95V700H136V119Z" />
<glyph unicode="m" glyph-name="m" horiz-adv-x="651" d="M293 0V297Q293 337 291 365T280 412T258 438T221 447Q187 447 164 421T131 360V0H59V500H110L123 447H126Q147 476 176 494T250 512Q288 512 312 496T351 437Q369 472 402 492T476 512Q509 512 532 504T570
474T592 417T599 327V0H527V318Q527 383 515 415T457 447Q419 447 397 424T365 360V0H293Z" />
<glyph unicode="n" glyph-name="n" horiz-adv-x="439" d="M315 0V305Q315 380 298 413T235 447Q195 447 169 423T131 364V0H59V500H111L124 447H127Q146 474 178 493T256 512Q288 512 312 503T353 473T378 415T387 324V0H315Z" />
<glyph unicode="o" glyph-name="o" horiz-adv-x="432" d="M37 250Q37 385 83 448T216 512Q308 512 351 447T395 250Q395 114 348 51T216 -12Q124 -12 81 53T37 250ZM112 250Q112 206 117 170T135 108T168 68T216 53Q268 53 294 99T320 250Q320 293 315 329T297
392T264 432T216 447Q165 447 139 400T112 250Z" />
<glyph unicode="p" glyph-name="p" horiz-adv-x="435" d="M59 500H110L121 446H125Q162 512 241 512Q320 512 359 453T399 260Q399 197 386 147T349 61T291 7T214 -12Q185 -12 168 -9T131 6V-200H59V500ZM131 79Q145 67 162 60T209 53Q262 53 293 107T324 261Q324
303 319 337T301 395T271 433T225 447Q152 447 131 358V79Z" />
<glyph unicode="q" glyph-name="q" horiz-adv-x="432" d="M374 -200H302V41H298Q282 16 258 2T194 -12Q115 -12 76 51T37 248Q37 377 88 443T236 509Q278 509 316 499T374 478V-200ZM302 427Q274 444 223 444Q171 444 142 396T112 249Q112 207 117 171T133 109T163
68T209 53Q247 53 269 75T302 139V427Z" />
<glyph unicode="r" glyph-name="r" horiz-adv-x="274" d="M59 500H110L123 447H126Q140 476 162 492T217 509Q240 509 269 500L255 427Q229 436 209 436Q177 436 157 418T131 368V0H59V500Z" />
<glyph unicode="s" glyph-name="s" horiz-adv-x="338" d="M51 82Q71 70 98 62T155 53Q188 53 211 69T234 123Q234 154 220 174T185 210T138 239T92 272T56 317T42 383Q42 447 76 479T174 512Q215 512 245 505T297 484L278 424Q259 434 234 440T183 447Q147 447
131 432T114 385Q114 360 128 343T163 311T210 281T256 246T292 197T306 125Q306 97 297 72T270 29T224 -1T159 -12Q115 -12 83 -4T29 19L51 82Z" />
<glyph unicode="t" glyph-name="t" horiz-adv-x="275" d="M9 500H70V599L142 622V500H250V435H142V137Q142 93 152 74T187 54Q207 54 221 58T253 70L267 13Q245 2 219 -4T163 -11Q113 -11 92 21T70 127V435H9V500Z" />
<glyph unicode="u" glyph-name="u" horiz-adv-x="434" d="M124 500V194Q124 118 139 86T196 53Q217 53 233 61T263 84T286 116T302 153V500H374V142Q374 106 376 68T384 0H333L315 70H312Q295 37 263 13T183 -12Q151 -12 127 -4T86 25T61 82T52 176V500H124Z" />
<glyph unicode="v" glyph-name="v" horiz-adv-x="388" d="M180 207L200 108H202L220 209L308 500H384L213 -11H178L4 500H86L180 207Z" />
<glyph unicode="w" glyph-name="w" horiz-adv-x="590" d="M326 500L415 208L433 112H435L450 210L518 500H586L453 -11H412L311 317L297 401H295L281 316L183 -11H142L5 500H82L159 209L171 112H173L191 211L273 500H326Z" />
<glyph unicode="x" glyph-name="x" horiz-adv-x="412" d="M161 256L29 500H115L189 357L209 301L230 357L306 500H385L252 260L393 0H311L227 157L205 217L182 157L98 0H19L161 256Z" />
<glyph unicode="y" glyph-name="y" horiz-adv-x="376" d="M183 177L204 80H209L224 177L300 500H373L254 51Q240 -3 226 -50T196 -131T159 -185T110 -205Q82 -205 61 -196L73 -128Q87 -133 101 -130T127 -113T150 -72T169 0L7 500H89L183 177Z" />
<glyph unicode="z" glyph-name="z" horiz-adv-x="360" d="M32 65L218 392L253 435H32V500H324V435L137 105L103 65H324V0H32V65Z" />
<glyph unicode="{" glyph-name="braceleft" horiz-adv-x="282" d="M107 114Q107 165 91 184T43 203V268Q74 268 90 288T107 352V599Q107 646 125 673T186 701H260V636H221Q198 636 189 624T179 579V335Q179 291 163 268T123 240V234Q146 230 162 204T179 135V-108Q179
-139 188 -152T222 -165H260V-230H186Q107 -230 107 -129V114Z" />
<glyph unicode="|" glyph-name="bar" horiz-adv-x="190" d="M65 700H126V-130H65V700Z" />
<glyph unicode="}" glyph-name="braceright" horiz-adv-x="282" d="M175 -129Q175 -230 96 -230H22V-165H60Q84 -165 93 -152T103 -108V135Q103 177 119 203T159 234V240Q136 245 120 268T103 335V579Q103 611 94 623T61 636H22V701H96Q138 701 156 674T175 599V352Q175
308 191 288T239 268V203Q208 203 192 184T175 114V-129Z" />
<glyph unicode="~" glyph-name="asciitilde" horiz-adv-x="415" d="M23 361Q59 394 88 407T142 420Q165 420 185 412T223 394T258 376T294 367Q308 367 324 374T357 400L391 340Q359 313 334 303T288 292Q266 292 248 300T212 319T177 338T140 347Q122 347 102
337T56 302L23 361Z" />
<glyph unicode="&#xa0;" glyph-name="uni00A0" horiz-adv-x="212" />
<glyph unicode="&#xa1;" glyph-name="exclamdown" horiz-adv-x="247" d="M147 -200H72V147L87 323H132L147 147V-200ZM160 455Q160 427 147 413T110 399Q87 399 74 413T60 455Q60 484 73 498T110 512Q133 512 146 498T160 455Z" />
<glyph unicode="&#xa2;" glyph-name="cent" horiz-adv-x="450" d="M382 27Q364 12 340 3T289 -9V-100H224V-10Q183 -4 155 17T110 71T84 150T76 250Q76 364 114 430T224 509V600H289V511Q316 509 337 503T375 487L355 424Q340 433 322 438T283 446V53Q308 55 328
64T361 84L382 27ZM148 250Q151 214 155 183T170 126T196 83T235 58V443Q192 432 172 385T148 250Z" />
<glyph unicode="&#xa3;" glyph-name="sterling" horiz-adv-x="450" d="M42 382H96Q86 411 79 444T72 522Q72 619 118 665T242 712Q291 712 327 704T388 684L364 620Q345 630 316 637T244 645Q198 645 173 613T147 519Q147 477 156 445T176 382H303V317H199Q206
294 210 268T215 210Q215 181 207 147T183 92L144 57V53L203 67H404V0H42V67Q67 68 85 80T116 111T134 155T140 204Q140 238 134 265T120 317H42V382Z" />
<glyph unicode="&#xa4;" glyph-name="currency" horiz-adv-x="450" d="M46 579L115 512L134 481Q171 510 225 510Q251 510 274 503T316 481L335 512L405 579L447 536L380 467L349 448Q377 409 377 358Q377 302 349 267L380 248L447 179L405 136L335 204L317 234Q278
206 225 206Q171 206 134 234L115 204L46 136L3 179L71 248L101 267Q73 304 73 358Q73 384 80 406T101 448L71 467L3 536L46 579ZM135 358Q135 317 160 291T225 264Q265 264 290 290T316 358Q316 397 291 424T225 451Q185 451 160 424T135 358Z" />
<glyph unicode="&#xa5;" glyph-name="yen" horiz-adv-x="450" d="M89 326H168L3 700H91L217 395L230 334H232L245 397L367 700H448L284 326H364V268H264V197H364V139H264V0H189V139H89V197H189V268H89V326Z" />
<glyph unicode="&#xa6;" glyph-name="brokenbar" horiz-adv-x="189" d="M64 206H125V-130H64V206ZM125 364H64V700H125V364Z" />
<glyph unicode="&#xa7;" glyph-name="section" horiz-adv-x="405" d="M45 353Q45 384 58 414T94 468L128 483Q106 500 91 524T75 590Q75 643 108 677T208 712Q250 712 281 704T334 685L316 623Q295 633 270 640T216 647Q180 647 164 630T147 588Q147 562 163 546T202
518T253 493T304 463T344 418T360 347Q360 316 348 285T313 230L277 216Q298 200 314 176T330 110Q330 50 293 19T194 -12Q152 -12 122 -5T70 17L89 78Q108 67 133 60T186 53Q258 53 258 114Q258 138 242 153T203 181T152 206T101 236T61 282T45 353ZM288 345Q288
369 279 385T253 412T217 433T174 453Q150 439 134 415T117 355Q117 332 126 316T152 287T188 265T231 245Q253 259 270 286T288 345Z" />
<glyph unicode="&#xa8;" glyph-name="dieresis" horiz-adv-x="365" d="M60 653Q60 676 71 689T103 702Q123 702 134 689T146 653Q146 632 135 619T103 606Q83 606 72 619T60 653ZM219 653Q219 676 230 689T262 702Q282 702 293 689T305 653Q305 632 294 619T262
606Q242 606 231 619T219 653Z" />
<glyph unicode="&#xa9;" glyph-name="copyright" horiz-adv-x="693" d="M50 293Q50 363 73 418T137 511T232 569T347 590Q408 590 462 570T556 511T620 418T644 293Q644 223 621 168T557 75T462 16T347 -4Q279 -4 225 16T131 74T71 168T50 293ZM110 293Q110 235
128 190T179 115T254 68T347 52Q396 52 439 68T515 114T565 190T584 293Q584 351 566 396T515 471T440 518T347 534Q297 534 254 518T179 472T129 396T110 293ZM446 155Q426 144 402 138T346 132Q278 132 242 175T206 293Q206 370 244 411T346 453Q377 453 396
447T440 430L418 375Q399 384 383 388T354 392Q319 392 299 370T278 293Q278 194 361 194Q399 194 428 210L446 155Z" />
<glyph unicode="&#xaa;" glyph-name="ordfeminine" horiz-adv-x="316" d="M52 681Q73 692 106 700T182 708Q235 708 254 682T274 607Q273 538 270 481T278 380H228L216 422H213Q203 405 184 391T131 376Q86 376 61 401T36 471Q36 504 50 526T88 561T143 578T212
581Q214 621 206 638T165 655Q136 655 111 649T68 634L52 681ZM143 430Q173 430 188 444T212 474V531Q191 532 171 532T135 526T109 510T99 477Q99 457 110 444T143 430Z" />
<glyph unicode="&#xab;" glyph-name="guillemotleft" horiz-adv-x="386" d="M178 259L305 487L353 454L273 301L235 260L273 224L358 74L310 40L178 259ZM29 259L158 489L208 455L126 301L88 260L126 224L214 73L163 38L29 259Z" />
<glyph unicode="&#xac;" glyph-name="logicalnot" horiz-adv-x="415" d="M36 391H379V200H314V322H36V391Z" />
<glyph unicode="&#xad;" glyph-name="uni00AD" horiz-adv-x="291" d="M47 320H244V251H47V320Z" />
<glyph unicode="&#xae;" glyph-name="registered" horiz-adv-x="591" d="M72 490Q72 544 90 585T138 655T209 698T295 713Q342 713 383 699T454 656T501 586T519 490Q519 436 501 394T453 324T382 281T295 266Q248 266 208 280T137 323T90 394T72 490ZM126 490Q126
446 139 414T176 359T229 327T295 316Q332 316 363 326T416 358T452 412T465 490Q465 533 452 565T415 620T361 652T295 663Q258 663 227 653T174 620T139 566T126 490ZM208 599Q222 603 246 605T293 608Q328 608 353 593T379 542Q379 515 362 501T319 484L343
473L405 380H353L293 468L252 481V380H208V599ZM283 570Q275 570 266 570T252 566V506H281Q332 506 332 540Q332 570 283 570Z" />
<glyph unicode="&#xaf;" glyph-name="overscore" horiz-adv-x="363" d="M60 643H303V584H60V643Z" />
<glyph unicode="&#xb0;" glyph-name="degree" horiz-adv-x="342" d="M62 571Q62 634 94 673T179 712Q231 712 264 676T297 571Q297 503 264 467T179 430Q126 430 94 466T62 571ZM119 571Q119 532 135 508T179 483Q206 483 223 507T240 571Q240 610 223 634T179
659Q152 659 136 635T119 571Z" />
<glyph unicode="&#xb1;" glyph-name="plusminus" horiz-adv-x="415" d="M35 469H174V624H241V469H380V402H241V297H174V402H35V469ZM35 247H380V180H35V247Z" />
<glyph unicode="&#xb2;" glyph-name="twosuperior" horiz-adv-x="330" d="M267 695Q267 663 259 633T236 573T202 515T161 458L124 426V424L170 439H282V380H44V412Q65 433 92 465T145 535T187 611T204 685Q204 715 189 731T150 747Q128 747 108 740T73 723L53
775Q73 791 102 799T161 807Q212 807 239 778T267 695Z" />
<glyph unicode="&#xb3;" glyph-name="threesuperior" horiz-adv-x="330" d="M141 430Q179 430 198 450T217 508Q218 540 201 560T142 580H98V603L175 722L204 749L163 743H58V800H269V768L187 642L166 625V622L186 625Q231 625 256 594T281 508Q282 447 245 410T147
373Q118 373 96 378T57 391L70 447Q85 439 102 435T141 430Z" />
<glyph unicode="&#xb4;" glyph-name="acute" horiz-adv-x="245" d="M107 720H185V699L103 571H60L107 720Z" />
<glyph unicode="&#xb5;" glyph-name="mu" horiz-adv-x="450" d="M125 500V198Q125 126 145 90T213 53Q255 53 283 78T324 145V500H396V163Q396 122 398 81T408 0H357L334 62H331Q315 30 283 9T205 -12Q168 -12 148 1T113 34H108L126 -67V-200H53V500H125Z" />
<glyph unicode="&#xb6;" glyph-name="paragraph" horiz-adv-x="403" d="M278 700H339V-130H278V700ZM148 310Q121 310 100 325T62 368T38 430T29 506Q29 545 38 580T66 642T109 684T168 700H209V-130H148V310Z" />
<glyph unicode="&#xb7;" glyph-name="middot" horiz-adv-x="213" d="M57 295Q57 323 70 337T107 351Q130 351 143 337T157 295Q157 266 144 252T107 238Q84 238 71 252T57 295Z" />
<glyph unicode="&#xb8;" glyph-name="cedilla" horiz-adv-x="262" d="M156 0L137 -43Q202 -58 202 -118Q202 -157 174 -182T97 -208Q77 -208 60 -204L67 -165Q90 -167 103 -164T124 -155T133 -142T135 -127Q135 -99 66 -90L106 0H156Z" />
<glyph unicode="&#xb9;" glyph-name="onesuperior" horiz-adv-x="330" d="M63 437H147V694L153 730L131 702L71 662L45 704L170 807H211V437H286V380H63V437Z" />
<glyph unicode="&#xba;" glyph-name="ordmasculine" horiz-adv-x="323" d="M34 542Q34 588 43 620T70 673T111 703T162 712Q189 712 212 704T253 676T280 623T290 542Q290 494 281 461T254 409T213 381T162 372Q135 372 112 380T71 408T44 461T34 542ZM99 542Q99
477 116 452T162 427Q176 427 187 432T207 449T219 484T224 542Q224 576 220 598T207 634T188 652T162 657Q147 657 136 652T116 634T104 599T99 542Z" />
<glyph unicode="&#xbb;" glyph-name="guillemotright" horiz-adv-x="386" d="M208 268L81 40L32 72L113 226L151 267L113 303L28 454L76 487L208 268ZM357 268L228 38L177 71L260 226L298 267L260 303L172 455L223 489L357 268Z" />
<glyph unicode="&#xbc;" glyph-name="onequarter" horiz-adv-x="683" d="M505 713L554 686L170 -12L120 16L505 713ZM636 94H571V-2H510V94H345V128L526 428H571V150H636V94ZM510 275L517 328H513L495 278L436 176L409 146L450 150H510V275ZM391 595L397 631L375
602L316 561L290 605L414 707H455V280H391V595Z" />
<glyph unicode="&#xbd;" glyph-name="onehalf" horiz-adv-x="701" d="M505 713L554 686L170 -12L120 16L505 713ZM640 315Q640 283 632 253T609 193T575 135T534 78L497 46V44L543 59H655V0H417V32Q438 53 465 85T518 155T560 231T577 305Q577 335 562 351T523
367Q501 367 481 360T446 343L426 395Q446 411 475 419T534 427Q585 427 612 398T640 315ZM391 595L397 631L375 602L316 561L290 605L414 707H455V280H391V595Z" />
<glyph unicode="&#xbe;" glyph-name="threequarters" horiz-adv-x="710" d="M533 713L582 686L198 -12L148 16L533 713ZM664 94H599V-2H538V94H373V128L554 428H599V150H664V94ZM538 275L545 328H541L523 278L464 176L437 146L478 150H538V275ZM131 330Q169 330
188 350T207 408Q208 440 191 460T132 480H88V503L165 622L194 649L153 643H48V700H259V668L177 542L156 525V522L176 525Q221 525 246 494T271 408Q272 347 235 310T137 273Q108 273 86 278T47 291L60 347Q75 339 92 335T131 330Z" />
<glyph unicode="&#xbf;" glyph-name="questiondown" horiz-adv-x="358" d="M239 323Q242 279 234 245T210 183T178 129T144 78T118 22T107 -45Q107 -91 127 -119T195 -147Q224 -147 252 -137T302 -110L330 -166Q300 -186 265 -199T178 -212Q106 -212 69 -170T32
-55Q32 -12 43 22T70 84T105 139T140 192T168 251T179 323H239ZM254 455Q254 427 241 413T204 399Q181 399 168 413T154 455Q154 484 167 498T204 512Q227 512 240 498T254 455Z" />
<glyph unicode="&#xc0;" glyph-name="Agrave" horiz-adv-x="473" d="M333 196H135L79 0H5L216 711H257L468 0H390L333 196ZM155 263H315L254 479L235 584H233L214 477L155 263ZM302 752H237L110 849V870H209L302 752Z" />
<glyph unicode="&#xc1;" glyph-name="Aacute" horiz-adv-x="473" d="M333 196H135L79 0H5L216 711H257L468 0H390L333 196ZM155 263H315L254 479L235 584H233L214 477L155 263ZM262 870H361V849L230 752H169L262 870Z" />
<glyph unicode="&#xc2;" glyph-name="Acircumflex" horiz-adv-x="473" d="M333 196H135L79 0H5L216 711H257L468 0H390L333 196ZM155 263H315L254 479L235 584H233L214 477L155 263ZM213 870H263L365 768V747H299L252 796L237 831L222 797L170 747H106V769L213 870Z" />
<glyph unicode="&#xc3;" glyph-name="Atilde" horiz-adv-x="473" d="M333 196H135L79 0H5L216 711H257L468 0H390L333 196ZM155 263H315L254 479L235 584H233L214 477L155 263ZM100 780Q128 814 151 826T196 839Q212 839 226 834T254 824T280 813T306 808Q317
808 327 812T349 828L375 791Q351 763 330 753T291 743Q276 743 262 748T235 758T208 769T181 774Q167 774 154 768T124 745L100 780Z" />
<glyph unicode="&#xc4;" glyph-name="Adieresis" horiz-adv-x="473" d="M333 196H135L79 0H5L216 711H257L468 0H390L333 196ZM155 263H315L254 479L235 584H233L214 477L155 263ZM111 794Q111 815 123 828T158 841Q179 841 191 828T204 794Q204 773 192 761T158
748Q136 748 124 760T111 794ZM269 794Q269 815 281 828T315 841Q337 841 349 828T362 794Q362 773 350 761T315 748Q294 748 282 760T269 794Z" />
<glyph unicode="&#xc5;" glyph-name="Aring" horiz-adv-x="473" d="M148 768Q148 805 169 829T238 852Q281 853 304 832T328 768Q328 737 312 716T264 687L468 0H390L333 196H135L79 0H5L209 687Q179 695 164 715T148 768ZM155 263H315L254 479L235 584H233L214
477L155 263ZM202 768Q202 750 210 739T238 727Q274 727 274 768Q274 811 238 812Q202 811 202 768Z" />
<glyph unicode="&#xc6;" glyph-name="AE" horiz-adv-x="683" d="M315 589L289 491L186 266H318V589H315ZM318 199H153L63 0H-18L317 700H630V631H393V394H610V325H393V69H634V0H318V199Z" />
<glyph unicode="&#xc7;" glyph-name="Ccedilla" horiz-adv-x="458" d="M430 27Q409 9 378 0T312 -11L298 -43Q363 -58 363 -118Q363 -157 335 -182T258 -208Q238 -208 221 -204L228 -165Q251 -167 264 -164T285 -155T294 -142T296 -127Q296 -99 227 -90L262 -10Q214
-6 174 16T104 82T59 192T43 350Q43 450 63 519T118 631T196 693T288 712Q336 712 367 705T422 688L404 620Q384 631 357 637T295 643Q260 643 229 628T174 578T136 487T122 350Q122 204 172 131T305 58Q339 58 366 67T412 90L430 27Z" />
<glyph unicode="&#xc8;" glyph-name="Egrave" horiz-adv-x="429" d="M64 700H375V631H139V394H356V325H139V69H380V0H64V700ZM267 752H202L75 849V870H174L267 752Z" />
<glyph unicode="&#xc9;" glyph-name="Eacute" horiz-adv-x="429" d="M64 700H375V631H139V394H356V325H139V69H380V0H64V700ZM258 870H357V849L226 752H165L258 870Z" />
<glyph unicode="&#xca;" glyph-name="Ecircumflex" horiz-adv-x="429" d="M64 700H375V631H139V394H356V325H139V69H380V0H64V700ZM192 870H242L344 768V747H278L231 796L216 831L201 797L149 747H85V769L192 870Z" />
<glyph unicode="&#xcb;" glyph-name="Edieresis" horiz-adv-x="429" d="M64 700H375V631H139V394H356V325H139V69H380V0H64V700ZM90 794Q90 815 102 828T137 841Q158 841 170 828T183 794Q183 773 171 761T137 748Q115 748 103 760T90 794ZM248 794Q248 815 260
828T294 841Q316 841 328 828T341 794Q341 773 329 761T294 748Q273 748 261 760T248 794Z" />
<glyph unicode="&#xcc;" glyph-name="Igrave" horiz-adv-x="233" d="M79 700H154V0H79V700ZM447 752H382L255 849V870H354L447 752Z" />
<glyph unicode="&#xcd;" glyph-name="Iacute" horiz-adv-x="233" d="M79 700H154V0H79V700ZM397 870H496V849L365 752H304L397 870Z" />
<glyph unicode="&#xce;" glyph-name="Icircumflex" horiz-adv-x="233" d="M79 700H154V0H79V700ZM350 870H400L502 768V747H436L389 796L374 831L359 797L307 747H243V769L350 870Z" />
<glyph unicode="&#xcf;" glyph-name="Idieresis" horiz-adv-x="233" d="M79 700H154V0H79V700ZM248 794Q248 815 260 828T295 841Q316 841 328 828T341 794Q341 773 329 761T295 748Q273 748 261 760T248 794ZM406 794Q406 815 418 828T452 841Q474 841 486 828T499
794Q499 773 487 761T452 748Q431 748 419 760T406 794Z" />
<glyph unicode="&#xd0;" glyph-name="Eth" horiz-adv-x="531" d="M-1 393H70V700Q86 703 105 704T145 706T184 707T221 708Q294 708 345 683T428 612T474 500T488 355Q488 283 475 217T429 101T345 21T213 -9Q200 -9 180 -9T139 -7T99 -4T70 -1V334H-1V393ZM225
639Q215 639 204 639T181 638T161 636T145 634V393H262V334H145V64Q149 63 159 63T181 62T203 61T219 60Q274 60 311 84T369 148T400 242T409 356Q409 409 401 460T373 550T317 614T225 639Z" />
<glyph unicode="&#xd1;" glyph-name="Ntilde" horiz-adv-x="538" d="M171 444L128 554H125L136 444V0H64V711H109L368 257L409 152H413L402 257V700H474V-11H428L171 444ZM135 780Q163 814 186 826T231 839Q247 839 261 834T289 824T315 813T341 808Q352 808 362
812T384 828L410 791Q386 763 365 753T326 743Q311 743 297 748T270 758T243 769T216 774Q202 774 189 768T159 745L135 780Z" />
<glyph unicode="&#xd2;" glyph-name="Ograve" horiz-adv-x="549" d="M43 350Q43 528 100 620T274 712Q337 712 381 687T452 614T493 500T506 350Q506 172 449 80T274 -12Q212 -12 168 13T96 86T56 200T43 350ZM122 350Q122 291 130 238T157 145T204 81T274 57Q349
57 388 129T427 350Q427 408 419 461T392 554T345 619T274 643Q200 643 161 571T122 350ZM333 752H268L141 849V870H240L333 752Z" />
<glyph unicode="&#xd3;" glyph-name="Oacute" horiz-adv-x="549" d="M43 350Q43 528 100 620T274 712Q337 712 381 687T452 614T493 500T506 350Q506 172 449 80T274 -12Q212 -12 168 13T96 86T56 200T43 350ZM122 350Q122 291 130 238T157 145T204 81T274 57Q349
57 388 129T427 350Q427 408 419 461T392 554T345 619T274 643Q200 643 161 571T122 350ZM335 870H434V849L303 752H242L335 870Z" />
<glyph unicode="&#xd4;" glyph-name="Ocircumflex" horiz-adv-x="549" d="M43 350Q43 528 100 620T274 712Q337 712 381 687T452 614T493 500T506 350Q506 172 449 80T274 -12Q212 -12 168 13T96 86T56 200T43 350ZM122 350Q122 291 130 238T157 145T204 81T274
57Q349 57 388 129T427 350Q427 408 419 461T392 554T345 619T274 643Q200 643 161 571T122 350ZM250 870H300L402 768V747H336L289 796L274 831L259 797L207 747H143V769L250 870Z" />
<glyph unicode="&#xd5;" glyph-name="Otilde" horiz-adv-x="549" d="M43 350Q43 528 100 620T274 712Q337 712 381 687T452 614T493 500T506 350Q506 172 449 80T274 -12Q212 -12 168 13T96 86T56 200T43 350ZM122 350Q122 291 130 238T157 145T204 81T274 57Q349
57 388 129T427 350Q427 408 419 461T392 554T345 619T274 643Q200 643 161 571T122 350ZM139 780Q167 814 190 826T235 839Q251 839 265 834T293 824T319 813T345 808Q356 808 366 812T388 828L414 791Q390 763 369 753T330 743Q315 743 301 748T274 758T247 769T220
774Q206 774 193 768T163 745L139 780Z" />
<glyph unicode="&#xd6;" glyph-name="Odieresis" horiz-adv-x="549" d="M43 350Q43 528 100 620T274 712Q337 712 381 687T452 614T493 500T506 350Q506 172 449 80T274 -12Q212 -12 168 13T96 86T56 200T43 350ZM122 350Q122 291 130 238T157 145T204 81T274
57Q349 57 388 129T427 350Q427 408 419 461T392 554T345 619T274 643Q200 643 161 571T122 350ZM149 794Q149 815 161 828T196 841Q217 841 229 828T242 794Q242 773 230 761T196 748Q174 748 162 760T149 794ZM307 794Q307 815 319 828T353 841Q375 841 387 828T400
794Q400 773 388 761T353 748Q332 748 320 760T307 794Z" />
<glyph unicode="&#xd7;" glyph-name="multiply" horiz-adv-x="415" d="M104 513L208 391L313 513L362 467L253 339L362 209L313 164L208 286L103 163L53 208L164 339L54 467L104 513Z" />
<glyph unicode="&#xd8;" glyph-name="Oslash" horiz-adv-x="549" d="M43 350Q43 528 100 620T274 712Q319 712 354 699T416 660L446 713L494 686L453 613Q481 565 493 499T506 350Q506 172 449 80T274 -12Q187 -12 134 38L107 -12L58 16L96 85Q68 133 56 199T43
350ZM122 350Q122 301 127 257T145 174L375 586Q357 613 332 628T274 643Q200 643 161 571T122 350ZM427 350Q427 398 422 442T404 523L175 111Q193 85 217 71T274 57Q349 57 388 129T427 350Z" />
<glyph unicode="&#xd9;" glyph-name="Ugrave" horiz-adv-x="521" d="M385 700H457V231Q457 104 408 48T267 -9Q161 -9 113 46T64 215V700H139V254Q139 200 146 163T169 103T209 70T268 60Q334 60 359 106T385 254V700ZM326 752H261L134 849V870H233L326 752Z" />
<glyph unicode="&#xda;" glyph-name="Uacute" horiz-adv-x="521" d="M385 700H457V231Q457 104 408 48T267 -9Q161 -9 113 46T64 215V700H139V254Q139 200 146 163T169 103T209 70T268 60Q334 60 359 106T385 254V700ZM311 870H410V849L279 752H218L311 870Z" />
<glyph unicode="&#xdb;" glyph-name="Ucircumflex" horiz-adv-x="521" d="M385 700H457V231Q457 104 408 48T267 -9Q161 -9 113 46T64 215V700H139V254Q139 200 146 163T169 103T209 70T268 60Q334 60 359 106T385 254V700ZM240 870H290L392 768V747H326L279 796L264
831L249 797L197 747H133V769L240 870Z" />
<glyph unicode="&#xdc;" glyph-name="Udieresis" horiz-adv-x="521" d="M385 700H457V231Q457 104 408 48T267 -9Q161 -9 113 46T64 215V700H139V254Q139 200 146 163T169 103T209 70T268 60Q334 60 359 106T385 254V700ZM135 794Q135 815 147 828T182 841Q203
841 215 828T228 794Q228 773 216 761T182 748Q160 748 148 760T135 794ZM293 794Q293 815 305 828T339 841Q361 841 373 828T386 794Q386 773 374 761T339 748Q318 748 306 760T293 794Z" />
<glyph unicode="&#xdd;" glyph-name="Yacute" horiz-adv-x="455" d="M191 278L5 700H93L219 395L232 334H234L247 397L369 700H450L266 279V0H191V278ZM282 870H381V849L250 752H189L282 870Z" />
<glyph unicode="&#xde;" glyph-name="Thorn" horiz-adv-x="452" d="M65 700H140V622Q171 625 204 625Q244 625 283 616T353 582T404 516T424 409Q424 346 406 302T357 231T287 192T205 179Q201 179 192 179T173 179T154 181T140 183V0H65V700ZM140 252Q144 250
152 250T170 248T187 247T200 247Q228 247 254 254T300 279T332 329T345 410Q345 451 334 479T304 524T260 549T208 557Q188 557 170 556T140 552V252Z" />
<glyph unicode="&#xdf;" glyph-name="germandbls" horiz-adv-x="488" d="M77 500V525Q77 624 118 665T231 706Q264 706 292 697T342 671T376 628T388 569Q388 536 372 513T338 470T303 432T287 389Q287 366 299 350T330 320T371 292T411 257T442 209T455 138Q455
110 445 83T416 35T369 1T304 -12Q267 -12 244 -6T198 14L218 75Q239 63 254 58T298 52Q332 52 357 75T383 136Q383 167 371 187T339 223T299 252T258 283T227 325T214 386Q214 419 230 442T265 484T300 523T316 566Q316 583 309 597T289 620T263 635T233 641Q211
641 195 635T169 612T154 569T149 499V0H77V435H16V500H77Z" />
<glyph unicode="&#xe0;" glyph-name="agrave" horiz-adv-x="400" d="M54 470Q83 488 124 498T212 508Q254 508 279 496T319 462T338 413T343 355Q343 295 341 238T338 130Q338 92 340 60T350 -2H295L278 57H274Q259 31 230 12T152 -7Q98 -7 64 30T29 134Q29 177
43 206T84 253T147 278T229 286Q239 286 249 286T270 285Q273 316 273 340Q273 397 256 420T194 443Q166 443 133 435T78 413L54 470ZM271 228Q261 229 251 229T231 230Q207 230 184 226T143 212T115 185T104 142Q104 102 123 80T174 58Q216 58 239 78T271 122V228ZM244
571H203L109 699V720H192L244 571Z" />
<glyph unicode="&#xe1;" glyph-name="aacute" horiz-adv-x="400" d="M54 470Q83 488 124 498T212 508Q254 508 279 496T319 462T338 413T343 355Q343 295 341 238T338 130Q338 92 340 60T350 -2H295L278 57H274Q259 31 230 12T152 -7Q98 -7 64 30T29 134Q29 177
43 206T84 253T147 278T229 286Q239 286 249 286T270 285Q273 316 273 340Q273 397 256 420T194 443Q166 443 133 435T78 413L54 470ZM271 228Q261 229 251 229T231 230Q207 230 184 226T143 212T115 185T104 142Q104 102 123 80T174 58Q216 58 239 78T271 122V228ZM194
720H272V699L190 571H147L194 720Z" />
<glyph unicode="&#xe2;" glyph-name="acircumflex" horiz-adv-x="400" d="M54 470Q83 488 124 498T212 508Q254 508 279 496T319 462T338 413T343 355Q343 295 341 238T338 130Q338 92 340 60T350 -2H295L278 57H274Q259 31 230 12T152 -7Q98 -7 64 30T29 134Q29
177 43 206T84 253T147 278T229 286Q239 286 249 286T270 285Q273 316 273 340Q273 397 256 420T194 443Q166 443 133 435T78 413L54 470ZM271 228Q261 229 251 229T231 230Q207 230 184 226T143 212T115 185T104 142Q104 102 123 80T174 58Q216 58 239 78T271
122V228ZM190 732H225L314 550H251L219 616L203 674L186 616L150 550H91L190 732Z" />
<glyph unicode="&#xe3;" glyph-name="atilde" horiz-adv-x="400" d="M54 470Q83 488 124 498T212 508Q254 508 279 496T319 462T338 413T343 355Q343 295 341 238T338 130Q338 92 340 60T350 -2H295L278 57H274Q259 31 230 12T152 -7Q98 -7 64 30T29 134Q29 177
43 206T84 253T147 278T229 286Q239 286 249 286T270 285Q273 316 273 340Q273 397 256 420T194 443Q166 443 133 435T78 413L54 470ZM271 228Q261 229 251 229T231 230Q207 230 184 226T143 212T115 185T104 142Q104 102 123 80T174 58Q216 58 239 78T271 122V228ZM80
653Q107 687 128 699T166 712Q180 712 192 706T215 694T237 681T260 675Q269 675 278 679T299 696L322 658Q298 629 280 618T245 607Q231 607 219 612T196 625T173 637T150 643Q139 643 128 638T104 618L80 653Z" />
<glyph unicode="&#xe4;" glyph-name="adieresis" horiz-adv-x="400" d="M54 470Q83 488 124 498T212 508Q254 508 279 496T319 462T338 413T343 355Q343 295 341 238T338 130Q338 92 340 60T350 -2H295L278 57H274Q259 31 230 12T152 -7Q98 -7 64 30T29 134Q29
177 43 206T84 253T147 278T229 286Q239 286 249 286T270 285Q273 316 273 340Q273 397 256 420T194 443Q166 443 133 435T78 413L54 470ZM271 228Q261 229 251 229T231 230Q207 230 184 226T143 212T115 185T104 142Q104 102 123 80T174 58Q216 58 239 78T271
122V228ZM78 653Q78 676 89 689T121 702Q141 702 152 689T164 653Q164 632 153 619T121 606Q101 606 90 619T78 653ZM237 653Q237 676 248 689T280 702Q300 702 311 689T323 653Q323 632 312 619T280 606Q260 606 249 619T237 653Z" />
<glyph unicode="&#xe5;" glyph-name="aring" horiz-adv-x="400" d="M54 470Q83 488 124 498T212 508Q254 508 279 496T319 462T338 413T343 355Q343 295 341 238T338 130Q338 92 340 60T350 -2H295L278 57H274Q259 31 230 12T152 -7Q98 -7 64 30T29 134Q29 177
43 206T84 253T147 278T229 286Q239 286 249 286T270 285Q273 316 273 340Q273 397 256 420T194 443Q166 443 133 435T78 413L54 470ZM271 228Q261 229 251 229T231 230Q207 230 184 226T143 212T115 185T104 142Q104 102 123 80T174 58Q216 58 239 78T271 122V228ZM118
643Q118 685 140 708T200 732Q236 732 259 711T283 643Q283 603 261 579T200 555Q162 555 140 577T118 643ZM166 643Q166 620 176 609T200 597Q216 597 225 608T235 643Q235 667 225 678T200 690Q186 690 176 679T166 643Z" />
<glyph unicode="&#xe6;" glyph-name="ae" horiz-adv-x="642" d="M173 57Q194 57 210 63T239 80T259 103T271 129V230Q261 231 251 231T231 232Q207 232 184 228T143 214T115 187T104 144Q104 109 123 83T173 57ZM294 73Q274 38 240 15T154 -8Q98 -8 64 31T29 136Q29
180 43 209T84 256T146 281T226 289Q237 289 248 289T270 287Q273 318 273 342Q273 399 256 421T194 444Q166 444 132 434T75 408L53 464Q84 487 125 497T212 508Q296 508 321 444Q341 480 376 496T447 512Q475 512 502 505T552 476T587 416T601 316Q601 299 600
280T596 240H343Q344 148 371 101T466 53Q494 53 521 63T562 85L588 32Q563 12 527 0T447 -12Q397 -12 358 9T300 73H294ZM447 447Q402 447 375 411T343 299H531Q533 374 511 410T447 447Z" />
<glyph unicode="&#xe7;" glyph-name="ccedilla" horiz-adv-x="356" d="M335 25Q315 10 291 2T241 -10L227 -43Q292 -58 292 -118Q292 -157 264 -182T187 -208Q167 -208 150 -204L157 -165Q180 -167 193 -164T214 -155T223 -142T225 -127Q225 -99 156 -90L191 -11Q149
-7 120 13T72 67T46 147T37 250Q37 378 82 445T213 512Q252 512 280 505T328 487L308 425Q270 447 221 447Q167 447 140 400T112 250Q112 209 118 174T138 112T174 70T229 55Q255 55 277 63T314 84L335 25Z" />
<glyph unicode="&#xe8;" glyph-name="egrave" horiz-adv-x="413" d="M358 34Q334 12 297 0T219 -12Q172 -12 138 6T81 59T48 142T37 250Q37 378 84 445T217 512Q245 512 272 505T322 477T357 418T371 319Q371 302 370 283T366 242H112Q112 199 119 164T141 105T179
67T238 53Q265 53 291 63T332 87L358 34ZM302 302Q304 377 281 412T218 447Q172 447 145 412T113 302H302ZM261 571H220L126 699V720H209L261 571Z" />
<glyph unicode="&#xe9;" glyph-name="eacute" horiz-adv-x="413" d="M358 34Q334 12 297 0T219 -12Q172 -12 138 6T81 59T48 142T37 250Q37 378 84 445T217 512Q245 512 272 505T322 477T357 418T371 319Q371 302 370 283T366 242H112Q112 199 119 164T141 105T179
67T238 53Q265 53 291 63T332 87L358 34ZM302 302Q304 377 281 412T218 447Q172 447 145 412T113 302H302ZM232 720H310V699L228 571H185L232 720Z" />
<glyph unicode="&#xea;" glyph-name="ecircumflex" horiz-adv-x="413" d="M358 34Q334 12 297 0T219 -12Q172 -12 138 6T81 59T48 142T37 250Q37 378 84 445T217 512Q245 512 272 505T322 477T357 418T371 319Q371 302 370 283T366 242H112Q112 199 119 164T141
105T179 67T238 53Q265 53 291 63T332 87L358 34ZM302 302Q304 377 281 412T218 447Q172 447 145 412T113 302H302ZM197 732H232L321 550H258L226 616L210 674L193 616L157 550H98L197 732Z" />
<glyph unicode="&#xeb;" glyph-name="edieresis" horiz-adv-x="413" d="M358 34Q334 12 297 0T219 -12Q172 -12 138 6T81 59T48 142T37 250Q37 378 84 445T217 512Q245 512 272 505T322 477T357 418T371 319Q371 302 370 283T366 242H112Q112 199 119 164T141
105T179 67T238 53Q265 53 291 63T332 87L358 34ZM302 302Q304 377 281 412T218 447Q172 447 145 412T113 302H302ZM93 653Q93 676 104 689T136 702Q156 702 167 689T179 653Q179 632 168 619T136 606Q116 606 105 619T93 653ZM252 653Q252 676 263 689T295 702Q315
702 326 689T338 653Q338 632 327 619T295 606Q275 606 264 619T252 653Z" />
<glyph unicode="&#xec;" glyph-name="igrave" horiz-adv-x="217" d="M72 500H144V0H72V500ZM396 571H355L261 699V720H344L396 571Z" />
<glyph unicode="&#xed;" glyph-name="iacute" horiz-adv-x="217" d="M72 500H144V0H72V500ZM123 720H201V699L119 571H76L123 720Z" />
<glyph unicode="&#xee;" glyph-name="icircumflex" horiz-adv-x="217" d="M72 500H144V0H72V500ZM350 732H385L474 550H411L379 616L363 674L346 616L310 550H251L350 732Z" />
<glyph unicode="&#xef;" glyph-name="idieresis" horiz-adv-x="217" d="M72 500H144V0H72V500ZM243 653Q243 676 254 689T286 702Q306 702 317 689T329 653Q329 632 318 619T286 606Q266 606 255 619T243 653ZM402 653Q402 676 413 689T445 702Q465 702 476 689T488
653Q488 632 477 619T445 606Q425 606 414 619T402 653Z" />
<glyph unicode="&#xf0;" glyph-name="eth" horiz-adv-x="450" d="M169 589L226 627Q194 653 159 668L191 712Q207 704 229 692T275 659L335 699L359 660L309 627Q329 604 347 573T379 502T401 410T409 296Q409 210 395 152T355 57T297 4T224 -12Q176 -12 141 7T84
60T52 143T41 251Q41 308 53 355T88 437T145 491T222 510Q257 510 284 498T325 468Q314 506 298 537T260 594L194 551L169 589ZM115 251Q115 146 147 100T229 54Q252 54 272 67T306 108T329 181T338 290Q338 300 338 314T336 343T334 371T331 392Q317 418 288 431T230
444Q200 444 179 430T143 391T122 330T115 251Z" />
<glyph unicode="&#xf1;" glyph-name="ntilde" horiz-adv-x="439" d="M315 0V305Q315 380 298 413T235 447Q195 447 169 423T131 364V0H59V500H111L124 447H127Q146 474 178 493T256 512Q288 512 312 503T353 473T378 415T387 324V0H315ZM100 653Q127 687 148 699T186
712Q200 712 212 706T235 694T257 681T280 675Q289 675 298 679T319 696L342 658Q318 629 300 618T265 607Q251 607 239 612T216 625T193 637T170 643Q159 643 148 638T124 618L100 653Z" />
<glyph unicode="&#xf2;" glyph-name="ograve" horiz-adv-x="432" d="M37 250Q37 385 83 448T216 512Q308 512 351 447T395 250Q395 114 348 51T216 -12Q124 -12 81 53T37 250ZM112 250Q112 206 117 170T135 108T168 68T216 53Q268 53 294 99T320 250Q320 293 315
329T297 392T264 432T216 447Q165 447 139 400T112 250ZM254 571H213L119 699V720H202L254 571Z" />
<glyph unicode="&#xf3;" glyph-name="oacute" horiz-adv-x="432" d="M37 250Q37 385 83 448T216 512Q308 512 351 447T395 250Q395 114 348 51T216 -12Q124 -12 81 53T37 250ZM112 250Q112 206 117 170T135 108T168 68T216 53Q268 53 294 99T320 250Q320 293 315
329T297 392T264 432T216 447Q165 447 139 400T112 250ZM227 720H305V699L223 571H180L227 720Z" />
<glyph unicode="&#xf4;" glyph-name="ocircumflex" horiz-adv-x="432" d="M37 250Q37 385 83 448T216 512Q308 512 351 447T395 250Q395 114 348 51T216 -12Q124 -12 81 53T37 250ZM112 250Q112 206 117 170T135 108T168 68T216 53Q268 53 294 99T320 250Q320
293 315 329T297 392T264 432T216 447Q165 447 139 400T112 250ZM206 732H241L330 550H267L235 616L219 674L202 616L166 550H107L206 732Z" />
<glyph unicode="&#xf5;" glyph-name="otilde" horiz-adv-x="432" d="M37 250Q37 385 83 448T216 512Q308 512 351 447T395 250Q395 114 348 51T216 -12Q124 -12 81 53T37 250ZM112 250Q112 206 117 170T135 108T168 68T216 53Q268 53 294 99T320 250Q320 293 315
329T297 392T264 432T216 447Q165 447 139 400T112 250ZM96 653Q123 687 144 699T182 712Q196 712 208 706T231 694T253 681T276 675Q285 675 294 679T315 696L338 658Q314 629 296 618T261 607Q247 607 235 612T212 625T189 637T166 643Q155 643 144 638T120 618L96
653Z" />
<glyph unicode="&#xf6;" glyph-name="odieresis" horiz-adv-x="432" d="M37 250Q37 385 83 448T216 512Q308 512 351 447T395 250Q395 114 348 51T216 -12Q124 -12 81 53T37 250ZM112 250Q112 206 117 170T135 108T168 68T216 53Q268 53 294 99T320 250Q320 293
315 329T297 392T264 432T216 447Q165 447 139 400T112 250ZM94 653Q94 676 105 689T137 702Q157 702 168 689T180 653Q180 632 169 619T137 606Q117 606 106 619T94 653ZM253 653Q253 676 264 689T296 702Q316 702 327 689T339 653Q339 632 328 619T296 606Q276
606 265 619T253 653Z" />
<glyph unicode="&#xf7;" glyph-name="divide" horiz-adv-x="415" d="M35 373H379V306H35V373ZM157 508Q157 536 170 550T207 564Q230 564 243 550T257 508Q257 479 244 465T207 451Q184 451 171 465T157 508ZM157 171Q157 199 170 213T207 227Q230 227 243 213T257
171Q257 142 244 128T207 114Q184 114 171 128T157 171Z" />
<glyph unicode="&#xf8;" glyph-name="oslash" horiz-adv-x="436" d="M40 250Q40 381 86 446T219 512Q277 512 317 483L336 515L385 485L358 437Q378 404 388 357T398 250Q398 117 352 53T219 -12Q157 -12 116 20L95 -14L46 18L76 69Q40 135 40 250ZM323 250Q323
282 321 310T311 362L151 87Q177 53 219 53Q271 53 297 100T323 250ZM115 250Q115 220 117 193T125 143L282 418Q270 432 255 439T219 447Q168 447 142 400T115 250Z" />
<glyph unicode="&#xf9;" glyph-name="ugrave" horiz-adv-x="434" d="M124 500V194Q124 118 139 86T196 53Q217 53 233 61T263 84T286 116T302 153V500H374V142Q374 106 376 68T384 0H333L315 70H312Q295 37 263 13T183 -12Q151 -12 127 -4T86 25T61 82T52 176V500H124ZM249
571H208L114 699V720H197L249 571Z" />
<glyph unicode="&#xfa;" glyph-name="uacute" horiz-adv-x="434" d="M124 500V194Q124 118 139 86T196 53Q217 53 233 61T263 84T286 116T302 153V500H374V142Q374 106 376 68T384 0H333L315 70H312Q295 37 263 13T183 -12Q151 -12 127 -4T86 25T61 82T52 176V500H124ZM226
720H304V699L222 571H179L226 720Z" />
<glyph unicode="&#xfb;" glyph-name="ucircumflex" horiz-adv-x="434" d="M124 500V194Q124 118 139 86T196 53Q217 53 233 61T263 84T286 116T302 153V500H374V142Q374 106 376 68T384 0H333L315 70H312Q295 37 263 13T183 -12Q151 -12 127 -4T86 25T61 82T52
176V500H124ZM203 732H238L327 550H264L232 616L216 674L199 616L163 550H104L203 732Z" />
<glyph unicode="&#xfc;" glyph-name="udieresis" horiz-adv-x="434" d="M124 500V194Q124 118 139 86T196 53Q217 53 233 61T263 84T286 116T302 153V500H374V142Q374 106 376 68T384 0H333L315 70H312Q295 37 263 13T183 -12Q151 -12 127 -4T86 25T61 82T52 176V500H124ZM95
653Q95 676 106 689T138 702Q158 702 169 689T181 653Q181 632 170 619T138 606Q118 606 107 619T95 653ZM254 653Q254 676 265 689T297 702Q317 702 328 689T340 653Q340 632 329 619T297 606Q277 606 266 619T254 653Z" />
<glyph unicode="&#xfd;" glyph-name="yacute" horiz-adv-x="376" d="M183 177L204 80H209L224 177L300 500H373L254 51Q240 -3 226 -50T196 -131T159 -185T110 -205Q82 -205 61 -196L73 -128Q87 -133 101 -130T127 -113T150 -72T169 0L7 500H89L183 177ZM219 720H297V699L215
571H172L219 720Z" />
<glyph unicode="&#xfe;" glyph-name="thorn" horiz-adv-x="435" d="M59 700H131V460H134Q150 484 176 498T241 512Q320 512 359 453T398 260Q398 197 385 147T348 61T290 7T214 -12Q185 -12 167 -8T131 5V-200H59V700ZM224 447Q189 447 165 425T131 362V78Q145
66 162 60T209 53Q262 53 292 107T323 261Q323 303 318 337T301 395T270 433T224 447Z" />
<glyph unicode="&#xff;" glyph-name="ydieresis" horiz-adv-x="376" d="M183 177L204 80H209L224 177L300 500H373L254 51Q240 -3 226 -50T196 -131T159 -185T110 -205Q82 -205 61 -196L73 -128Q87 -133 101 -130T127 -113T150 -72T169 0L7 500H89L183 177ZM66
653Q66 676 77 689T109 702Q129 702 140 689T152 653Q152 632 141 619T109 606Q89 606 78 619T66 653ZM225 653Q225 676 236 689T268 702Q288 702 299 689T311 653Q311 632 300 619T268 606Q248 606 237 619T225 653Z" />
<glyph unicode="&#x2013;" glyph-name="endash" horiz-adv-x="530" d="M93 322H437V253H93V322Z" />
<glyph unicode="&#x2014;" glyph-name="emdash" horiz-adv-x="662" d="M95 322H567V253H95V322Z" />
<glyph unicode="&#x2018;" glyph-name="quoteleft" horiz-adv-x="162" d="M130 620Q130 597 118 584T85 570Q62 570 47 587T31 639Q31 672 39 696T60 737T84 764T106 779L129 746Q112 734 100 714T88 667Q107 670 118 657T130 620Z" />
<glyph unicode="&#x2019;" glyph-name="quoteright" horiz-adv-x="162" d="M31 659Q31 682 44 695T77 708Q101 708 116 692T131 641Q131 609 123 585T104 545T79 518T57 502L34 532Q51 543 63 563T75 611Q57 608 44 621T31 659Z" />
<glyph unicode="&#x201a;" glyph-name="quotesinglbase" horiz-adv-x="162" d="M31 50Q31 73 44 86T77 99Q101 99 116 83T131 32Q131 0 123 -24T104 -64T79 -91T57 -107L34 -77Q51 -66 63 -46T75 2Q57 -1 44 12T31 50Z" />
<glyph unicode="&#x201c;" glyph-name="quotedblleft" horiz-adv-x="288" d="M256 620Q256 597 244 584T211 570Q188 570 173 587T157 639Q157 672 165 696T186 737T210 764T232 779L255 746Q238 734 226 714T214 667Q233 670 244 657T256 620ZM130 620Q130 597
118 584T85 570Q62 570 47 587T31 639Q31 672 39 696T60 737T84 764T106 779L129 746Q112 734 100 714T88 667Q107 670 118 657T130 620Z" />
<glyph unicode="&#x201d;" glyph-name="quotedblright" horiz-adv-x="288" d="M157 659Q157 682 170 695T203 708Q227 708 242 692T257 641Q257 609 249 585T230 545T205 518T183 502L160 532Q177 543 189 563T201 611Q183 608 170 621T157 659ZM31 659Q31 682
44 695T77 708Q101 708 116 692T131 641Q131 609 123 585T104 545T79 518T57 502L34 532Q51 543 63 563T75 611Q57 608 44 621T31 659Z" />
<glyph unicode="&#x201e;" glyph-name="quotedblbase" horiz-adv-x="288" d="M157 50Q157 73 170 86T203 99Q227 99 242 83T257 32Q257 0 249 -24T230 -64T205 -91T183 -107L160 -77Q177 -66 189 -46T201 2Q183 -1 170 12T157 50ZM31 50Q31 73 44 86T77 99Q101
99 116 83T131 32Q131 0 123 -24T104 -64T79 -91T57 -107L34 -77Q51 -66 63 -46T75 2Q57 -1 44 12T31 50Z" />
<glyph unicode="&#x2022;" glyph-name="bullet" horiz-adv-x="363" d="M68 311Q68 374 99 412T182 450Q232 450 264 414T296 311Q296 245 264 209T182 172Q131 172 100 208T68 311Z" />
<glyph unicode="&#x2039;" glyph-name="guilsinglleft" horiz-adv-x="242" d="M30 259L159 489L209 456L127 301L89 260L127 224L214 72L164 38L30 259Z" />
<glyph unicode="&#x203a;" glyph-name="guilsinglright" horiz-adv-x="242" d="M212 268L84 38L34 71L115 226L154 267L115 303L28 454L79 489L212 268Z" />
</font>
</defs>
</svg>
