<?xml version="1.0" standalone="no"?>
<!DOCTYPE svg PUBLIC "-//W3C//DTD SVG 1.1//EN" "http://www.w3.org/Graphics/SVG/1.1/DTD/svg11.dtd">
<svg xmlns="http://www.w3.org/2000/svg">
<defs >
<font id="Mukta" horiz-adv-x="641" ><font-face
    font-family="Mukta ExtraLight"
    units-per-em="1000"
    panose-1="2 11 0 0 0 0 0 0 0 0"
    ascent="1130"
    descent="-532"
    alphabetic="0" />
<glyph unicode=" " glyph-name="space" horiz-adv-x="210" />
<glyph unicode="!" glyph-name="exclam" horiz-adv-x="207" d="M79 710H133L124 189H84L79 710ZM64 36Q64 56 75 68T104 80Q121 80 132 68T144 36Q144 15 133 4T104 -8Q87 -8 76 3T64 36Z" />
<glyph unicode="&quot;" glyph-name="quotedbl" horiz-adv-x="294" d="M190 645H243L232 428H200L190 645ZM51 645H104L94 428H62L51 645Z" />
<glyph unicode="#" glyph-name="numbersign" horiz-adv-x="620" d="M249 489L211 264H393L431 489H249ZM473 740H515L479 527H586V489H473L435 264H552V224H429L391 0H349L387 224H204L167 0H125L163 224H35V264H170L207 489H70V527H213L249 740H290L255 526H437L473
740Z" />
<glyph unicode="$" glyph-name="dollar" horiz-adv-x="520" d="M241 720H286V607Q321 604 354 596T417 572L401 532Q368 550 331 558T258 566Q195 566 159 537T123 467Q123 443 130 427T152 397T190 374T248 352L319 328Q385 305 416 267T448 175Q448 113 404
71T271 22V-94H226V22Q184 24 144 35T71 63L90 104Q125 84 165 75T246 65Q320 65 357 95T394 169Q394 188 390 205T374 237T338 266T276 292L208 314Q179 323 154 336T110 367T80 409T69 464Q69 524 114 563T241 607V720Z" />
<glyph unicode="%" glyph-name="percent" horiz-adv-x="810" d="M170 0L607 750H652L215 0H170ZM779 179Q779 141 769 107T740 48T690 7T619 -8Q580 -8 551 7T502 47T472 107T462 179Q462 217 472 250T503 309T553 350T622 365Q661 365 690 350T739 310T769 251T779
179ZM733 179Q733 210 727 237T708 285T673 316T622 329Q594 330 573 319T538 288T516 240T508 179Q508 113 535 71T619 28Q675 28 704 67T733 179ZM347 564Q347 526 337 492T308 433T258 392T187 377Q148 377 119 392T70 432T40 492T30 564Q30 602 40 635T71 694T121
735T190 750Q229 750 258 735T307 695T337 636T347 564ZM301 564Q301 595 295 622T276 670T241 701T190 714Q162 715 141 704T106 673T84 625T76 564Q76 498 103 456T187 413Q243 413 272 452T301 564Z" />
<glyph unicode="&amp;" glyph-name="ampersand" horiz-adv-x="622" d="M30 180Q30 219 41 248T73 301T127 343T202 378Q170 410 146 447T122 533Q122 566 135 591T170 634T220 661T280 670Q349 670 391 633T434 533Q434 435 324 382L297 414Q336 433 358 460T380
529Q380 571 354 599T277 628Q223 628 200 600T176 534Q176 509 183 489T201 450T228 416T260 382L477 159Q484 170 493 186T511 223T528 266T544 311L586 294Q571 247 550 203T508 128L632 0H570L482 90Q442 46 389 19T255 -8Q206 -8 165 6T93 46T47 106T30 180ZM84
182Q84 149 97 122T133 75T190 45T262 34Q298 34 328 43T382 65T423 93T451 122L234 346Q156 318 120 279T84 182Z" />
<glyph unicode="&apos;" glyph-name="quotesingle" horiz-adv-x="155" d="M51 645H104L93 428H61L51 645Z" />
<glyph unicode="(" glyph-name="parenleft" horiz-adv-x="286" d="M208 -153Q178 -112 150 -65T99 35T64 149T50 279Q50 349 64 411T100 528T151 628T210 710L245 685Q181 599 143 500T104 279Q104 219 113 166T141 63T185 -34T246 -131L208 -153Z" />
<glyph unicode=")" glyph-name="parenright" horiz-adv-x="286" d="M78 710Q108 669 136 622T187 522T222 408T236 278Q236 208 222 146T186 29T135 -71T76 -153L41 -128Q105 -42 143 57T182 278Q182 338 173 391T145 494T101 591T40 688L78 710Z" />
<glyph unicode="*" glyph-name="asterisk" horiz-adv-x="338" d="M62 406L101 458L156 518L76 535L15 554L27 592L87 574L164 540L154 622V684H194V622L184 540L261 575L321 593L333 555L272 536L192 518L246 458L284 406L252 383L215 435L174 504L133 435L94
383L62 406Z" />
<glyph unicode="+" glyph-name="plus" horiz-adv-x="562" d="M522 327V285H304V65H258V285H40V327H258V547H304V327H522Z" />
<glyph unicode="," glyph-name="comma" horiz-adv-x="162" d="M90 -8Q73 -5 62 7T50 40Q50 58 61 70T91 82Q107 82 123 69T139 16Q139 -7 131 -28T110 -67T79 -100T42 -125L22 -97Q52 -82 71 -58T95 -9L90 -8Z" />
<glyph unicode="-" glyph-name="hyphen" horiz-adv-x="280" d="M250 313V269H30V313H250Z" />
<glyph unicode="." glyph-name="period" horiz-adv-x="145" d="M40 36Q40 56 51 68T80 80Q97 80 108 68T120 36Q120 15 109 4T80 -8Q63 -8 52 3T40 36Z" />
<glyph unicode="/" glyph-name="slash" horiz-adv-x="375" d="M-1 -109L331 750H378L46 -109H-1Z" />
<glyph unicode="0" glyph-name="zero" horiz-adv-x="575" d="M289 638Q337 638 380 619T454 559T504 458T523 315Q523 232 505 172T454 71T380 12T289 -8Q241 -8 198 11T123 71T72 171T53 315Q53 394 71 454T122 555T198 617T289 638ZM105 315Q105 238 120 185T162
98T221 49T291 34Q327 34 359 50T416 101T456 189T471 315Q471 391 456 444T414 531T355 580T286 596Q250 596 218 580T160 529T120 441T105 315Z" />
<glyph unicode="1" glyph-name="one" horiz-adv-x="339" d="M210 630H249V0H198V572L67 515L55 559L210 630Z" />
<glyph unicode="2" glyph-name="two" horiz-adv-x="476" d="M221 596Q186 596 150 585T76 542L53 577Q98 615 140 626T221 638Q267 638 302 625T361 587T396 530T408 458Q408 422 396 386T358 310T295 227T206 130L116 42H433V0H54L45 33L130 116Q193 180 235
227T304 312T342 384T354 456Q354 521 321 558T221 596Z" />
<glyph unicode="3" glyph-name="three" horiz-adv-x="490" d="M54 591Q92 617 131 627T211 638Q252 638 286 626T344 591T381 539T395 474Q395 415 365 377T289 322Q345 308 381 267T417 169Q417 120 398 87T348 32T278 2T199 -8Q157 -8 115 0T42 24L54 64Q83
50 119 42T198 34Q230 34 260 42T313 66T351 108T365 169Q365 229 319 262T199 296H122V337H180Q214 337 244 346T296 372T332 414T345 471Q345 527 309 561T208 596Q171 596 140 588T70 556L54 591Z" />
<glyph unicode="4" glyph-name="four" horiz-adv-x="536" d="M333 630H392V213H501V171H392V0H340V171H20V200L333 630ZM84 213H340V442L345 583H343L255 448L84 213Z" />
<glyph unicode="5" glyph-name="five" horiz-adv-x="474" d="M394 632V589L141 587L118 370Q129 372 148 374T191 376Q233 376 272 364T341 329T389 271T407 191Q407 146 391 110T345 47T271 7T174 -8Q139 -8 102 -2T40 19L53 60Q75 47 107 41T172 34Q211 34 244
43T302 71T341 119T355 188Q355 255 307 295T173 336Q144 336 120 333T70 323L101 630L394 632Z" />
<glyph unicode="6" glyph-name="six" horiz-adv-x="504" d="M314 638Q349 638 373 634T426 619L414 578Q392 588 370 592T321 596Q273 596 232 578T161 524T114 438T93 320Q103 337 120 354T160 384T211 406T270 414Q310 414 346 401T410 362T453 298T469 211Q469
162 454 122T411 53T346 8T263 -8Q222 -8 183 7T113 56T64 148T45 289Q45 381 68 447T130 555T217 618T314 638ZM97 231Q97 185 110 149T145 87T199 48T265 34Q297 34 324 46T372 80T405 135T417 208Q417 249 405 280T372 331T323 362T260 372Q203 372 162 342T105
271Q102 261 100 254T97 231Z" />
<glyph unicode="7" glyph-name="seven" horiz-adv-x="495" d="M449 630V600L157 -9L110 12L391 588H57V630H449Z" />
<glyph unicode="8" glyph-name="eight" horiz-adv-x="505" d="M255 638Q301 638 336 625T396 590T433 540T446 481Q446 437 418 398T319 333Q387 310 424 269T462 168Q462 126 446 93T402 38T335 4T254 -8Q209 -8 171 4T104 38T59 91T43 163Q43 225 77 265T183
330Q64 374 64 479Q64 512 76 541T112 591T172 625T255 638ZM117 480Q117 426 154 394T248 349Q278 355 304 366T349 394T380 432T392 480Q392 508 381 529T351 566T307 588T255 596Q187 596 152 562T117 480ZM249 308Q179 296 136 260T92 166Q92 139 102 115T132
73T183 45T254 34Q292 34 321 44T371 73T403 115T414 166Q414 221 370 258T249 308Z" />
<glyph unicode="9" glyph-name="nine" horiz-adv-x="507" d="M200 -8Q162 -8 135 -4T84 11L96 52Q115 43 143 39T198 34Q296 34 352 100T413 302Q393 267 349 241T238 215Q197 215 161 229T98 269T54 333T38 421Q38 473 54 513T99 581T166 623T247 638Q287 638
326 622T395 570T443 478T462 341Q462 245 443 179T388 71T305 11T200 -8ZM410 385Q410 422 399 459T367 527T315 577T245 596Q213 596 185 584T136 550T103 496T90 423Q90 382 102 351T135 299T184 268T247 257Q307 257 348 284T405 353Q410 365 410 371T410 385Z"
/>
<glyph unicode=":" glyph-name="colon" horiz-adv-x="183" d="M52 36Q52 56 63 68T92 80Q109 80 120 68T132 36Q132 15 121 4T92 -8Q75 -8 64 3T52 36ZM52 353Q52 373 63 385T92 397Q109 397 120 385T132 353Q132 332 121 321T92 309Q75 309 64 320T52 353Z" />
<glyph unicode=";" glyph-name="semicolon" horiz-adv-x="188" d="M96 -8Q79 -5 68 7T56 40Q56 58 67 70T97 82Q113 82 129 69T145 16Q145 -7 137 -28T116 -67T85 -100T48 -125L28 -97Q58 -82 77 -58T101 -9L96 -8ZM54 353Q54 373 65 385T94 397Q111 397 122 385T134
353Q134 332 123 321T94 309Q77 309 66 320T54 353Z" />
<glyph unicode="&lt;" glyph-name="less" horiz-adv-x="496" d="M66 235V273L430 483V431L121 254L430 77V25L66 235Z" />
<glyph unicode="=" glyph-name="equal" horiz-adv-x="463" d="M423 243V201H40V243H423ZM423 412V370H40V412H423Z" />
<glyph unicode="&gt;" glyph-name="greater" horiz-adv-x="496" d="M66 77L375 254L66 431V483L430 273V235L66 25V77Z" />
<glyph unicode="?" glyph-name="question" horiz-adv-x="427" d="M200 715Q286 715 334 671T382 554Q382 500 350 454T264 360Q239 338 224 321T199 287T187 255T183 221Q183 204 185 188T193 160L149 152Q144 162 140 183T136 221Q136 260 157 300T235 393Q282
435 307 471T332 553Q332 576 325 598T301 636T258 663T194 673Q166 673 137 666T78 639L58 674Q87 695 126 705T200 715ZM142 36Q142 56 154 67T183 79Q200 79 211 68T223 36Q223 15 212 4T183 -8Q166 -8 154 3T142 36Z" />
<glyph unicode="@" glyph-name="at" horiz-adv-x="963" d="M577 62H575Q552 35 512 14T411 -8Q379 -8 353 1T308 28T279 69T268 120Q268 163 286 193T336 242T407 269T493 277H601L608 317Q611 336 611 353Q611 399 585 416T513 434Q487 434 444 424T354 389L339
428Q390 452 433 464T523 476Q552 476 577 469T620 447T648 407T659 349Q659 339 658 328T655 306L629 146Q627 132 626 120T624 96Q624 70 633 56T668 42Q716 42 752 67T813 134T850 227T863 332Q863 397 841 455T777 557T675 626T538 652Q459 652 382 624T242
538T142 390T103 177Q103 79 134 12T216 -98T329 -160T455 -179Q519 -179 573 -168T666 -137L676 -173Q634 -191 576 -205T448 -219Q377 -219 306 -198T178 -130T86 -9T50 172Q50 293 89 389T195 553T350 656T534 692Q626 692 697 665T816 589T890 476T915 333Q915
246 892 183T832 80T750 20T662 0Q637 0 619 4T593 13L577 62ZM595 237L504 235Q412 233 367 206T321 122Q321 80 349 57T422 34Q452 34 476 41T519 60T551 85T572 112L595 237Z" />
<glyph unicode="A" glyph-name="A" horiz-adv-x="583" d="M267 630H319L557 0H501L432 186H150L81 0H26L267 630ZM166 228H415L336 444Q334 450 329 465T318 499T306 539T294 578H292Q287 560 281 540T268 502T256 468T247 444L166 228Z" />
<glyph unicode="B" glyph-name="B" horiz-adv-x="497" d="M230 630Q324 630 376 590T428 472Q428 414 396 381T314 335Q342 330 366 318T408 285T436 238T447 176Q447 137 431 105T385 49T313 13T218 0H80V630H230ZM132 354H210Q242 354 272 359T324 378T360 414T374
469Q374 533 331 560T216 588H132V354ZM132 42H208Q245 42 278 49T337 74T376 119T391 185Q391 222 377 246T337 285T280 306T211 312H132V42Z" />
<glyph unicode="C" glyph-name="C" horiz-adv-x="529" d="M341 34Q389 34 422 43T481 66L493 24Q463 9 426 1T334 -8Q272 -8 218 13T123 74T59 175T35 314Q35 391 57 451T119 553T213 616T332 638Q390 638 427 629T496 602L484 563Q451 580 418 588T343 596Q293
596 248 580T167 530T110 442T89 313Q89 235 111 182T170 96T251 49T341 34Z" />
<glyph unicode="D" glyph-name="D" horiz-adv-x="602" d="M265 630Q327 630 380 611T473 555T534 461T556 329Q556 238 530 175T459 73T355 17T230 0H80V630H265ZM132 42H221Q273 42 323 54T413 99T477 187T502 329Q502 390 484 438T431 519T351 570T247 588H132V42Z" />
<glyph unicode="E" glyph-name="E" horiz-adv-x="487" d="M80 630H440V588H132V345H414V303H132V42H443V0H80V630Z" />
<glyph unicode="F" glyph-name="F" horiz-adv-x="465" d="M430 630V588H132V336H408V295H132V0H80V630H430Z" />
<glyph unicode="G" glyph-name="G" horiz-adv-x="580" d="M348 638Q400 638 440 630T517 602L504 560Q469 577 433 586T359 596Q308 596 261 581T177 533T119 446T97 314Q97 247 117 195T173 107T256 53T359 34Q398 34 427 39T470 52V276H335V317H522V23Q489 9
450 1T354 -8Q291 -8 235 13T137 74T70 175T45 314Q45 393 68 454T131 555T227 617T348 638Z" />
<glyph unicode="H" glyph-name="H" horiz-adv-x="603" d="M80 0V630H132V347H471V630H523V0H471V305H132V0H80Z" />
<glyph unicode="I" glyph-name="I" horiz-adv-x="212" d="M132 630V0H80V630H132Z" />
<glyph unicode="J" glyph-name="J" horiz-adv-x="249" d="M177 630V104Q177 42 170 5T144 -61Q130 -82 112 -96T72 -118T29 -131T-15 -135V-98Q44 -97 81 -66Q107 -43 116 -9T125 69V630H177Z" />
<glyph unicode="K" glyph-name="K" horiz-adv-x="512" d="M80 0V630H132V305L431 630H497L240 354L522 0H455L205 318L132 239V0H80Z" />
<glyph unicode="L" glyph-name="L" horiz-adv-x="436" d="M80 630H132V42H421V0H80V630Z" />
<glyph unicode="M" glyph-name="M" horiz-adv-x="781" d="M129 630H197L357 167Q363 149 372 119T390 62H392Q399 88 408 118T424 166L582 630H652L717 0H665L629 361Q624 417 619 471T611 582H609Q595 535 577 476T539 361L413 0H366L239 361Q201 469 170 582H168Q164
535 160 476T150 361L114 0H64L129 630Z" />
<glyph unicode="N" glyph-name="N" horiz-adv-x="623" d="M80 630H130L405 216Q428 182 450 149T493 82H495Q493 120 493 159T493 236V630H543V0H493L227 396Q200 436 176 478T129 562H127Q130 469 130 376V0H80V630Z" />
<glyph unicode="O" glyph-name="O" horiz-adv-x="646" d="M325 638Q382 638 432 618T519 558T578 457T600 315Q600 236 578 176T518 75T429 13T321 -8Q264 -8 214 12T127 72T68 173T46 315Q46 394 68 454T128 555T217 617T325 638ZM100 315Q100 243 118 191T168
103T239 51T325 34Q369 34 409 51T479 103T528 190T546 315Q546 388 528 441T478 529T407 579T321 596Q277 596 237 579T167 527T118 440T100 315Z" />
<glyph unicode="P" glyph-name="P" horiz-adv-x="502" d="M80 630H253Q297 630 334 619T399 586T441 530T457 450Q457 405 441 371T396 314T329 279T245 267H132V0H80V630ZM132 309H220Q261 309 294 316T351 339T388 383T401 449Q401 490 387 517T349 559T297
581T236 588H132V309Z" />
<glyph unicode="Q" glyph-name="Q" d="M320 638Q381 638 432 618T520 558T577 457T597 315Q597 268 589 224T561 141T509 69T429 8L277 -78Q307 -78 335 -85T391 -102T450 -118T515 -126Q537 -126 561 -119T602 -100L621 -135Q598 -151 570 -158T512 -166Q476
-166 445 -159T385 -142T327 -126T266 -118Q203 -118 151 -150L130 -114L317 -7Q254 -6 204 18T120 84T67 185T49 315Q49 394 70 454T127 555T213 617T320 638ZM103 315Q103 243 121 191T169 103T239 51T323 34Q370 34 410 52T480 107T526 195T543 315Q543 388
526 441T479 529T408 579T319 596Q275 596 236 579T168 527T121 440T103 315Z" />
<glyph unicode="R" glyph-name="R" horiz-adv-x="520" d="M80 630H264Q313 630 350 617T413 581T451 526T464 455Q464 419 453 390T422 338T378 300T326 277L502 0H442L278 267H127V0H80V630ZM127 309H243Q279 309 310 318T363 345T397 390T410 453Q410 525 368
556T244 588H127V309Z" />
<glyph unicode="S" glyph-name="S" horiz-adv-x="483" d="M246 638Q289 638 329 630T409 602L395 561Q353 581 319 588T248 596Q182 596 142 566T101 481Q101 431 132 403T225 353L296 329Q365 306 400 263T436 163Q436 84 381 38T232 -8Q184 -8 138 1T46 32L61
75Q102 54 142 45T228 35Q295 35 338 65T382 157Q382 178 376 197T356 233T316 265T253 293L185 315Q156 324 131 338T87 372T58 417T47 473Q47 549 99 593T246 638Z" />
<glyph unicode="T" glyph-name="T" horiz-adv-x="501" d="M492 630V588H275V0H223V588H10V630H492Z" />
<glyph unicode="U" glyph-name="U" horiz-adv-x="612" d="M78 630H130V253Q130 136 175 85T312 34Q358 34 390 49T442 91T472 157T482 241V630H534V244Q534 114 477 53T312 -8Q204 -8 141 53T78 249V630Z" />
<glyph unicode="V" glyph-name="V" horiz-adv-x="537" d="M60 630L202 249Q219 202 236 156T268 62H270Q285 109 302 155T336 249L479 630H535L293 0H242L3 630H60Z" />
<glyph unicode="W" glyph-name="W" horiz-adv-x="802" d="M62 630L166 259Q180 210 192 161T215 62H217Q228 112 241 161T269 259L377 630H426L536 259Q550 209 564 161T590 62H592Q603 112 614 160T640 259L741 630H794L617 0H564L442 422Q431 458 421 494T402
568H400Q391 531 382 495T361 422L242 0H190L8 630H62Z" />
<glyph unicode="X" glyph-name="X" horiz-adv-x="507" d="M78 630L251 354L431 630H492L284 320L502 0H438L251 286L67 0H6L217 320L15 630H78Z" />
<glyph unicode="Y" glyph-name="Y" horiz-adv-x="498" d="M76 630L255 317L435 630H498L280 264V0H228V264L15 630H76Z" />
<glyph unicode="Z" glyph-name="Z" horiz-adv-x="506" d="M471 630V598L90 42H476V0H26V34L405 588H41V630H471Z" />
<glyph unicode="[" glyph-name="bracketleft" horiz-adv-x="281" d="M81 -145V710H251V674H127V-108H251V-145H81Z" />
<glyph unicode="\" glyph-name="backslash" horiz-adv-x="295" d="M253 -88L-3 720H39L295 -88H253Z" />
<glyph unicode="]" glyph-name="bracketright" horiz-adv-x="281" d="M30 -145V-109H154V673H30V710H200V-145H30Z" />
<glyph unicode="^" glyph-name="asciicircum" horiz-adv-x="476" d="M416 416H370L238 679L108 416H61L218 720H257L416 416Z" />
<glyph unicode="_" glyph-name="underscore" horiz-adv-x="366" d="M356 -210V-250H10V-210H356Z" />
<glyph unicode="`" glyph-name="grave" horiz-adv-x="185" d="M22 720H80L165 555H123L22 720Z" />
<glyph unicode="a" glyph-name="a" horiz-adv-x="459" d="M65 429Q112 454 151 465T236 476Q268 476 296 467T346 438T380 386T393 306V0H357L346 62H344Q315 27 276 10T189 -8Q156 -8 128 1T80 29T48 72T36 129Q36 166 51 194T93 240T157 268T241 277H341V308Q341
376 311 405T233 434Q204 434 166 425T85 392L65 429ZM341 236L258 235Q213 234 181 226T129 204T99 172T90 132Q90 106 99 88T123 57T158 40T202 34Q220 34 239 38T276 52T312 76T341 112V236Z" />
<glyph unicode="b" glyph-name="b" horiz-adv-x="520" d="M478 235Q478 179 462 134T417 58T351 9T271 -8Q225 -8 192 4T129 44H127L121 0H80V710H132V411Q153 434 190 455T276 476Q318 476 355 461T419 416T462 341T478 235ZM424 234Q424 333 382 383T271 434Q250
434 230 428T191 411T158 387T132 359V87Q152 64 186 49T259 34Q292 34 321 47T374 85T410 148T424 234Z" />
<glyph unicode="c" glyph-name="c" horiz-adv-x="427" d="M277 30Q309 30 335 37T384 55L395 19Q368 5 339 -1T271 -8Q224 -8 183 7T110 52T60 127T41 234Q41 290 58 335T106 411T178 459T270 476Q301 476 330 472T393 451L381 410Q354 424 330 429T279 434Q238
434 204 420T146 381T109 319T95 237Q95 177 111 138T152 74T210 40T277 30Z" />
<glyph unicode="d" glyph-name="d" horiz-adv-x="503" d="M383 710H435V0H393L386 44H384Q363 21 331 7T248 -8Q210 -8 174 6T108 51T60 126T42 234Q42 289 56 334T99 410T166 459T256 476Q332 476 383 431V710ZM383 378Q363 404 330 419T265 434Q232 434 202
424T148 390T110 329T96 237Q96 181 110 143T147 80T201 45T263 34Q306 34 336 50T383 90V378Z" />
<glyph unicode="e" glyph-name="e" horiz-adv-x="473" d="M431 235H96V221Q96 133 143 84T273 34Q338 34 395 56L407 16Q381 5 345 -1T270 -8Q223 -8 182 6T109 49T60 124T42 234Q42 289 57 334T100 410T166 459T251 476Q291 476 324 462T381 420T418 355T431
271V235ZM377 277Q377 306 370 334T348 385T308 420T248 434Q187 434 147 393T98 277H377Z" />
<glyph unicode="f" glyph-name="f" horiz-adv-x="314" d="M241 715Q269 715 300 708T354 687L343 649Q321 660 297 666T254 673Q204 673 179 646T153 550V470H314V430H153V0H101V430H15V470H101V560Q101 638 138 676T241 715Z" />
<glyph unicode="g" glyph-name="g" horiz-adv-x="516" d="M52 314Q52 353 65 383T104 434T163 465T239 476Q257 476 270 474T297 470H492V430H434L347 436Q378 419 397 386T416 315Q416 276 403 246T365 194T307 163T235 152Q221 152 208 153T179 157Q155 148
140 130T125 91Q125 65 144 54T194 42H316Q394 42 434 9T474 -76Q474 -111 458 -139T412 -188T339 -219T242 -230Q144 -230 86 -192T28 -86Q28 -49 49 -24T111 16Q96 24 85 42T73 85Q73 118 92 139T136 173Q120 180 105 193T78 224T59 264T52 314ZM149 0Q120 -10
102 -31T83 -80Q83 -134 127 -161T243 -188Q290 -188 323 -179T378 -154T410 -119T420 -79Q420 -55 411 -40T384 -16T343 -4T291 0H149ZM362 312Q362 371 328 402T239 434Q211 434 187 427T145 405T117 368T106 316Q106 254 143 224T235 194Q290 194 326 223T362
312Z" />
<glyph unicode="h" glyph-name="h" horiz-adv-x="522" d="M132 0H80V710H132V407Q165 437 205 456T293 476Q332 476 361 465T408 433T436 385T446 324V0H394V308Q394 377 363 405T281 434Q245 434 206 415T132 362V0Z" />
<glyph unicode="i" glyph-name="i" horiz-adv-x="212" d="M80 0V470H132V0H80ZM107 591Q91 591 80 601T68 631Q68 651 79 662T106 673Q121 673 132 663T144 631Q144 611 133 601T107 591Z" />
<glyph unicode="j" glyph-name="j" horiz-adv-x="213" d="M83 470H135V73Q135 16 128 -31T103 -115T56 -181T-19 -230L-42 -193Q-8 -175 16 -156T55 -107T76 -37T83 65V470ZM108 591Q92 591 81 601T69 631Q69 651 80 662T107 673Q122 673 133 663T145 631Q145
611 134 601T108 591Z" />
<glyph unicode="k" glyph-name="k" horiz-adv-x="447" d="M132 172V0H80V710H132V232L368 470H433L235 272L442 0H380L201 241L132 172Z" />
<glyph unicode="l" glyph-name="l" horiz-adv-x="212" d="M80 0V710H132V0H80Z" />
<glyph unicode="m" glyph-name="m" horiz-adv-x="804" d="M128 0H76V470H113L121 405Q154 438 192 457T283 477Q333 477 365 457T413 400Q448 437 490 457T583 477Q655 477 691 437T728 324V0H676V308Q676 368 651 401T559 434Q525 434 489 415T427 364Q428 355
428 344T428 324V0H376V308Q376 368 352 401T263 434Q226 434 191 415T128 361V0Z" />
<glyph unicode="n" glyph-name="n" horiz-adv-x="514" d="M128 0H76V470H114L122 405Q156 437 195 456T285 476Q357 476 397 436T438 324V0H386V311Q386 337 381 359T362 398T326 424T270 434Q232 434 195 415T128 362V0Z" />
<glyph unicode="o" glyph-name="o" horiz-adv-x="503" d="M461 240Q461 181 445 135T401 57T334 9T251 -8Q207 -8 169 7T102 53T58 127T42 230Q42 289 58 335T104 412T172 460T255 476Q299 476 337 461T402 416T445 342T461 240ZM407 235Q407 287 394 324T360
386T310 422T252 434Q222 434 194 423T144 387T109 325T96 235Q96 180 109 142T145 80T195 45T254 34Q284 34 311 44T360 79T394 141T407 235Z" />
<glyph unicode="p" glyph-name="p" horiz-adv-x="516" d="M244 -8Q211 -8 182 0T132 24V-230H80V476H123L131 416Q154 439 189 457T274 476Q317 476 353 461T417 417T459 345T474 247Q474 181 455 133T403 54T329 7T244 -8ZM263 434Q240 434 220 428T182 411T152
389T132 366V67Q154 50 181 42T237 34Q272 34 305 45T363 81T404 147T420 247Q420 336 382 385T263 434Z" />
<glyph unicode="q" glyph-name="q" horiz-adv-x="515" d="M383 35Q358 12 326 2T254 -8Q204 -8 165 9T98 58T57 134T42 235Q42 287 56 331T97 407T163 458T253 476Q295 476 330 462T388 421L395 470H435V-230H383V35ZM383 377Q365 399 336 416T261 434Q227 434
197 423T145 387T109 326T96 238Q96 134 142 84T266 34Q306 34 336 49T383 86V377Z" />
<glyph unicode="r" glyph-name="r" horiz-adv-x="354" d="M74 0V470H108L120 376Q137 421 178 448T270 476Q294 476 312 472T340 463L330 417Q318 422 303 426T268 430Q239 430 214 420T169 389T138 337T126 262V0H74Z" />
<glyph unicode="s" glyph-name="s" horiz-adv-x="395" d="M317 411Q267 434 208 434Q154 434 127 412T100 354Q100 319 123 301T204 265L234 256Q291 239 321 206T351 125Q351 97 340 73T308 30T256 2T183 -8Q138 -8 104 -1T44 19L58 60Q84 47 112 41T178 34Q235
34 266 56T297 119Q297 151 275 174T195 216L163 226Q46 263 46 349Q46 377 57 400T89 440T138 466T202 476Q234 476 268 471T330 452L317 411Z" />
<glyph unicode="t" glyph-name="t" horiz-adv-x="358" d="M315 430H157V122Q157 75 178 59T236 42Q265 42 290 47T332 59L340 20Q320 12 291 6T227 0Q167 0 136 28T105 115V430H20V470H105V620H157V470H315V430Z" />
<glyph unicode="u" glyph-name="u" horiz-adv-x="519" d="M391 470H443V0H406L398 59H396Q372 33 332 13T238 -8Q165 -8 121 31T76 155V470H128V166Q128 127 137 102T162 61T200 40T249 34Q294 34 332 55T391 105V470Z" />
<glyph unicode="v" glyph-name="v" horiz-adv-x="407" d="M338 470H393L228 0H182L15 470H70L181 137L205 44H207L229 136L338 470Z" />
<glyph unicode="w" glyph-name="w" horiz-adv-x="657" d="M11 470H63L145 174L174 44H176L209 174L300 470H355L443 174L477 44H479L512 174L593 470H643L510 0H450L360 308L327 434L293 308L201 0H146L11 470Z" />
<glyph unicode="x" glyph-name="x" horiz-adv-x="408" d="M234 238L399 0H339L258 118L202 205L148 121L68 0H11L174 238L18 470H77L167 333L206 268L247 339L332 470H388L234 238Z" />
<glyph unicode="y" glyph-name="y" horiz-adv-x="427" d="M12 470H66L188 158L224 52H226L257 158L367 470H417L236 -40Q209 -116 167 -162T66 -231L45 -193Q96 -172 132 -135T192 -27L201 0L12 470Z" />
<glyph unicode="z" glyph-name="z" horiz-adv-x="411" d="M382 441L88 43H387V0H25V34L314 427H42V470H382V441Z" />
<glyph unicode="{" glyph-name="braceleft" horiz-adv-x="326" d="M301 659Q244 659 212 629T179 536V393Q179 347 163 319T106 278V276Q144 259 161 224T179 135V-7Q179 -106 301 -111V-145Q227 -145 182 -108T136 2V155Q136 202 111 229T28 259V295Q84 301 110
324T136 395V555Q136 585 147 610T179 654T231 684T301 695V659Z" />
<glyph unicode="|" glyph-name="bar" horiz-adv-x="192" d="M72 -230V750H120V-230H72Z" />
<glyph unicode="}" glyph-name="braceright" horiz-adv-x="326" d="M25 695Q99 695 144 658T190 548V395Q190 348 215 321T298 291V255Q242 249 216 226T190 155V-5Q190 -35 179 -60T147 -104T95 -134T25 -145V-109Q82 -109 114 -79T147 14V157Q147 203 163 231T220
272V274Q182 291 165 326T147 415V557Q147 656 25 661V695Z" />
<glyph unicode="~" glyph-name="asciitilde" horiz-adv-x="586" d="M48 210Q48 275 85 310T183 345Q217 345 246 332T303 303T358 274T415 261Q458 261 478 287T499 361H538Q538 322 528 295T502 251T464 227T420 219Q385 219 355 232T296 262T240 291T182 305Q135
305 111 279T87 210H48Z" />
<glyph unicode="&#xa0;" glyph-name="uni00A0" horiz-adv-x="210" />
<glyph unicode="&#xa1;" glyph-name="exclamdown" horiz-adv-x="207" d="M64 409Q64 430 75 441T104 453Q121 453 132 442T144 409Q144 389 133 377T104 365Q87 365 76 377T64 409ZM75 -265L84 256H124L129 -265H75Z" />
<glyph unicode="&#xa2;" glyph-name="cent" horiz-adv-x="500" d="M306 107Q338 107 366 114T417 132L428 95Q405 84 378 78T322 69V-20H274V70Q229 73 191 90T124 136T80 208T64 306Q64 357 79 399T121 471T188 520T274 542V639H322V542Q349 540 374 535T426
518L415 480Q392 491 361 497T300 504Q213 504 166 455T118 309Q118 249 135 210T179 148T239 116T306 107Z" />
<glyph unicode="&#xa3;" glyph-name="sterling" horiz-adv-x="505" d="M75 0L65 30Q121 68 144 133T154 295H61V338H144Q140 359 137 385T133 438Q133 487 148 524T190 587T253 625T334 638Q371 638 403 631T452 614L440 575Q421 584 394 590T335 597Q258 597
222 556T185 437Q185 414 188 388T197 338H391V295H205Q214 201 199 142T146 46L147 44H460V0H75Z" />
<glyph unicode="&#xa4;" glyph-name="currency" horiz-adv-x="513" d="M61 84L35 110L120 195Q88 241 88 307Q88 374 119 419L36 502L62 528L143 447Q190 489 258 489Q290 489 318 478T369 445L452 528L478 502L393 417Q408 395 416 367T425 307Q425 271 417 243T394
193L477 110L451 84L370 165Q347 144 318 134T256 124Q222 124 194 135T144 167L61 84ZM378 307Q378 376 344 414T257 453Q205 453 170 417T135 307Q135 238 168 199T256 160Q307 160 342 197T378 307Z" />
<glyph unicode="&#xa5;" glyph-name="yen" horiz-adv-x="508" d="M472 220V178H280V0H228V178H32V220H228V264L202 308H32V350H178L15 630H76L255 317L435 630H498L331 350H472V308H306L280 264V220H472Z" />
<glyph unicode="&#xa6;" glyph-name="brokenbar" horiz-adv-x="205" d="M80 380V750H125V380H80ZM80 -180V188H125V-180H80Z" />
<glyph unicode="&#xa7;" glyph-name="section" horiz-adv-x="489" d="M75 2Q106 -13 138 -21T210 -29Q276 -29 309 -2T342 67Q342 103 317 123T231 166L170 189Q106 213 81 243T55 320Q55 355 75 384T125 428Q112 440 104 460T95 504Q95 564 137 601T261 638Q297
638 332 632T399 610L386 569Q350 584 321 590T262 596Q208 596 178 573T147 508Q147 473 169 453T238 415L299 392Q365 367 399 335T434 256Q434 217 416 188T371 139Q382 126 388 108T394 70Q394 40 382 14T348 -31T293 -61T220 -72Q169 -72 132 -64T62 -40L75
2ZM383 251Q383 290 357 310T295 344L234 367Q213 375 194 383T157 403Q136 392 121 372T106 321Q106 282 131 262T194 227L255 205Q284 194 302 186T336 167Q354 178 368 202T383 251Z" />
<glyph unicode="&#xa8;" glyph-name="dieresis" horiz-adv-x="318" d="M34 623Q34 643 45 655T74 667Q91 667 102 655T114 623Q114 602 103 591T74 579Q57 579 46 590T34 623ZM204 623Q204 643 215 655T244 667Q261 667 272 655T284 623Q284 602 273 591T244 579Q227
579 216 590T204 623Z" />
<glyph unicode="&#xa9;" glyph-name="copyright" horiz-adv-x="706" d="M379 174Q422 174 456 191L467 156Q426 137 373 137Q337 137 305 148T249 180T211 235T197 312Q197 352 210 384T246 440T301 475T373 487Q395 487 416 484T465 469L454 434Q436 444 416
447T378 451Q315 451 279 415T242 314Q242 275 254 248T285 205T328 181T379 174ZM355 638Q419 638 476 618T576 558T644 457T670 315Q670 236 644 176T574 75T473 13T351 -8Q287 -8 230 12T130 72T62 173T36 315Q36 394 62 454T132 555T233 617T355 638ZM355 608Q299
608 248 589T157 533T95 442T72 315Q72 241 94 187T155 95T244 40T351 22Q407 22 458 41T549 97T611 188T634 315Q634 388 612 443T551 535T462 590T355 608Z" />
<glyph unicode="&#xaa;" glyph-name="ordfeminine" horiz-adv-x="311" d="M57 556Q89 573 114 580T168 588Q189 588 207 583T240 566T263 535T271 486V274H243L236 311H235Q195 268 136 268Q91 268 62 292T33 358Q33 407 71 431T173 456H233V489Q233 524 215 540T168
556Q151 556 126 551T71 529L57 556ZM233 427L180 426Q120 424 97 406T73 360Q73 343 79 332T96 313T118 304T144 301Q168 301 191 310T233 343V427Z" />
<glyph unicode="&#xab;" glyph-name="guillemotleft" horiz-adv-x="432" d="M353 76L205 236L353 397H409L273 236L409 76H353ZM178 76L30 236L178 397H234L98 236L234 76H178Z" />
<glyph unicode="&#xac;" glyph-name="logicalnot" horiz-adv-x="1444" />
<glyph unicode="&#xad;" glyph-name="uni00AD" horiz-adv-x="280" d="M250 313V269H30V313H250Z" />
<glyph unicode="&#xae;" glyph-name="registered" horiz-adv-x="532" d="M185 590H273Q313 590 335 571T357 519Q357 493 342 476T306 451L376 338H337L275 444H215V338H185V590ZM215 467H262Q292 467 308 480T325 519Q325 546 307 556T263 566H215V467ZM492 468Q492
411 476 369T429 297T358 254T267 239Q217 239 176 253T104 295T57 364T40 460Q40 516 56 558T103 629T174 672T265 686Q314 686 356 672T428 631T475 563T492 468ZM462 464Q462 515 446 552T403 614T340 650T265 662Q226 662 191 651T129 615T86 554T70 464Q70
412 84 374T125 311T188 274T267 262Q306 262 341 274T403 310T446 373T462 464Z" />
<glyph unicode="&#xaf;" glyph-name="overscore" horiz-adv-x="286" d="M256 660V623H31V660H256Z" />
<glyph unicode="&#xb0;" glyph-name="degree" horiz-adv-x="381" d="M349 467Q349 387 307 341T191 294Q157 294 129 306T80 340T48 395T36 467Q36 506 47 537T80 591T130 626T194 638Q227 638 255 626T305 592T337 538T349 467ZM302 467Q302 530 276 566T194
602Q140 602 112 568T83 467Q83 403 110 367T191 330Q214 330 234 337T270 361T293 404T302 467Z" />
<glyph unicode="&#xb1;" glyph-name="plusminus" horiz-adv-x="469" d="M404 41V0H65V41H404ZM434 361V320H255V141H214V320H35V361H214V540H255V361H434Z" />
<glyph unicode="&#xb2;" glyph-name="twosuperior" horiz-adv-x="312" d="M136 818Q112 818 86 811T33 786L11 820Q41 840 72 849T138 858Q172 858 199 849T244 823T272 784T282 737Q282 707 272 679T243 626T203 579T156 538L87 483H282V445H23L17 470L98 541Q129
568 154 591T196 637T222 683T232 735Q232 770 206 794T136 818Z" />
<glyph unicode="&#xb3;" glyph-name="threesuperior" horiz-adv-x="302" d="M21 835Q51 849 78 853T131 858Q158 858 182 850T224 828T252 793T263 748Q263 677 184 654V652Q226 644 251 619T277 556Q277 526 264 504T229 468T179 447T121 440Q95 440 63 445T10
458L21 494Q50 486 72 483T120 480Q140 480 159 484T193 498T217 523T226 559Q226 586 200 607T115 629H56V669H100Q157 669 184 690T212 745Q212 783 186 800T124 818Q81 818 36 797L21 835Z" />
<glyph unicode="&#xb4;" glyph-name="acute" horiz-adv-x="223" d="M72 555H30L127 720H190L72 555Z" />
<glyph unicode="&#xb5;" glyph-name="uni00B5" horiz-adv-x="504" d="M383 470H435V0H398L390 59H388Q364 33 324 13T229 -8Q156 -8 116 26L120 -43V-160H68V470H120V161Q120 124 129 100T154 61T192 40T241 34Q286 34 324 55T383 105V470Z" />
<glyph unicode="&#xb6;" glyph-name="paragraph" horiz-adv-x="526" d="M408 -180V596H307V-180H258V273Q159 273 107 323T55 459Q55 504 69 537T110 593T174 627T256 638H456V-180H408Z" />
<glyph unicode="&#xb7;" glyph-name="middot" horiz-adv-x="140" d="M30 330Q30 350 41 362T70 374Q87 374 98 362T110 330Q110 309 99 298T70 286Q53 286 42 297T30 330Z" />
<glyph unicode="&#xb8;" glyph-name="cedilla" horiz-adv-x="286" d="M128 0H169L144 -48Q191 -50 216 -69T242 -118Q242 -139 233 -154T209 -179T173 -195T131 -200Q108 -200 89 -197T57 -188L67 -154Q95 -164 124 -164Q156 -164 174 -154T192 -120Q192 -100
170 -89T91 -78L128 0Z" />
<glyph unicode="&#xb9;" glyph-name="onesuperior" horiz-adv-x="242" d="M146 851H174V445H128V797L33 754L22 794L146 851Z" />
<glyph unicode="&#xba;" glyph-name="ordmasculine" horiz-adv-x="838" />
<glyph unicode="&#xbb;" glyph-name="guillemotright" horiz-adv-x="432" d="M198 76L334 237L198 397H254L402 237L254 76H198ZM23 76L159 237L23 397H79L227 237L79 76H23Z" />
<glyph unicode="&#xbc;" glyph-name="onequarter" horiz-adv-x="808" d="M153 -9L561 639H606L198 -9H153ZM164 630H192V224H146V576L51 533L40 573L164 630ZM634 406H680V150H768V112H680V0H634V112H428V141L634 406ZM592 284L488 150H634V274L638 350H636L592 284Z" />
<glyph unicode="&#xbd;" glyph-name="onehalf" horiz-adv-x="826" d="M143 -9L551 639H596L188 -9H143ZM640 373Q616 373 590 366T537 341L515 375Q545 395 576 404T642 413Q676 413 703 404T748 378T776 339T786 292Q786 262 776 234T747 181T707 134T660 93L591
38H786V0H527L521 25L602 96Q633 123 658 146T700 192T726 238T736 290Q736 325 710 349T640 373ZM164 630H192V224H146V576L51 533L40 573L164 630Z" />
<glyph unicode="&#xbe;" glyph-name="threequarters" horiz-adv-x="868" d="M225 -9L633 639H678L270 -9H225ZM694 406H740V150H828V112H740V0H694V112H488V141L694 406ZM652 284L548 150H694V274L698 350H696L652 284ZM51 613Q81 627 108 631T161 636Q188 636
212 628T254 606T282 571T293 526Q293 455 214 432V430Q256 422 281 397T307 334Q307 304 294 282T259 246T209 225T151 218Q125 218 93 223T40 236L51 272Q80 264 102 261T150 258Q170 258 189 262T223 276T247 301T256 337Q256 364 230 385T145 407H86V447H130Q187
447 214 468T242 523Q242 561 216 578T154 596Q111 596 66 575L51 613Z" />
<glyph unicode="&#xbf;" glyph-name="questiondown" horiz-adv-x="440" d="M245 -247Q159 -247 111 -203T63 -86Q63 -32 95 14T181 108Q206 130 221 147T246 181T258 213T262 247Q262 264 260 280T252 308L296 316Q301 306 305 285T309 247Q309 208 288 168T210
75Q163 33 138 -3T113 -85Q113 -108 120 -130T144 -168T187 -195T251 -205Q279 -205 308 -198T367 -171L387 -206Q358 -227 319 -237T245 -247ZM303 432Q303 412 291 401T262 389Q245 389 234 400T222 432Q222 453 233 464T262 476Q279 476 291 465T303 432Z" />
<glyph unicode="&#xc0;" glyph-name="Agrave" horiz-adv-x="583" d="M171 834H234L324 710H282L171 834ZM267 630H319L557 0H501L432 186H150L81 0H26L267 630ZM166 228H415L336 444Q334 450 329 465T318 499T306 539T294 578H292Q287 560 281 540T268 502T256
468T247 444L166 228Z" />
<glyph unicode="&#xc1;" glyph-name="Aacute" horiz-adv-x="583" d="M311 710H269L359 834H422L311 710ZM267 630H319L557 0H501L432 186H150L81 0H26L267 630ZM166 228H415L336 444Q334 450 329 465T318 499T306 539T294 578H292Q287 560 281 540T268 502T256
468T247 444L166 228Z" />
<glyph unicode="&#xc2;" glyph-name="Acircumflex" horiz-adv-x="583" d="M270 844H319L444 710H384L294 809L204 710H148L270 844ZM267 630H319L557 0H501L432 186H150L81 0H26L267 630ZM166 228H415L336 444Q334 450 329 465T318 499T306 539T294 578H292Q287
560 281 540T268 502T256 468T247 444L166 228Z" />
<glyph unicode="&#xc3;" glyph-name="Atilde" horiz-adv-x="583" d="M148 715Q148 757 168 786T235 815Q257 815 273 807T303 788T331 770T362 761Q388 761 398 777T411 818H451Q451 799 446 782T430 751T404 729T367 721Q344 721 326 729T293 748T265 766T238
775Q212 775 201 757T188 715H148ZM267 630H319L557 0H501L432 186H150L81 0H26L267 630ZM166 228H415L336 444Q334 450 329 465T318 499T306 539T294 578H292Q287 560 281 540T268 502T256 468T247 444L166 228Z" />
<glyph unicode="&#xc4;" glyph-name="Adieresis" horiz-adv-x="583" d="M169 766Q169 786 180 798T209 810Q226 810 237 798T249 766Q249 745 238 734T209 722Q192 722 181 733T169 766ZM339 766Q339 786 350 798T379 810Q396 810 407 798T419 766Q419 745 408
734T379 722Q362 722 351 733T339 766ZM267 630H319L557 0H501L432 186H150L81 0H26L267 630ZM166 228H415L336 444Q334 450 329 465T318 499T306 539T294 578H292Q287 560 281 540T268 502T256 468T247 444L166 228Z" />
<glyph unicode="&#xc5;" glyph-name="Aring" horiz-adv-x="583" d="M201 760Q201 802 228 822T294 843Q332 843 359 823T387 760Q387 718 359 698T294 677Q256 677 229 698T201 760ZM241 760Q241 734 255 720T294 705Q319 705 333 719T347 760Q347 786 333 800T294
815Q270 815 256 801T241 760ZM267 630H319L557 0H501L432 186H150L81 0H26L267 630ZM166 228H415L336 444Q334 450 329 465T318 499T306 539T294 578H292Q287 560 281 540T268 502T256 468T247 444L166 228Z" />
<glyph unicode="&#xc6;" glyph-name="AE" horiz-adv-x="767" d="M16 0L340 630H720V588H422V345H694V303H422V42H723V0H370V193H168L71 0H16ZM370 593L189 235H370V593Z" />
<glyph unicode="&#xc7;" glyph-name="Ccedilla" horiz-adv-x="529" d="M341 34Q389 34 422 43T481 66L493 24Q464 10 429 2T344 -8L327 -47Q355 -47 375 -53T409 -71T428 -96T435 -125Q435 -167 401 -190T314 -214Q291 -214 272 -211T240 -202L249 -170Q262 -174
277 -176T307 -179Q347 -179 366 -165T385 -127Q385 -117 381 -108T365 -93T331 -82T274 -78L307 -7Q250 -3 200 19T114 82T56 181T35 314Q35 391 57 451T119 553T213 616T332 638Q390 638 427 629T496 602L484 563Q451 580 418 588T343 596Q293 596 248 580T167
530T110 442T89 313Q89 235 111 182T170 96T251 49T341 34Z" />
<glyph unicode="&#xc8;" glyph-name="Egrave" horiz-adv-x="487" d="M80 630H440V588H132V345H414V303H132V42H443V0H80V630ZM191 834H254L344 710H302L191 834Z" />
<glyph unicode="&#xc9;" glyph-name="Eacute" horiz-adv-x="487" d="M80 630H440V588H132V345H414V303H132V42H443V0H80V630ZM241 710H199L289 834H352L241 710Z" />
<glyph unicode="&#xca;" glyph-name="Ecircumflex" horiz-adv-x="487" d="M80 630H440V588H132V345H414V303H132V42H443V0H80V630ZM240 844H289L414 710H354L264 809L174 710H118L240 844Z" />
<glyph unicode="&#xcb;" glyph-name="Edieresis" horiz-adv-x="487" d="M80 630H440V588H132V345H414V303H132V42H443V0H80V630ZM139 766Q139 786 150 798T179 810Q196 810 207 798T219 766Q219 745 208 734T179 722Q162 722 151 733T139 766ZM309 766Q309 786
320 798T349 810Q366 810 377 798T389 766Q389 745 378 734T349 722Q332 722 321 733T309 766Z" />
<glyph unicode="&#xcc;" glyph-name="Igrave" horiz-adv-x="213" d="M132 630V0H80V630H132ZM-20 834H43L133 710H91L-20 834Z" />
<glyph unicode="&#xcd;" glyph-name="Iacute" horiz-adv-x="211" d="M132 630V0H80V630H132ZM122 710H80L170 834H233L122 710Z" />
<glyph unicode="&#xce;" glyph-name="Icircumflex" horiz-adv-x="211" d="M132 630V0H80V630H132ZM84 844H133L258 710H198L108 809L18 710H-38L84 844Z" />
<glyph unicode="&#xcf;" glyph-name="Idieresis" horiz-adv-x="211" d="M132 630V0H80V630H132ZM-19 766Q-19 786 -8 798T21 810Q38 810 49 798T61 766Q61 745 50 734T21 722Q4 722 -7 733T-19 766ZM151 766Q151 786 162 798T191 810Q208 810 219 798T231 766Q231
745 220 734T191 722Q174 722 163 733T151 766Z" />
<glyph unicode="&#xd0;" glyph-name="Eth" horiz-adv-x="632" d="M295 630Q357 630 410 611T503 555T564 461T586 329Q586 238 560 175T489 73T385 17T260 0H110V308H30V350H110V630H295ZM330 350V308H162V42H251Q303 42 353 54T443 99T507 187T532 329Q532 390
514 438T461 519T381 570T277 588H162V350H330Z" />
<glyph unicode="&#xd1;" glyph-name="Ntilde" horiz-adv-x="623" d="M80 630H160L400 216L492 52H494L493 236V630H543V0H463L232 396L131 592H129L130 376V0H80V630ZM165 715Q165 757 185 786T252 815Q274 815 290 807T320 788T348 770T379 761Q405 761 415 777T428
818H468Q468 799 463 782T447 751T421 729T384 721Q361 721 343 729T310 748T282 766T255 775Q229 775 218 757T205 715H165Z" />
<glyph unicode="&#xd2;" glyph-name="Ograve" horiz-adv-x="646" d="M325 638Q382 638 432 618T519 558T578 457T600 315Q600 236 578 176T518 75T429 13T321 -8Q264 -8 214 12T127 72T68 173T46 315Q46 394 68 454T128 555T217 617T325 638ZM100 315Q100 243
118 191T168 103T239 51T325 34Q369 34 409 51T479 103T528 190T546 315Q546 388 528 441T478 529T407 579T321 596Q277 596 237 579T167 527T118 440T100 315ZM231 834H294L384 710H342L231 834Z" />
<glyph unicode="&#xd3;" glyph-name="Oacute" horiz-adv-x="646" d="M325 638Q382 638 432 618T519 558T578 457T600 315Q600 236 578 176T518 75T429 13T321 -8Q264 -8 214 12T127 72T68 173T46 315Q46 394 68 454T128 555T217 617T325 638ZM100 315Q100 243
118 191T168 103T239 51T325 34Q369 34 409 51T479 103T528 190T546 315Q546 388 528 441T478 529T407 579T321 596Q277 596 237 579T167 527T118 440T100 315ZM301 710H259L349 834H412L301 710Z" />
<glyph unicode="&#xd4;" glyph-name="Ocircumflex" horiz-adv-x="646" d="M325 638Q382 638 432 618T519 558T578 457T600 315Q600 236 578 176T518 75T429 13T321 -8Q264 -8 214 12T127 72T68 173T46 315Q46 394 68 454T128 555T217 617T325 638ZM100 315Q100
243 118 191T168 103T239 51T325 34Q369 34 409 51T479 103T528 190T546 315Q546 388 528 441T478 529T407 579T321 596Q277 596 237 579T167 527T118 440T100 315ZM300 844H349L474 710H414L324 809L234 710H178L300 844Z" />
<glyph unicode="&#xd5;" glyph-name="Otilde" horiz-adv-x="646" d="M325 638Q382 638 432 618T519 558T578 457T600 315Q600 236 578 176T518 75T429 13T321 -8Q264 -8 214 12T127 72T68 173T46 315Q46 394 68 454T128 555T217 617T325 638ZM100 315Q100 243
118 191T168 103T239 51T325 34Q369 34 409 51T479 103T528 190T546 315Q546 388 528 441T478 529T407 579T321 596Q277 596 237 579T167 527T118 440T100 315ZM173 715Q173 757 193 786T260 815Q282 815 298 807T328 788T356 770T387 761Q413 761 423 777T436
818H476Q476 799 471 782T455 751T429 729T392 721Q369 721 351 729T318 748T290 766T263 775Q237 775 226 757T213 715H173Z" />
<glyph unicode="&#xd6;" glyph-name="Odieresis" horiz-adv-x="646" d="M325 638Q382 638 432 618T519 558T578 457T600 315Q600 236 578 176T518 75T429 13T321 -8Q264 -8 214 12T127 72T68 173T46 315Q46 394 68 454T128 555T217 617T325 638ZM100 315Q100 243
118 191T168 103T239 51T325 34Q369 34 409 51T479 103T528 190T546 315Q546 388 528 441T478 529T407 579T321 596Q277 596 237 579T167 527T118 440T100 315ZM199 766Q199 786 210 798T239 810Q256 810 267 798T279 766Q279 745 268 734T239 722Q222 722 211
733T199 766ZM369 766Q369 786 380 798T409 810Q426 810 437 798T449 766Q449 745 438 734T409 722Q392 722 381 733T369 766Z" />
<glyph unicode="&#xd7;" glyph-name="multiply" horiz-adv-x="400" d="M43 177L169 303L43 429L74 460L200 334L326 460L357 429L231 303L357 177L326 146L200 272L74 146L43 177Z" />
<glyph unicode="&#xd8;" glyph-name="Oslash" horiz-adv-x="646" d="M488 753L522 740L466 600Q526 564 563 493T600 315Q600 236 578 176T518 75T429 13T321 -8Q271 -8 228 7L167 -146L132 -132L193 21Q127 56 87 129T46 315Q46 394 68 454T128 555T217 617T325
638Q383 638 433 617L488 753ZM100 315Q100 220 131 159T211 66L416 575Q372 596 321 596Q277 596 237 579T167 527T118 440T100 315ZM325 34Q369 34 409 51T479 103T528 190T546 315Q546 405 519 464T448 556L245 49Q282 34 325 34Z" />
<glyph unicode="&#xd9;" glyph-name="Ugrave" horiz-adv-x="612" d="M78 630H130V253Q130 136 175 85T312 34Q358 34 390 49T442 91T472 157T482 241V630H534V244Q534 114 477 53T312 -8Q204 -8 141 53T78 249V630ZM236 834H299L389 710H347L236 834Z" />
<glyph unicode="&#xda;" glyph-name="Uacute" horiz-adv-x="612" d="M78 630H130V253Q130 136 175 85T312 34Q358 34 390 49T442 91T472 157T482 241V630H534V244Q534 114 477 53T312 -8Q204 -8 141 53T78 249V630ZM280 710H238L328 834H391L280 710Z" />
<glyph unicode="&#xdb;" glyph-name="Ucircumflex" horiz-adv-x="612" d="M78 630H130V253Q130 136 175 85T312 34Q358 34 390 49T442 91T472 157T482 241V630H534V244Q534 114 477 53T312 -8Q204 -8 141 53T78 249V630ZM288 844H337L462 710H402L312 809L222
710H166L288 844Z" />
<glyph unicode="&#xdc;" glyph-name="Udieresis" horiz-adv-x="612" d="M78 630H130V253Q130 136 175 85T312 34Q358 34 390 49T442 91T472 157T482 241V630H534V244Q534 114 477 53T312 -8Q204 -8 141 53T78 249V630ZM187 766Q187 786 198 798T227 810Q244 810
255 798T267 766Q267 745 256 734T227 722Q210 722 199 733T187 766ZM357 766Q357 786 368 798T397 810Q414 810 425 798T437 766Q437 745 426 734T397 722Q380 722 369 733T357 766Z" />
<glyph unicode="&#xdd;" glyph-name="Yacute" horiz-adv-x="483" d="M61 630L240 317L420 630H483L265 264V0H213V264L0 630H61ZM221 710H179L269 834H332L221 710Z" />
<glyph unicode="&#xde;" glyph-name="Thorn" horiz-adv-x="471" d="M72 630H118V497Q138 503 160 506T208 510Q254 510 294 497T365 460T412 400T429 321Q429 268 411 229T361 163T284 124T189 111Q175 111 155 112T118 116V0H72V630ZM118 157Q135 154 151 153T191
151Q276 151 327 193T379 312Q379 352 365 382T325 431T268 460T199 470Q176 470 154 467T118 459V157Z" />
<glyph unicode="&#xdf;" glyph-name="germandbls" horiz-adv-x="569" d="M82 0V480Q82 532 95 576T134 652T200 702T296 720Q333 720 364 710T419 680T456 629T470 558Q470 535 464 512T452 476Q388 468 361 443T334 383Q334 351 353 330T405 284Q425 268 444
253T477 220T501 181T510 133Q510 70 466 31T340 -8Q327 -8 312 -7T281 -3T253 4T230 13L242 50Q263 42 288 37T338 32Q397 32 426 59T456 131Q456 149 451 163T435 189T409 214T374 243Q351 260 334 275T305 307T287 340T281 380Q281 425 313 461T411 510Q414
519 416 530T418 557Q418 614 383 647T293 680Q257 680 227 669T176 633T142 566T130 466V0H82Z" />
<glyph unicode="&#xe0;" glyph-name="agrave" horiz-adv-x="459" d="M65 429Q112 454 151 465T236 476Q268 476 296 467T346 438T380 386T393 306V0H357L346 62H344Q315 27 276 10T189 -8Q156 -8 128 1T80 29T48 72T36 129Q36 166 51 194T93 240T157 268T241 277H341V308Q341
376 311 405T233 434Q204 434 166 425T85 392L65 429ZM341 236L258 235Q213 234 181 226T129 204T99 172T90 132Q90 106 99 88T123 57T158 40T202 34Q220 34 239 38T276 52T312 76T341 112V236ZM173 690H236L316 556H274L173 690Z" />
<glyph unicode="&#xe1;" glyph-name="aacute" horiz-adv-x="459" d="M65 429Q112 454 151 465T236 476Q268 476 296 467T346 438T380 386T393 306V0H357L346 62H344Q315 27 276 10T189 -8Q156 -8 128 1T80 29T48 72T36 129Q36 166 51 194T93 240T157 268T241 277H341V308Q341
376 311 405T233 434Q204 434 166 425T85 392L65 429ZM341 236L258 235Q213 234 181 226T129 204T99 172T90 132Q90 106 99 88T123 57T158 40T202 34Q220 34 239 38T276 52T312 76T341 112V236ZM218 556H176L256 690H319L218 556Z" />
<glyph unicode="&#xe2;" glyph-name="acircumflex" horiz-adv-x="460" d="M65 429Q112 454 151 465T236 476Q268 476 296 467T346 438T380 386T393 306V0H357L346 62H344Q315 27 276 10T189 -8Q156 -8 128 1T80 29T48 72T36 129Q36 166 51 194T93 240T157 268T241
277H341V308Q341 376 311 405T233 434Q204 434 166 425T85 392L65 429ZM341 236L258 235Q213 234 181 226T129 204T99 172T90 132Q90 106 99 88T123 57T158 40T202 34Q220 34 239 38T276 52T312 76T341 112V236ZM394 556H338L253 654L166 556H109L229 690H278L394
556Z" />
<glyph unicode="&#xe3;" glyph-name="atilde" horiz-adv-x="459" d="M65 429Q112 454 151 465T236 476Q268 476 296 467T346 438T380 386T393 306V0H357L346 62H344Q315 27 276 10T189 -8Q156 -8 128 1T80 29T48 72T36 129Q36 166 51 194T93 240T157 268T241 277H341V308Q341
376 311 405T233 434Q204 434 166 425T85 392L65 429ZM341 236L258 235Q213 234 181 226T129 204T99 172T90 132Q90 106 99 88T123 57T158 40T202 34Q220 34 239 38T276 52T312 76T341 112V236ZM79 561Q79 609 99 635T164 662Q185 662 202 653T234 634T263 614T294
605Q316 605 329 617T342 665H380Q380 614 361 590T299 565Q276 565 258 574T223 593T193 613T165 622Q146 622 132 609T118 561H79Z" />
<glyph unicode="&#xe4;" glyph-name="adieresis" horiz-adv-x="459" d="M65 429Q112 454 151 465T236 476Q268 476 296 467T346 438T380 386T393 306V0H357L346 62H344Q315 27 276 10T189 -8Q156 -8 128 1T80 29T48 72T36 129Q36 166 51 194T93 240T157 268T241
277H341V308Q341 376 311 405T233 434Q204 434 166 425T85 392L65 429ZM341 236L258 235Q213 234 181 226T129 204T99 172T90 132Q90 106 99 88T123 57T158 40T202 34Q220 34 239 38T276 52T312 76T341 112V236ZM111 623Q111 643 122 655T151 667Q168 667 179 655T191
623Q191 602 180 591T151 579Q134 579 123 590T111 623ZM281 623Q281 643 292 655T321 667Q338 667 349 655T361 623Q361 602 350 591T321 579Q304 579 293 590T281 623Z" />
<glyph unicode="&#xe5;" glyph-name="aring" horiz-adv-x="459" d="M65 429Q112 454 151 465T236 476Q268 476 296 467T346 438T380 386T393 306V0H357L346 62H344Q315 27 276 10T189 -8Q156 -8 128 1T80 29T48 72T36 129Q36 166 51 194T93 240T157 268T241 277H341V308Q341
376 311 405T233 434Q204 434 166 425T85 392L65 429ZM341 236L258 235Q213 234 181 226T129 204T99 172T90 132Q90 106 99 88T123 57T158 40T202 34Q220 34 239 38T276 52T312 76T341 112V236ZM145 623Q145 665 171 685T235 706Q273 706 299 686T325 623Q325 581
298 561T235 540Q199 540 172 561T145 623ZM185 623Q185 600 197 584T235 568Q261 568 273 584T285 623Q285 646 273 662T235 678Q210 678 198 662T185 623Z" />
<glyph unicode="&#xe6;" glyph-name="ae" horiz-adv-x="771" d="M729 235H394V221Q394 133 441 84T571 34Q636 34 693 56L705 16Q679 5 643 -1T568 -8Q510 -8 461 13T381 82H379Q349 37 302 15T199 -8Q164 -8 134 1T82 29T48 72T36 129Q36 166 51 194T93 240T157
268T241 277H341V308Q341 376 311 405T233 434Q204 434 166 425T85 392L65 429Q112 454 151 465T236 476Q284 476 321 454T379 385H381Q408 429 449 452T545 476Q585 476 619 462T677 420T715 355T729 271V235ZM90 132Q90 81 123 58T212 34Q230 34 250 39T290 54T328
81T360 121Q340 170 340 235H258Q213 235 181 227T129 205T99 172T90 132ZM675 277Q675 306 668 334T646 385T606 420T546 434Q485 434 445 393T396 277H675Z" />
<glyph unicode="&#xe7;" glyph-name="ccedilla" horiz-adv-x="427" d="M277 30Q309 30 335 37T384 55L395 19Q371 7 345 1T287 -8L266 -48Q313 -50 338 -69T364 -118Q364 -139 355 -154T331 -179T295 -195T253 -200Q230 -200 211 -197T179 -188L189 -154Q217 -164
246 -164Q278 -164 296 -154T314 -120Q314 -100 292 -89T213 -78L246 -7Q204 -3 167 14T101 61T57 134T41 234Q41 290 58 335T106 411T178 459T270 476Q301 476 330 472T393 451L381 410Q354 424 330 429T279 434Q238 434 204 420T146 381T109 319T95 237Q95 177
111 138T152 74T210 40T277 30Z" />
<glyph unicode="&#xe8;" glyph-name="egrave" horiz-adv-x="504" d="M448 235H113V221Q113 133 160 84T290 34Q355 34 412 56L424 16Q398 5 362 -1T287 -8Q240 -8 199 6T126 49T77 124T59 234Q59 289 74 334T117 410T183 459T268 476Q308 476 341 462T398 420T435
355T448 271V235ZM394 277Q394 306 387 334T365 385T325 420T265 434Q204 434 164 393T115 277H394ZM252 690L332 556H290L189 690H252Z" />
<glyph unicode="&#xe9;" glyph-name="eacute" horiz-adv-x="504" d="M448 235H113V221Q113 133 160 84T290 34Q355 34 412 56L424 16Q398 5 362 -1T287 -8Q240 -8 199 6T126 49T77 124T59 234Q59 289 74 334T117 410T183 459T268 476Q308 476 341 462T398 420T435
355T448 271V235ZM394 277Q394 306 387 334T365 385T325 420T265 434Q204 434 164 393T115 277H394ZM336 690L235 556H193L273 690H336Z" />
<glyph unicode="&#xea;" glyph-name="ecircumflex" horiz-adv-x="504" d="M448 235H113V221Q113 133 160 84T290 34Q355 34 412 56L424 16Q398 5 362 -1T287 -8Q240 -8 199 6T126 49T77 124T59 234Q59 289 74 334T117 410T183 459T268 476Q308 476 341 462T398
420T435 355T448 271V235ZM394 277Q394 306 387 334T365 385T325 420T265 434Q204 434 164 393T115 277H394ZM357 556L272 654L185 556H128L248 690H297L413 556H357Z" />
<glyph unicode="&#xeb;" glyph-name="edieresis" horiz-adv-x="504" d="M448 235H113V221Q113 133 160 84T290 34Q355 34 412 56L424 16Q398 5 362 -1T287 -8Q240 -8 199 6T126 49T77 124T59 234Q59 289 74 334T117 410T183 459T268 476Q308 476 341 462T398 420T435
355T448 271V235ZM394 277Q394 306 387 334T365 385T325 420T265 434Q204 434 164 393T115 277H394ZM148 623Q148 643 159 655T188 667Q205 667 216 655T228 623Q228 602 217 591T188 579Q171 579 160 590T148 623ZM318 623Q318 643 329 655T358 667Q375 667 386
655T398 623Q398 602 387 591T358 579Q341 579 330 590T318 623Z" />
<glyph unicode="&#xec;" glyph-name="igrave" horiz-adv-x="212" d="M80 0V470H132V0H80ZM-10 690H53L133 556H91L-10 690Z" />
<glyph unicode="&#xed;" glyph-name="iacute" horiz-adv-x="212" d="M80 0V470H132V0H80ZM122 556H80L160 690H223L122 556Z" />
<glyph unicode="&#xee;" glyph-name="icircumflex" horiz-adv-x="212" d="M80 0V470H132V0H80ZM246 556H190L106 652L18 556H-39L81 690H130L246 556Z" />
<glyph unicode="&#xef;" glyph-name="idieresis" horiz-adv-x="212" d="M80 0V470H132V0H80ZM-19 623Q-19 643 -8 655T21 667Q38 667 49 655T61 623Q61 602 50 591T21 579Q4 579 -7 590T-19 623ZM151 623Q151 643 162 655T191 667Q208 667 219 655T231 623Q231
602 220 591T191 579Q174 579 163 590T151 623Z" />
<glyph unicode="&#xf0;" glyph-name="eth" horiz-adv-x="500" d="M240 457Q285 457 324 436T389 378H392Q387 405 375 434T346 492T309 544T267 585L145 523L128 553L237 608Q217 622 185 636T124 662L146 700Q178 689 216 671T287 630L385 680L402 649L315 606Q339
585 364 552T410 473T444 373T458 252Q458 195 444 147T402 65T336 11T248 -8Q212 -8 175 5T108 46T59 118T40 224Q40 279 56 322T99 396T162 441T240 457ZM248 415Q221 415 194 406T144 374T108 315T94 227Q94 170 108 133T144 74T195 43T252 34Q285 34 312 48T360
87T391 148T403 228Q403 271 390 305T356 364T306 402T248 415Z" />
<glyph unicode="&#xf1;" glyph-name="ntilde" horiz-adv-x="498" d="M120 0H68V470H106L114 405Q148 437 187 456T277 476Q349 476 389 436T430 324V0H378V311Q378 337 373 359T354 398T318 424T262 434Q224 434 187 415T120 362V0ZM107 561Q107 609 127 635T192
662Q213 662 230 653T262 634T291 614T322 605Q344 605 357 617T370 665H408Q408 614 389 590T327 565Q304 565 286 574T251 593T221 613T193 622Q174 622 160 609T146 561H107Z" />
<glyph unicode="&#xf2;" glyph-name="ograve" horiz-adv-x="496" d="M457 240Q457 181 441 135T397 57T330 9T247 -8Q203 -8 165 7T98 53T54 127T38 230Q38 289 54 335T100 412T168 460T251 476Q295 476 333 461T398 416T441 342T457 240ZM403 235Q403 287 390
324T356 386T306 422T248 434Q218 434 190 423T140 387T105 325T92 235Q92 180 105 142T141 80T191 45T250 34Q280 34 307 44T356 79T390 141T403 235ZM176 690H239L319 556H277L176 690Z" />
<glyph unicode="&#xf3;" glyph-name="oacute" horiz-adv-x="496" d="M457 240Q457 181 441 135T397 57T330 9T247 -8Q203 -8 165 7T98 53T54 127T38 230Q38 289 54 335T100 412T168 460T251 476Q295 476 333 461T398 416T441 342T457 240ZM403 235Q403 287 390
324T356 386T306 422T248 434Q218 434 190 423T140 387T105 325T92 235Q92 180 105 142T141 80T191 45T250 34Q280 34 307 44T356 79T390 141T403 235ZM223 556H181L261 690H324L223 556Z" />
<glyph unicode="&#xf4;" glyph-name="ocircumflex" horiz-adv-x="496" d="M457 240Q457 181 441 135T397 57T330 9T247 -8Q203 -8 165 7T98 53T54 127T38 230Q38 289 54 335T100 412T168 460T251 476Q295 476 333 461T398 416T441 342T457 240ZM403 235Q403 287
390 324T356 386T306 422T248 434Q218 434 190 423T140 387T105 325T92 235Q92 180 105 142T141 80T191 45T250 34Q280 34 307 44T356 79T390 141T403 235ZM391 556H335L250 654L163 556H106L226 690H275L391 556Z" />
<glyph unicode="&#xf5;" glyph-name="otilde" horiz-adv-x="496" d="M457 240Q457 181 441 135T397 57T330 9T247 -8Q203 -8 165 7T98 53T54 127T38 230Q38 289 54 335T100 412T168 460T251 476Q295 476 333 461T398 416T441 342T457 240ZM403 235Q403 287 390
324T356 386T306 422T248 434Q218 434 190 423T140 387T105 325T92 235Q92 180 105 142T141 80T191 45T250 34Q280 34 307 44T356 79T390 141T403 235ZM101 561Q101 609 121 635T186 662Q207 662 224 653T256 634T285 614T316 605Q338 605 351 617T364 665H402Q402
614 383 590T321 565Q298 565 280 574T245 593T215 613T187 622Q168 622 154 609T140 561H101Z" />
<glyph unicode="&#xf6;" glyph-name="odieresis" horiz-adv-x="496" d="M457 240Q457 181 441 135T397 57T330 9T247 -8Q203 -8 165 7T98 53T54 127T38 230Q38 289 54 335T100 412T168 460T251 476Q295 476 333 461T398 416T441 342T457 240ZM403 235Q403 287
390 324T356 386T306 422T248 434Q218 434 190 423T140 387T105 325T92 235Q92 180 105 142T141 80T191 45T250 34Q280 34 307 44T356 79T390 141T403 235ZM123 623Q123 643 134 655T163 667Q180 667 191 655T203 623Q203 602 192 591T163 579Q146 579 135 590T123
623ZM293 623Q293 643 304 655T333 667Q350 667 361 655T373 623Q373 602 362 591T333 579Q316 579 305 590T293 623Z" />
<glyph unicode="&#xf7;" glyph-name="divide" horiz-adv-x="533" d="M222 88Q222 108 234 120T263 133Q280 133 292 121T304 88Q304 67 292 55T263 43Q246 43 234 55T222 88ZM222 420Q222 440 234 452T263 465Q280 465 292 453T304 420Q304 399 292 387T263 375Q246
375 234 387T222 420ZM493 274V233H40V274H493Z" />
<glyph unicode="&#xf8;" glyph-name="oslash" horiz-adv-x="496" d="M355 571L387 563L351 452Q399 426 428 373T457 240Q457 181 441 135T397 57T330 9T247 -8Q236 -8 226 -7T206 -4L179 -89L147 -80L174 4Q113 25 76 82T38 230Q38 289 54 335T100 412T168 460T251
476Q286 476 321 465L355 571ZM248 434Q218 434 190 423T140 387T105 325T92 235Q92 155 119 110T187 46L307 422Q280 434 248 434ZM403 235Q403 298 384 339T336 404L219 37Q232 34 250 34Q280 34 307 44T356 79T390 141T403 235Z" />
<glyph unicode="&#xf9;" glyph-name="ugrave" horiz-adv-x="503" d="M383 470H435V0H398L390 59H388Q364 33 324 13T230 -8Q157 -8 113 31T68 155V470H120V166Q120 127 129 102T154 61T192 40T241 34Q286 34 324 55T383 105V470ZM168 690H231L311 556H269L168 690Z" />
<glyph unicode="&#xfa;" glyph-name="uacute" horiz-adv-x="503" d="M383 470H435V0H398L390 59H388Q364 33 324 13T230 -8Q157 -8 113 31T68 155V470H120V166Q120 127 129 102T154 61T192 40T241 34Q286 34 324 55T383 105V470ZM233 556H191L271 690H334L233 556Z" />
<glyph unicode="&#xfb;" glyph-name="ucircumflex" horiz-adv-x="503" d="M383 470H435V0H398L390 59H388Q364 33 324 13T230 -8Q157 -8 113 31T68 155V470H120V166Q120 127 129 102T154 61T192 40T241 34Q286 34 324 55T383 105V470ZM392 556H336L251 654L164
556H107L227 690H276L392 556Z" />
<glyph unicode="&#xfc;" glyph-name="udieresis" horiz-adv-x="503" d="M383 470H435V0H398L390 59H388Q364 33 324 13T230 -8Q157 -8 113 31T68 155V470H120V166Q120 127 129 102T154 61T192 40T241 34Q286 34 324 55T383 105V470ZM127 623Q127 643 138 655T167
667Q184 667 195 655T207 623Q207 602 196 591T167 579Q150 579 139 590T127 623ZM297 623Q297 643 308 655T337 667Q354 667 365 655T377 623Q377 602 366 591T337 579Q320 579 309 590T297 623Z" />
<glyph unicode="&#xfd;" glyph-name="yacute" horiz-adv-x="421" d="M9 470H63L185 158L221 52H223L254 158L364 470H414L233 -40Q206 -116 164 -162T63 -231L42 -193Q93 -172 129 -135T189 -27L198 0L9 470ZM204 556H162L242 690H305L204 556Z" />
<glyph unicode="&#xfe;" glyph-name="thorn" horiz-adv-x="494" d="M452 240Q452 184 436 139T392 61T327 10T248 -8Q203 -8 172 0T116 29V-160H69V710H116V414Q146 447 182 461T257 476Q347 476 399 415T452 240ZM400 239Q400 330 359 382T244 434Q206 434 174
416T116 368V76Q136 53 167 43T225 32Q259 32 290 44T346 81T385 146T400 239Z" />
<glyph unicode="&#xff;" glyph-name="ydieresis" horiz-adv-x="421" d="M9 470H63L184 158L222 49H224L256 158L364 470H414L233 -40Q206 -116 164 -162T63 -231L42 -193Q93 -172 130 -135T191 -27L200 0L9 470ZM94 623Q94 643 105 655T134 667Q151 667 162 655T174
623Q174 602 163 591T134 579Q117 579 106 590T94 623ZM264 623Q264 643 275 655T304 667Q321 667 332 655T344 623Q344 602 333 591T304 579Q287 579 276 590T264 623Z" />
<glyph unicode="&#x2013;" glyph-name="endash" horiz-adv-x="521" d="M467 249V208H54V249H467Z" />
<glyph unicode="&#x2014;" glyph-name="emdash" horiz-adv-x="934" d="M880 248V208H54V248H880Z" />
<glyph unicode="&#x2018;" glyph-name="quoteleft" horiz-adv-x="162" d="M72 623Q89 620 100 608T112 575Q112 557 101 545T71 533Q55 533 39 546T23 599Q23 621 31 642T52 682T83 715T120 740L140 712Q110 697 91 673T67 624L72 623Z" />
<glyph unicode="&#x2019;" glyph-name="quoteright" horiz-adv-x="162" d="M90 625Q73 628 62 640T50 673Q50 691 61 703T91 715Q107 715 123 702T139 649Q139 626 131 605T110 566T79 533T42 508L22 536Q52 551 71 575T95 624L90 625Z" />
<glyph unicode="&#x201a;" glyph-name="quotesinglbase" horiz-adv-x="190" d="M91 -8Q74 -5 63 7T51 40Q51 58 62 70T92 82Q108 82 124 69T140 16Q140 -7 132 -28T111 -67T80 -100T43 -125L23 -97Q53 -82 72 -58T96 -9L91 -8Z" />
<glyph unicode="&#x201c;" glyph-name="quotedblleft" horiz-adv-x="318" d="M72 623Q89 620 100 608T112 575Q112 557 101 545T71 533Q55 533 39 546T23 599Q23 621 31 642T52 682T83 715T120 740L140 712Q110 697 91 673T67 624L72 623ZM228 623Q245 620 256
608T268 575Q268 557 257 545T227 533Q211 533 195 546T179 599Q179 621 187 642T208 682T239 715T276 740L296 712Q266 697 247 673T223 624L228 623Z" />
<glyph unicode="&#x201d;" glyph-name="quotedblright" horiz-adv-x="318" d="M90 626Q73 629 62 641T50 674Q50 692 61 704T91 716Q107 716 123 703T139 650Q139 627 131 606T110 567T79 534T42 509L22 537Q52 552 71 576T95 625L90 626ZM246 626Q229 629 218
641T206 674Q206 692 217 704T247 716Q263 716 279 703T295 650Q295 627 287 606T266 567T235 534T198 509L178 537Q208 552 227 576T251 625L246 626Z" />
<glyph unicode="&#x201e;" glyph-name="quotedblbase" horiz-adv-x="360" d="M91 -8Q74 -5 63 7T51 40Q51 58 62 70T92 82Q108 82 124 69T140 16Q140 -7 132 -28T111 -67T80 -100T43 -125L23 -97Q53 -82 72 -58T96 -9L91 -8ZM261 -8Q244 -5 233 7T221 40Q221 58
232 70T262 82Q278 82 294 69T310 16Q310 -7 302 -28T281 -67T250 -100T213 -125L193 -97Q224 -82 242 -58T266 -9L261 -8Z" />
<glyph unicode="&#x2022;" glyph-name="bullet" horiz-adv-x="318" d="M60 266Q60 311 89 338T159 366Q200 366 229 339T258 266Q258 221 229 194T159 166Q118 166 89 193T60 266Z" />
<glyph unicode="&#x2039;" glyph-name="guilsinglleft" horiz-adv-x="257" d="M178 76L30 236L178 397H234L98 236L234 76H178Z" />
<glyph unicode="&#x203a;" glyph-name="guilsinglright" horiz-adv-x="257" d="M23 76L159 237L23 397H79L227 237L79 76H23Z" />
</font>
</defs>
</svg>
