<?xml version="1.0" standalone="no"?>
<!DOCTYPE svg PUBLIC "-//W3C//DTD SVG 1.1//EN" "http://www.w3.org/Graphics/SVG/1.1/DTD/svg11.dtd" >
<svg xmlns="http://www.w3.org/2000/svg" xmlns:xlink="http://www.w3.org/1999/xlink" version="1.1">
<metadata>
Created by FontForge 20201107 at Wed Mar 15 10:59:18 2006
 By Unknown
TF(Headliners)Arrow -Medium,v14(Ship#1),11.26.94jtFOG351.Glyphs HL,Data &#38;owned by TFI. All world rights reserved.
</metadata>
<defs>
<font id="TFArrow-Medium" horiz-adv-x="432" >
  <font-face 
    font-family="TFArrow"
    font-weight="550"
    font-stretch="normal"
    units-per-em="1000"
    panose-1="2 0 6 6 7 0 0 2 0 3"
    ascent="800"
    descent="-200"
    x-height="459"
    cap-height="680"
    bbox="-121 -237 867 842"
    underline-thickness="20"
    underline-position="-133"
    unicode-range="U+0020-FB02"
  />
<missing-glyph horiz-adv-x="500" 
 />
    <glyph glyph-name="fi" unicode="fi" horiz-adv-x="415" 
d="M228 0q14 7 21 14t7 24v350q0 31 -28 31h-88v-381q0 -17 7.5 -24t20.5 -14h-141q13 7 19.5 14t6.5 24v381h-54v40h54v84q0 29 8 55.5t25 46.5t43.5 32t62.5 12q25 0 46 -4.5t41 -18.5v-95q-3 13 -9 28t-15 27t-20.5 20t-24.5 8q-26 0 -40 -12t-20.5 -28t-8 -33.5
t-1.5 -27.5v-94h106l95 14v-435q0 -17 7.5 -24t18.5 -14h-139z" />
    <glyph glyph-name="fl" unicode="fl" horiz-adv-x="415" 
d="M262 611q0 26 -10 34.5t-21 8.5q-26 0 -43 -12t-27.5 -28t-15 -33.5t-4.5 -27.5v-92h121v150zM234 0q14 7 21 14t7 24v381h-121v-381q0 -17 7.5 -24t18.5 -14h-139q12 7 19 14t7 24v381h-54v42h54v82q0 29 11 55.5t31.5 46.5t49.5 32t66 12q17 0 34.5 -2t31.5 -7
q4 -1 14 -2t21.5 -1.5t21.5 -2t13 -4.5v-632q0 -17 2 -24t15 -14h-131z" />
    <glyph glyph-name=".notdef" horiz-adv-x="500" 
 />
    <glyph glyph-name=".null" horiz-adv-x="0" 
 />
    <glyph glyph-name="nonmarkingreturn" horiz-adv-x="212" 
 />
    <glyph glyph-name="space" unicode=" " horiz-adv-x="212" 
 />
    <glyph glyph-name="dotlessi" unicode="&#x131;" horiz-adv-x="210" 
d="M25 0q11 7 18.5 14t7.5 24v371q0 23 -11.5 29.5t-23.5 10.5l122 24v-435q0 -17 7 -24t19 -14h-139z" />
    <glyph glyph-name="fraction" unicode="&#x2044;" horiz-adv-x="480" 
d="M453 680q-16 -29 -48.5 -83.5t-73 -121.5t-84.5 -139.5t-83 -138.5t-68.5 -118.5t-40.5 -78.5h-59q15 28 47.5 81.5t73 120t85 139.5t83.5 139.5t69 119.5t42 80h57z" />
    <glyph glyph-name="fraction" unicode="&#x2215;" horiz-adv-x="480" 
d="M453 680q-16 -29 -48.5 -83.5t-73 -121.5t-84.5 -139.5t-83 -138.5t-68.5 -118.5t-40.5 -78.5h-59q15 28 47.5 81.5t73 120t85 139.5t83.5 139.5t69 119.5t42 80h57z" />
    <glyph glyph-name="exclam" unicode="!" horiz-adv-x="232" 
d="M161 43q0 -20 -14.5 -34t-34.5 -14q-21 0 -36 14t-15 34q0 21 15 35t36 14q20 0 34.5 -14t14.5 -35zM167 590q0 -8 -3 -39t-8 -75t-11 -95.5t-12 -99t-11.5 -86t-9.5 -56.5q-5 18 -11 56.5t-12 86t-12.5 99t-11.5 95.5t-8 75.5t-3 38.5q0 48 14.5 73.5t43.5 25.5t42 -26
t13 -73z" />
    <glyph glyph-name="quotedbl" unicode="&#x22;" horiz-adv-x="277" 
d="M115 640q0 -9 -6.5 -30t-15 -43t-16.5 -38.5t-11 -16.5t-11 16.5t-17 38.5t-15.5 43t-6.5 30q0 21 14 35t36 14q20 0 34.5 -14t14.5 -35zM237 640q0 -9 -6.5 -30t-14.5 -43t-16.5 -38.5t-11.5 -16.5t-11.5 16.5t-17 38.5t-15 43t-6.5 30q0 21 14.5 35t35.5 14t35 -14
t14 -35z" />
    <glyph glyph-name="numbersign" unicode="#" horiz-adv-x="435" 
d="M188 452l-40 -226h76l40 226h-76zM400 452h-82l-40 -226h82l-10 -50h-80l-32 -176h-52l30 176h-77l-31 -176h-52l29 176h-83l8 50h84l40 226h-84l11 51h83l30 177h54l-32 -177h79l31 177h52l-31 -177h82z" />
    <glyph glyph-name="dollar" unicode="$" horiz-adv-x="453" 
d="M327 167q0 27 -7 46.5t-20.5 34t-33.5 26t-45 24.5q0 -63 1 -127.5t1 -133.5q31 4 51 18.5t32 34t16.5 40.5t4.5 37zM186 430q0 54 -1 107t-1 110q-27 -2 -44.5 -12.5t-27.5 -25.5t-14 -32t-4 -32q0 -20 4.5 -35.5t15 -28.5t28.5 -25.5t44 -25.5zM419 193
q0 -44 -17 -79.5t-44.5 -61.5t-62.5 -42t-71 -19v-68h-40v67q-30 0 -55.5 6t-46.5 14.5t-37.5 18t-28.5 16.5l-6 150q9 -26 22.5 -54.5t34 -52.5t49.5 -40t68 -17q0 78 1 145t1 135q-36 17 -68 36t-55.5 42.5t-37 53.5t-13.5 69q0 40 14.5 71.5t38.5 54t55 35.5t64 18v62h40
q0 -15 -0.5 -30.5t-0.5 -31.5q28 0 51.5 -5.5t41.5 -12t29.5 -13t16.5 -8.5l5 -132q-5 17 -16 38t-29 40t-43 33.5t-56 17.5q0 -31 -0.5 -59t-0.5 -56t-0.5 -57.5t-0.5 -62.5q39 -19 75 -36.5t63 -41.5t43.5 -58t16.5 -85z" />
    <glyph glyph-name="percent" unicode="%" horiz-adv-x="572" 
d="M470 157q0 69 -17.5 109t-44.5 40q-28 0 -47 -37.5t-19 -106.5q-1 -76 17.5 -112t44.5 -36q29 0 47 36t19 107zM206 520q1 69 -16 109.5t-45 40.5t-46.5 -38.5t-19.5 -107.5q-1 -76 18 -110.5t45 -35.5q27 -1 45 35t19 107zM540 158q0 -42 -12 -73.5t-31.5 -52.5
t-43.5 -31t-49 -10q-26 0 -49.5 11t-42 32t-29.5 52t-11 72q0 38 10.5 69t28.5 53.5t43 34.5t54 12q27 0 51 -12.5t42 -34.5t28.5 -53.5t10.5 -68.5zM490 680q-18 -29 -48.5 -83t-67.5 -121t-76.5 -140t-75 -139t-62.5 -118.5t-39 -78.5h-60q17 27 47.5 81t67 120.5
t76.5 140t75 139.5t62.5 119.5t40.5 79.5h60zM277 522q0 -42 -12 -74t-31 -53t-43 -31.5t-49 -10.5q-26 0 -49.5 11t-42.5 32.5t-30 53t-11 72.5q0 38 10.5 69t29 52.5t43.5 33.5t53 12q27 0 51 -12t42 -34t28.5 -53t10.5 -68z" />
    <glyph glyph-name="ampersand" unicode="&#x26;" horiz-adv-x="564" 
d="M182 338q-12 -8 -26 -20t-26.5 -29.5t-21 -40.5t-8.5 -51q0 -47 25.5 -84t64 -52.5t83.5 -4t83 61.5zM311 546q0 12 -4.5 30.5t-15 35t-27 28.5t-40.5 12q-14 0 -28 -5.5t-25.5 -16t-19 -26t-7.5 -35.5q0 -33 22 -66t67 -84q34 23 56 52t22 75zM445 0q-8 11 -18.5 25
t-20.5 27q-11 15 -24 30q-40 -44 -82.5 -65.5t-83.5 -25t-78 9t-65 37t-44.5 58.5t-16.5 73q0 71 41 120.5t101 79.5q-13 16 -29 35.5t-30 41.5t-23.5 45.5t-9.5 47.5q0 33 12.5 61t34.5 47.5t53 30.5t67 11q37 0 67 -10.5t51 -28.5t32.5 -42.5t11.5 -52.5q0 -32 -13 -57
t-33 -45t-43.5 -35.5t-44.5 -27.5l150 -193q9 15 19 46t12.5 64t-8 60t-41.5 33h101q17 -100 -54 -238q19 -24 38.5 -50t38 -49t35.5 -40t31 -23h-134z" />
    <glyph glyph-name="quotesingle" unicode="'" horiz-adv-x="136" 
d="M115 640q0 -9 -6.5 -30t-15 -43t-16.5 -38.5t-11 -16.5t-11 16.5t-17 38.5t-15.5 43t-6.5 30q0 21 14 35t36 14q20 0 34.5 -14t14.5 -35z" />
    <glyph glyph-name="parenleft" unicode="(" horiz-adv-x="248" 
d="M183 -129q-35 17 -67.5 67.5t-57.5 117.5t-39.5 142t-14.5 140q0 66 15.5 137.5t41 134.5t57.5 109t65 61q-42 -100 -66 -208t-24 -234q0 -125 22.5 -238.5t67.5 -228.5z" />
    <glyph glyph-name="parenright" unicode=")" horiz-adv-x="248" 
d="M221 338q0 -65 -15 -140t-39.5 -142t-57 -117.5t-67.5 -67.5q45 115 68 228.5t23 238.5q0 126 -23.5 234t-67.5 208q33 -15 65 -61t57.5 -109t41 -134.5t15.5 -137.5z" />
    <glyph glyph-name="asterisk" unicode="*" horiz-adv-x="292" 
d="M262 597q4 -14 -1.5 -23.5t-14.5 -11.5t-33 -5.5t-45 -3.5q0 -4 -1.5 -9.5t-4.5 -9.5q9 -6 18 -13.5t17 -15t13.5 -14.5t7.5 -11q7 -8 5.5 -19.5t-10.5 -16.5q-9 -8 -20.5 -5.5t-16.5 10.5q-5 7 -15.5 29t-17.5 42q-4 -1 -9.5 -1h-9.5q-7 -20 -18 -41t-15 -29
q-7 -8 -18 -10t-20 5q-9 6 -10.5 17t5.5 19q2 4 8 10.5t14 14t17 14.5t18 13q-5 10 -5 20q-23 0 -46.5 4t-31.5 6q-11 2 -16.5 12.5t-1.5 22.5q4 11 15 14.5t20 0.5q8 -2 28.5 -13t37.5 -25q3 4 7.5 7.5t9.5 4.5q-6 20 -10.5 44t-4.5 33q0 11 7 18.5t19 7.5q13 0 20.5 -7.5
t7.5 -18.5q0 -9 -5 -33t-13 -44q11 -2 16 -10q9 6 19.5 12t20.5 11t18 8.5t12 4.5q11 3 20.5 -1.5t12.5 -13.5z" />
    <glyph glyph-name="plus" unicode="+" horiz-adv-x="429" 
d="M230 311v-168h-56v168h-145v56h145v169h56v-169h144v-56h-144z" />
    <glyph glyph-name="comma" unicode="," horiz-adv-x="136" 
d="M126 26q0 -21 -8 -39.5t-20 -33t-26.5 -23t-27.5 -10.5q-5 -2 -6.5 1.5t6.5 5.5q4 1 11.5 7t14.5 15.5t11.5 21.5t3.5 25q-2 -1 -5.5 -1h-5.5q-20 0 -34.5 14.5t-14.5 33.5q0 12 5 21.5t12.5 15.5t16 9t15.5 3q26 0 39 -18t13 -48z" />
    <glyph glyph-name="hyphen" unicode="-" horiz-adv-x="219" 
d="M4 231v63h186v-63h-186z" />
    <glyph glyph-name="hyphen" unicode="&#xad;" horiz-adv-x="219" 
d="M4 231v63h186v-63h-186z" />
    <glyph glyph-name="period" unicode="." horiz-adv-x="133" 
d="M125 43q0 -20 -14 -34t-34 -14q-21 0 -36 14t-15 34q0 21 15 35t36 14q20 0 34 -14t14 -35z" />
    <glyph glyph-name="slash" unicode="/" horiz-adv-x="401" 
d="M378 680q-14 -29 -40 -91.5t-59 -142t-68.5 -166.5t-67 -166t-55.5 -141t-34 -90h-68q10 21 28 62t40.5 94.5t48 115.5t51.5 126t51 126.5t46 115.5t36.5 94t22.5 63h68z" />
    <glyph glyph-name="zero" unicode="0" horiz-adv-x="578" 
d="M435 336q1 73 -10.5 131t-32.5 98.5t-49.5 62t-62.5 21.5q-35 0 -64.5 -20t-51.5 -59t-34.5 -95.5t-13.5 -129.5q-1 -81 10.5 -139.5t32.5 -96.5t49.5 -56t62.5 -18q71 0 116.5 75.5t47.5 225.5zM543 341q0 -90 -24 -156t-62.5 -109t-87 -64t-96.5 -21q-50 0 -97 22.5
t-84.5 66t-60 108.5t-22.5 151q0 80 22 144.5t58.5 110.5t85.5 70.5t103 24.5q53 0 101 -25t84.5 -70.5t58 -110t21.5 -142.5z" />
    <glyph glyph-name="one" unicode="1" horiz-adv-x="234" 
d="M28 0q13 7 22 17.5t9 27.5v501q0 20 -5.5 32t-14 18t-20 6.5t-23.5 -0.5l157 87v-644q0 -17 9 -27.5t21 -17.5h-155z" />
    <glyph glyph-name="two" unicode="2" horiz-adv-x="428" 
d="M-34 0q6 9 24.5 30.5t44.5 51t56.5 63.5t60 69.5t56.5 69.5t45 62t30.5 61t12.5 75q0 30 -8.5 56t-24.5 44.5t-39.5 29.5t-52.5 11q-39 0 -78 -20.5t-82 -71.5q3 24 18 51.5t41 51.5t62 39.5t81 15.5q46 0 80.5 -18t57 -45.5t33.5 -60.5t11 -62q0 -50 -22.5 -93.5
t-51.5 -75.5l-228 -254h60h81.5h75h40.5q14 0 22 4.5t13 11t8 14.5t6 15l7 -125h-440z" />
    <glyph glyph-name="three" unicode="3" horiz-adv-x="385" 
d="M364 205q0 -36 -13 -74t-40.5 -69t-70 -51t-100.5 -20q-37 0 -64.5 8t-47 20.5t-33 27.5t-22.5 28q18 -9 32 -15.5t28 -11.5t29 -7.5t33 -2.5q40 0 71 13t52.5 35t33 51.5t11.5 62.5q0 26 -9.5 52t-33 47.5t-63.5 38t-102 24.5q36 17 72 35t55 36q18 17 29 39t11 52
q0 28 -12 48.5t-28.5 34t-34.5 20t-31 6.5q-32 0 -56.5 -11t-50.5 -34q5 13 18 30.5t33 33t46.5 26.5t57.5 11q29 0 56 -11t48 -30.5t33.5 -46t12.5 -56.5q0 -29 -11.5 -52t-30 -41.5t-42 -32.5t-47.5 -24q50 -5 84.5 -25t56 -47t31 -58.5t9.5 -59.5z" />
    <glyph glyph-name="four" unicode="4" horiz-adv-x="483" 
d="M285 536l-207 -242h207v242zM377 230v-185q0 -17 9 -27.5t23 -17.5h-154q12 7 21 17.5t9 27.5v185h-322l414 475v-411h85v-64h-85z" />
    <glyph glyph-name="five" unicode="5" horiz-adv-x="407" 
d="M373 228q0 -57 -20.5 -101t-53.5 -74t-73.5 -46t-80.5 -16q-44 0 -74 11.5t-49 28t-29.5 34t-14.5 29.5q29 -23 56.5 -38.5t65.5 -15.5q39 0 70.5 13.5t53.5 37t34 54.5t12 66t-12.5 65t-34 51.5t-51 34t-62.5 12.5q-32 0 -49.5 -4.5t-39.5 -16.5l54 324h223q28 0 39 5
t22 16l-12 -105h-239l-29 -172q14 6 28.5 9t26.5 5q14 2 28 2q33 0 70.5 -13.5t68.5 -39.5t51.5 -65.5t20.5 -90.5z" />
    <glyph glyph-name="six" unicode="6" horiz-adv-x="512" 
d="M387 216q0 18 -6 48.5t-21.5 60.5t-42.5 51.5t-69 21.5q-32 0 -57.5 -13t-43 -35.5t-27 -53t-9.5 -65.5q0 -45 11.5 -81t31 -60.5t44 -38t50.5 -13.5q52 0 80 24t41 54.5t15.5 59.5t2.5 40zM483 230q0 -63 -22.5 -108t-56.5 -74t-75 -43t-77 -14q-63 0 -108.5 24.5
t-75 67t-44 100t-14.5 123.5q0 64 21 132t58.5 124t88.5 92.5t112 36.5q25 0 47 -5t39 -13.5t28.5 -19t15.5 -20.5q-11 6 -19.5 10t-18.5 6.5t-22.5 3.5t-31.5 1q-46 0 -83 -25.5t-64 -65.5t-44 -88t-21 -94q23 30 61.5 49t100.5 19q34 0 70 -14.5t66 -42t49.5 -68.5
t19.5 -94z" />
    <glyph glyph-name="seven" unicode="7" horiz-adv-x="391" 
d="M402 680q-1 -1 -12 -30t-28 -76.5t-39 -108t-44.5 -124t-44 -124.5t-38 -110t-26 -80.5t-8.5 -35.5h-93q13 24 30 62.5t36 85.5t38.5 99t38.5 103q44 120 91 256h-272q-21 0 -33 -12.5t-19 -25.5v121h423z" />
    <glyph glyph-name="eight" unicode="8" horiz-adv-x="479" 
d="M355 165q0 41 -16.5 67.5t-42 45t-56.5 32t-61 28.5q-37 -21 -63.5 -58.5t-26.5 -95.5q0 -48 19.5 -81t49.5 -50t64 -18.5t64 12.5t49.5 43.5t19.5 74.5zM334 543q0 17 -6 36t-18.5 35t-33 26.5t-48.5 10.5q-22 0 -41.5 -7t-34.5 -19.5t-23.5 -31.5t-8.5 -43
q0 -29 12.5 -51t32.5 -38.5t44 -28t47 -20.5q34 19 56 49.5t22 81.5zM445 195q0 -67 -32.5 -112t-81 -68t-105.5 -24t-105.5 20.5t-81 65t-32.5 109.5q0 35 11.5 62.5t30.5 48t43.5 35.5t51.5 26q-18 11 -36.5 26.5t-33.5 36t-24.5 46t-9.5 57.5q0 34 13 64t38 52.5
t60.5 35.5t79.5 13q29 0 60.5 -9.5t58 -27.5t43.5 -45.5t17 -63.5q0 -32 -10.5 -56t-27 -41.5t-37.5 -30.5t-41 -22q32 -13 59.5 -32.5t48 -44.5t32 -55.5t11.5 -65.5z" />
    <glyph glyph-name="nine" unicode="9" horiz-adv-x="514" 
d="M378 451q0 45 -11.5 81t-30.5 60.5t-44 38t-52 13.5q-34 0 -57.5 -11t-39 -28.5t-23.5 -39t-12 -41t-4.5 -35.5t-0.5 -23q0 -18 5.5 -49t20.5 -61t42 -52t69 -22q32 0 57.5 13.5t43.5 36.5t27.5 53.5t9.5 65.5zM479 376q0 -67 -21 -135.5t-58.5 -124t-90 -90.5
t-114.5 -35q-52 0 -85 17.5t-42 40.5q11 -6 19.5 -10.5t18 -7t21.5 -4t30 -1.5q48 0 86.5 26t65.5 66t43 89t21 96q-24 -32 -62 -50t-100 -18q-34 0 -70.5 14t-66.5 41.5t-49 68t-19 93.5q0 63 22.5 108t57 73.5t75.5 42t78 13.5q62 0 107 -26.5t74.5 -70t44 -100
t14.5 -116.5z" />
    <glyph glyph-name="colon" unicode=":" horiz-adv-x="145" 
d="M130 43q0 -20 -14 -34t-34 -14q-21 0 -36 14t-15 34q0 21 15 35t36 14q20 0 34 -14t14 -35zM131 416q0 -20 -14.5 -34.5t-34.5 -14.5q-21 0 -35.5 14.5t-14.5 34.5q0 21 14.5 35.5t35.5 14.5q20 0 34.5 -14.5t14.5 -35.5z" />
    <glyph glyph-name="semicolon" unicode=";" horiz-adv-x="145" 
d="M129 26q0 -21 -8 -39.5t-20 -33t-26.5 -23t-27.5 -10.5q-5 -2 -6.5 1.5t6.5 5.5q4 1 11.5 7t14.5 15.5t11.5 21.5t3.5 25q-2 -1 -5.5 -1h-5.5q-20 0 -34.5 14.5t-14.5 33.5q0 12 5 21.5t12.5 15.5t16 9t15.5 3q26 0 39 -18t13 -48zM131 416q0 -20 -14.5 -34.5
t-34.5 -14.5q-21 0 -35.5 14.5t-14.5 34.5q0 21 14.5 35.5t35.5 14.5q20 0 34.5 -14.5t14.5 -35.5z" />
    <glyph glyph-name="semicolon" unicode="&#x37e;" horiz-adv-x="145" 
d="M129 26q0 -21 -8 -39.5t-20 -33t-26.5 -23t-27.5 -10.5q-5 -2 -6.5 1.5t6.5 5.5q4 1 11.5 7t14.5 15.5t11.5 21.5t3.5 25q-2 -1 -5.5 -1h-5.5q-20 0 -34.5 14.5t-14.5 33.5q0 12 5 21.5t12.5 15.5t16 9t15.5 3q26 0 39 -18t13 -48zM131 416q0 -20 -14.5 -34.5
t-34.5 -14.5q-21 0 -35.5 14.5t-14.5 34.5q0 21 14.5 35.5t35.5 14.5q20 0 34.5 -14.5t14.5 -35.5z" />
    <glyph glyph-name="less" unicode="&#x3c;" horiz-adv-x="429" 
d="M31 315v50l343 200v-64l-282 -162l282 -158v-64z" />
    <glyph glyph-name="equal" unicode="=" horiz-adv-x="429" 
d="M29 247v56h345v-56h-345zM29 376v56h345v-56h-345z" />
    <glyph glyph-name="greater" unicode="&#x3e;" horiz-adv-x="429" 
d="M33 117v64l282 158l-282 162v64l344 -200v-50z" />
    <glyph glyph-name="question" unicode="?" horiz-adv-x="371" 
d="M179 43q0 -20 -14.5 -34t-34.5 -14q-21 0 -36 14t-15 34q0 21 15 35t36 14q20 0 34.5 -14t14.5 -35zM333 553q0 -26 -12 -57t-32 -64.5t-45 -68.5t-51 -69q-15 -20 -25 -34.5t-17 -29.5t-12.5 -32.5t-12.5 -42.5q-4 13 -8 29q-3 14 -5 32.5t-2 41.5q0 27 6.5 46t21.5 42
q6 9 22.5 35t34 58.5t31.5 65t14 54.5q0 43 -24.5 67.5t-57.5 24.5q-15 0 -33 -4.5t-36 -19.5t-33.5 -43t-25.5 -76l-2 131q28 29 64.5 41.5t81.5 12.5q24 0 51.5 -6t51 -21.5t39.5 -43t16 -69.5z" />
    <glyph glyph-name="at" unicode="@" horiz-adv-x="720" 
d="M483 448q-2 13 -9 24q-6 9 -19 16.5t-35 7.5q-29 0 -60.5 -18.5t-58 -50.5t-43.5 -74.5t-17 -90.5q0 -50 23 -83.5t76 -33.5q20 0 44 8.5t41 23.5zM722 357q0 -63 -15.5 -116t-42 -92t-61.5 -61t-74 -22q-33 0 -52.5 9t-30 22t-15 26.5t-6.5 21.5q-19 -13 -39 -23
q-18 -9 -40.5 -16t-45.5 -7q-40 0 -67.5 12.5t-45 33.5t-25.5 49t-8 58q0 45 18.5 94.5t53 91t85 68t113.5 26.5q29 0 52.5 -9.5t29.5 -11.5q3 1 14.5 3.5t24.5 4.5q15 3 32 6l-62 -292q-10 -46 -10 -68q0 -17 13 -32t39 -15q23 0 46.5 20t42 53t30.5 76.5t12 91.5
q0 61 -21.5 113.5t-61 91t-94.5 60.5t-122 22q-68 0 -130 -24t-109 -69t-74.5 -109t-27.5 -144q0 -78 23.5 -144t65.5 -114.5t101.5 -77t131.5 -32.5v-12q-87 0 -158.5 24.5t-122.5 72.5t-79.5 118t-28.5 162q0 89 29.5 162.5t83 126t127 81.5t160.5 29q94 0 159 -32.5
t105.5 -82.5t58.5 -109.5t18 -114.5z" />
    <glyph glyph-name="A" unicode="A" horiz-adv-x="559" 
d="M353 245q-20 48 -39.5 97t-36.5 90q-19 48 -37 93q-21 -51 -40 -100q-17 -43 -36 -91t-36 -89h225zM410 0q20 9 25.5 20.5t-0.5 28.5q-5 9 -23.5 52t-41.5 101h-259q-12 -28 -23 -54t-19.5 -46.5t-14 -34.5t-6.5 -18q-6 -17 -2.5 -29t23.5 -20h-122q21 14 30 24.5
t16 24.5l16.5 38.5t33.5 78.5t44 104.5t49 116.5q58 138 131 309q72 -171 131 -309q25 -59 49 -116.5t44 -104.5t33.5 -78.5l16.5 -38.5q6 -16 15 -26.5t35 -22.5h-181z" />
    <glyph glyph-name="B" unicode="B" horiz-adv-x="544" 
d="M408 198q0 44 -15.5 72t-41 43.5t-57 21.5t-62.5 6q-12 0 -26 -0.5t-26 -0.5q-14 -1 -28 -1v-296q6 -1 13 -2q6 -1 14.5 -1h19.5q24 0 59.5 3.5t68.5 19.5t57 47.5t24 87.5zM356 519q0 33 -12.5 55.5t-32 37t-44 21t-49.5 6.5q-17 0 -29 -0.5t-20 -0.5q-10 -1 -17 -1
v-252q5 -1 12 -1q5 -1 13 -1h17q18 0 46 3.5t53.5 17t44 41t18.5 74.5zM514 188q0 -29 -12 -62t-42 -61t-82 -46.5t-132 -18.5h-216q28 14 28 45v590q0 33 -28 45h190q17 0 40.5 -2t49.5 -8t51 -17t45 -28t32.5 -41.5t12.5 -58.5q0 -45 -21 -74.5t-47 -48.5q-30 -22 -67 -35
q55 -7 99 -28q18 -9 36 -22t32 -31.5t22.5 -42.5t8.5 -55z" />
    <glyph glyph-name="C" unicode="C" horiz-adv-x="679" 
d="M642 197q1 1 -0.5 -20.5t-3.5 -47.5q-3 -31 -5 -70q-63 -38 -129 -53t-123 -15q-74 0 -141.5 25t-118.5 70.5t-81.5 109.5t-30.5 142q0 64 24 126.5t72 112.5t120 81t167 31q63 0 120 -15.5t116 -41.5q2 -43 5 -76q1 -14 1.5 -27.5t1.5 -23.5t1 -16t0 -5q-24 55 -57 87.5
t-67 49.5t-64.5 21.5t-48.5 4.5q-72 0 -126 -23.5t-90 -64t-54.5 -94t-18.5 -114.5q0 -54 15.5 -110t50 -102t89.5 -75t133 -29q17 0 46.5 3t63.5 18.5t69 48t64 92.5z" />
    <glyph glyph-name="D" unicode="D" horiz-adv-x="704" 
d="M564 351q0 46 -14.5 96.5t-47.5 92.5t-86.5 69.5t-131.5 27.5h-32.5h-36.5t-34 -0.5t-24 -1.5v-590q27 -2 58.5 -2h54.5q85 0 142 27t90.5 71t47.5 99t14 111zM668 351q0 -60 -23 -122.5t-71.5 -113t-125 -83t-183.5 -32.5h-230q12 7 19 17.5t7 27.5v590q0 32 -26 45h249
q83 0 143.5 -18.5t103.5 -47.5t69.5 -65.5t41.5 -73.5t20.5 -69.5t5.5 -54.5z" />
    <glyph glyph-name="E" unicode="E" horiz-adv-x="455" 
d="M431 0h-402q14 7 22 17t8 28v590q0 17 -8 28t-20 17h376l2 -78q-15 17 -33.5 26t-50.5 9h-35t-58 1q-36 0 -79 1v-241h163q11 0 21 9.5t14 18.5v-97q-4 9 -14 18.5t-21 9.5h-163v-308q17 -2 49 -4t67 -2q40 0 68.5 1t49.5 7t36 18.5t29 36.5z" />
    <glyph glyph-name="F" unicode="F" 
d="M431 597q-11 18 -29.5 27.5t-55.5 10.5q-9 0 -40 0.5t-65 1.5q-40 1 -86 2v-241h165q11 0 21 9.5t14 18.5v-97q-4 9 -14 18.5t-21 9.5h-165l-2 -312q0 -18 8 -28t22 -17h-152q14 7 21 17t7 28v590q0 17 -8 28t-20 17h399z" />
    <glyph glyph-name="G" unicode="G" horiz-adv-x="726" 
d="M691 289q-12 -7 -19.5 -17.5t-7.5 -27.5v-133q0 -16 6.5 -28.5t7.5 -14.5q-31 -19 -71 -33.5t-80.5 -24t-79 -14.5t-66.5 -5q-74 0 -141.5 25t-119 70.5t-82 109.5t-30.5 142q0 64 24 126.5t72.5 112.5t120.5 81t168 31q62 0 119.5 -15.5t117.5 -41.5q1 -41 3 -74
q2 -28 3 -51.5t1 -24.5q-20 54 -52.5 86.5t-67 50t-66 23t-49.5 5.5q-72 0 -126 -23.5t-90.5 -64t-54.5 -94t-18 -114.5q0 -54 15 -110t49 -102t88.5 -75t132.5 -29q11 0 30 1t42.5 6t49 14t49.5 26v162q0 17 -7.5 27.5t-18.5 17.5h148z" />
    <glyph glyph-name="H" unicode="H" horiz-adv-x="681" 
d="M475 0q12 7 19 17.5t7 27.5v312h-348v-312q0 -17 7.5 -27.5t18.5 -17.5h-148q12 7 19 17.5t7 27.5v590q0 32 -26 45h148q-11 -6 -18.5 -17t-7.5 -28v-237h348v237q0 32 -26 45h148q-26 -12 -26 -45v-590q0 -31 26 -45h-148z" />
    <glyph glyph-name="I" unicode="I" horiz-adv-x="241" 
d="M33 0q12 7 19.5 17.5t7.5 27.5v590q0 17 -7.5 28t-19.5 17h148q-11 -6 -18.5 -17t-7.5 -28v-590q0 -17 7.5 -27.5t18.5 -17.5h-148z" />
    <glyph glyph-name="J" unicode="J" horiz-adv-x="227" 
d="M176 680q-11 -6 -18.5 -17t-7.5 -28v-515q0 -13 -3.5 -40.5t-13 -61.5t-28 -71.5t-48.5 -70.5t-74 -58t-104 -34l24 12t35.5 22.5t40 37.5t37 58t27.5 83.5t11 113.5v524q0 32 -27 45h149z" />
    <glyph glyph-name="K" unicode="K" horiz-adv-x="561" 
d="M428 0q11 5 13.5 12t0.5 14q-1 3 -21 27t-50.5 57.5t-66.5 72.5t-68 73.5t-55 59.5t-28 30v-301q0 -17 8.5 -27.5t19.5 -17.5h-149q11 7 19 17.5t8 27.5v590q0 17 -8 28t-19 17h149q-11 -6 -19.5 -17t-8.5 -28v-266q5 4 28 25.5t54 51.5t66.5 64.5t65.5 64t50.5 51
t21.5 25.5q2 11 0.5 16t-11.5 13h147q-20 -6 -42 -17t-35 -23l-256 -250l324 -357q17 -20 52 -33h-190z" />
    <glyph glyph-name="L" unicode="L" horiz-adv-x="451" 
d="M429 0h-398q13 7 20.5 17.5t7.5 27.5v590q0 32 -28 45h150q-12 -6 -19.5 -17t-7.5 -28v-585q16 -2 44 -5t63 -2q45 0 75 1.5t51 7.5t35 18.5t27 35.5z" />
    <glyph glyph-name="M" unicode="M" horiz-adv-x="784" 
d="M578 0q12 7 19 17.5t7 27.5v519q0 10 1 14q0 4 1 7l-7 -23l-247 -576l-242 560l-9 26q0 -6 1 -10q0 -4 0.5 -8.5t0.5 -7.5v-501q0 -17 8 -27.5t20 -17.5h-101q12 7 19 17.5t7 27.5v590q0 14 -9 26.5t-22 18.5h135l220 -513l217 513h129q-26 -13 -26 -45v-590
q0 -17 7 -27.5t19 -17.5h-148z" />
    <glyph glyph-name="N" unicode="N" horiz-adv-x="659" 
d="M608 680q-12 -6 -19.5 -17t-7.5 -28v-654q-133 162 -238 290q-45 55 -87.5 107.5t-76 94.5t-54 68t-20.5 28v-524q0 -31 28 -45h-101q11 7 18.5 17.5t7.5 27.5v552v17.5t-1.5 11t-4 8.5t-6.5 10q-8 9 -18.5 18.5t-27.5 17.5h138l395 -487v442q0 17 -7.5 28t-18.5 17h101z
" />
    <glyph glyph-name="O" unicode="O" horiz-adv-x="774" 
d="M630 331q0 72 -18.5 130.5t-52.5 100t-81.5 63.5t-103.5 22t-103 -20t-82 -57.5t-54.5 -91.5t-19.5 -123q0 -82 23.5 -142t61 -99t84 -58t92.5 -19q55 0 101.5 20.5t80.5 59t53 92.5t19 122zM740 334q-2 -86 -37 -150.5t-89 -108t-119 -65t-128 -19.5q-73 2 -139 29.5
t-116 75t-78.5 112.5t-26.5 142q1 61 27.5 122.5t75 110t118.5 78.5t159 28q62 -2 125.5 -25.5t114.5 -68t83 -110.5t30 -151z" />
    <glyph glyph-name="P" unicode="P" horiz-adv-x="485" 
d="M372 492q0 69 -38.5 108.5t-114.5 39.5q-17 0 -30 -0.5t-21 -0.5h-16v-296q16 -7 49 -7q20 0 49.5 5t56.5 21.5t46 47.5t19 82zM471 494q0 -41 -14.5 -71.5t-34 -52.5t-39.5 -35t-32 -18t-33.5 -11t-48.5 -9t-57.5 -0.5t-59.5 14.5v-266q0 -17 7.5 -27.5t20.5 -17.5h-149
q11 7 19.5 17.5t8.5 27.5v590q0 17 -8.5 28t-19.5 17h191q75 0 123.5 -18t76 -45.5t38.5 -60.5t11 -62z" />
    <glyph glyph-name="Q" unicode="Q" horiz-adv-x="777" 
d="M632 331q0 72 -19 130.5t-53 100t-81 63.5t-103 22t-103 -20t-82 -57.5t-54.5 -91.5t-19.5 -123q0 -82 23.5 -142t60.5 -99t83.5 -58t93.5 -19q55 0 101.5 20.5t80.5 59t53 92.5t19 122zM816 -183q-63 -15 -127 -12t-125.5 24.5t-118 62t-104.5 101.5q-69 6 -130 35
t-106.5 75.5t-71.5 109t-24 135.5q1 61 27 123t74.5 111t117.5 79t158 28q63 -2 127 -25.5t115 -68t83 -109.5t30 -150q-2 -76 -30.5 -135.5t-72.5 -102.5t-99.5 -68.5t-110.5 -32.5q99 -70 197 -110t191 -70z" />
    <glyph glyph-name="R" unicode="R" horiz-adv-x="563" 
d="M362 510q0 18 -6 40.5t-21 42.5t-41 33.5t-66 13.5q-17 0 -30.5 -0.5t-23.5 -1.5q-11 -1 -21 -1v-275q9 -1 19 -1q8 -1 18.5 -1h20.5q28 0 55.5 8.5t48.5 27t34 47t13 67.5zM514 -2q-29 -1 -50 15t-32 32q-38 57 -67 103.5t-55 88.5q-10 15 -19.5 30t-20.5 26.5t-25.5 19
t-33.5 7.5h-58v-275q0 -17 8.5 -27.5t19.5 -17.5h-149q11 7 19 17.5t8 27.5v590q0 17 -8 28t-19 17h188q75 0 122.5 -17t74 -42.5t36.5 -54.5t10 -53q0 -41 -16 -71.5t-40 -51.5t-51.5 -32t-50.5 -13q20 -4 35.5 -13t27.5 -20t20 -22.5t14 -19.5q31 -51 59 -97
q12 -20 24.5 -39.5t24.5 -37.5t23 -32.5t19 -23.5t19 -16.5t21 -12.5q11 -6 24 -11z" />
    <glyph glyph-name="S" unicode="S" horiz-adv-x="455" 
d="M424 195q0 -47 -19.5 -84.5t-51 -64t-71 -41t-79.5 -14.5q-33 0 -61 6t-51 14.5t-41.5 18t-32.5 17.5l-3 150q8 -27 22.5 -56t36.5 -53t52.5 -39.5t70.5 -15.5t66.5 14t42 34.5t21.5 44t6 41.5q0 36 -13 59.5t-35.5 40.5t-53.5 31.5t-67 32.5q-73 37 -109.5 78t-36.5 103
q0 45 19 78.5t49 55t66.5 32.5t72.5 11q28 0 68 -7.5t75 -30.5l5 -132q-5 18 -17.5 40.5t-33 42.5t-48.5 33.5t-63 13.5q-32 0 -53.5 -10.5t-34 -26.5t-18 -34.5t-5.5 -34.5q0 -24 7.5 -41t24 -31.5t42.5 -29t62 -32.5l70 -35t60.5 -40t42.5 -56t16 -83z" />
    <glyph glyph-name="T" unicode="T" horiz-adv-x="511" 
d="M507 593q-8 12 -20 25t-32 14q-26 1 -54 3q-24 2 -53 3t-56 1v-594q0 -17 7 -27.5t19 -17.5h-148q26 14 26 45v594q-29 0 -57.5 -1t-52.5 -3q-28 -2 -54 -3q-18 -1 -31.5 -14t-20.5 -25v87h526z" />
    <glyph glyph-name="U" unicode="U" horiz-adv-x="601" 
d="M562 680q-12 -6 -19.5 -17t-7.5 -28l-3 -419q0 -62 -19 -104.5t-50.5 -69.5t-73 -39t-88.5 -12q-41 0 -85.5 11t-81.5 37t-60.5 69t-23.5 106v421q0 17 -10 28t-21 17h160q-12 -6 -22.5 -17t-10.5 -28v-423q0 -26 6 -56.5t23.5 -57t50 -44t85.5 -17.5q50 0 84 14.5
t54.5 39t29 56t8.5 65.5l-4 423q0 32 -26 45h105z" />
    <glyph glyph-name="V" unicode="V" horiz-adv-x="511" 
d="M534 680q-10 -6 -15 -11t-8.5 -10t-6 -11t-6.5 -16q-3 -8 -15.5 -40t-30.5 -79.5t-40.5 -106t-44.5 -118.5q-53 -141 -118 -314l-126 315q-24 60 -47.5 118.5t-43 106t-33 79.5t-16.5 39q-8 15 -17.5 27t-34.5 21h182q-20 -8 -22 -24t3 -35q0 -1 8 -21t20.5 -52.5
t28.5 -74.5t33 -85q39 -102 89 -231l88 236q16 44 32 86.5t28.5 76.5t20 54.5t7.5 21.5q7 18 4 29t-21 19h102z" />
    <glyph glyph-name="W" unicode="W" horiz-adv-x="750" 
d="M786 680q-10 -6 -17 -11t-12.5 -11t-10 -13.5t-8.5 -18.5l-246 -652q-23 62 -46 123q-20 52 -42.5 110t-40.5 104l-123 -337q-71 175 -128 316q-24 60 -48 118t-43 105t-31.5 78t-14.5 37q-8 18 -19 30.5t-35 21.5h183q-20 -8 -23 -26t6 -35l184 -466l70 214
q-14 37 -32 81t-34.5 83t-28 67.5t-13.5 33.5q-5 14 -14.5 26.5t-34.5 21.5h176q-18 -8 -20.5 -26t4.5 -35l53 -132l52 143q7 18 4.5 31t-22.5 19h106q-10 -6 -16.5 -11t-11 -10.5t-8 -12t-7.5 -16.5l-75 -197l101 -280l165 470q7 20 4 34.5t-23 22.5h120z" />
    <glyph glyph-name="X" unicode="X" horiz-adv-x="507" 
d="M349 -2q19 8 27 21.5t-9 41.5l-146 235l-164 -247q-5 -12 -3.5 -27.5t22.5 -23.5h-141q24 12 38 24.5t28 33.5q36 49 71 99q30 42 63.5 91.5t59.5 91.5l-183 290q-14 23 -29.5 32t-38.5 20h202q-9 -4 -16.5 -8.5t-10.5 -11.5t-0.5 -17t11.5 -25l124 -195l130 209
q8 12 4.5 26t-23.5 22h132q-21 -9 -33.5 -20t-23.5 -28l-160 -251l209 -332q8 -13 13 -20.5t10.5 -12t13 -8.5t20.5 -10h-197z" />
    <glyph glyph-name="Y" unicode="Y" horiz-adv-x="466" 
d="M490 680q-22 -9 -35.5 -23t-23.5 -32l-162 -303v-277q0 -17 11.5 -27.5t25.5 -17.5h-171q12 7 24.5 17t12.5 28v273l-191 314q-11 19 -23 28t-33 20h193q-9 -4 -16 -7.5t-10.5 -10t-1.5 -17t12 -27.5l146 -247l136 261q11 20 5.5 31t-26.5 17h127z" />
    <glyph glyph-name="Z" unicode="Z" horiz-adv-x="488" 
d="M112 43q10 0 43 -0.5t75.5 0t87 3t79.5 8.5q30 5 45 23t21 33l-1 -110h-488l367 639q-40 0 -80 1t-76 0.5t-66 -2.5t-49 -8q-29 -8 -45.5 -24.5t-24.5 -33.5v108h475z" />
    <glyph glyph-name="bracketleft" unicode="[" horiz-adv-x="220" 
d="M44 -130v835h120v-26h-38v-785h38v-24h-120z" />
    <glyph glyph-name="backslash" unicode="\" horiz-adv-x="488" 
d="M399 0q-12 26 -41.5 78.5t-68.5 118.5t-83 138.5t-84.5 139.5t-73.5 121.5t-49 83.5h66q11 -27 40.5 -80t68.5 -119.5t83.5 -139.5t85 -139.5t73 -120t47.5 -81.5h-64z" />
    <glyph glyph-name="bracketright" unicode="]" horiz-adv-x="220" 
d="M35 -130v24h40v785h-38v26h120v-835h-122z" />
    <glyph glyph-name="asciicircum" unicode="^" horiz-adv-x="381" 
d="M293 338l-114 278l-117 -278h-56l147 342h50l143 -342h-53z" />
    <glyph glyph-name="underscore" unicode="_" horiz-adv-x="439" 
d="M73 -70v56h341v-56h-341z" />
    <glyph glyph-name="grave" unicode="`" horiz-adv-x="292" 
d="M211 503q-4 -3 -23 6t-42 20q-26 13 -58 31q-12 5 -24.5 15.5t-12.5 26.5t10.5 26.5t24.5 10.5q16 0 29 -12t21 -23q22 -27 39 -48q14 -18 26 -34.5t10 -18.5z" />
    <glyph glyph-name="a" unicode="a" 
d="M279 261q-24 -12 -48 -19t-59 -19q-35 -13 -59 -34t-24 -59q0 -40 20.5 -61.5t55.5 -21.5q37 0 65 15t49 37v162zM315 -10q-17 11 -25.5 24.5t-9.5 49.5q-12 -12 -27.5 -25t-35.5 -23.5t-43 -17.5t-50 -7q-33 0 -56 13t-37.5 32t-20.5 40t-6 37q0 29 14 59t53 54
q20 12 50 21.5t60.5 18.5t56 18.5t37.5 21.5q1 1 2 7.5t1.5 13.5t0.5 13v8q0 16 -4.5 31.5t-15 28t-26.5 20t-40 7.5q-32 0 -55 -11t-40 -30t-28.5 -43.5t-20.5 -51.5l-2 124q14 9 29 18t33.5 16t42 11.5t53.5 4.5q22 0 49 -4.5t51 -19t40.5 -41t16.5 -70.5v-268
q0 -19 3 -30t27 -16z" />
    <glyph glyph-name="b" unicode="b" horiz-adv-x="498" 
d="M370 238q0 54 -13 89t-33 55.5t-44 28.5t-45 8q-24 0 -51.5 -8t-47.5 -33v-301q8 -13 22 -24q12 -9 31.5 -16t48.5 -7q18 0 41 10.5t43.5 34.5t34 64t13.5 99zM464 242q0 -46 -15 -91t-45 -80.5t-75 -57.5t-105 -22q-30 0 -59.5 8t-54.5 18.5t-42 20t-21 11.5v574
q0 23 -11.5 29.5t-23.5 10.5l124 26v-273q30 27 60.5 42t76.5 15q47 0 82.5 -21.5t59.5 -55t36.5 -74.5t12.5 -80z" />
    <glyph glyph-name="c" unicode="c" horiz-adv-x="417" 
d="M394 111q-1 -12 -11 -32.5t-30 -40t-51 -33.5t-73 -14q-57 0 -98.5 22t-68 56.5t-39.5 77t-13 84.5q0 37 13 79.5t41 78.5t72.5 60t106.5 24q23 0 46 -5.5t42 -12.5q22 -8 42 -18v-136q-17 58 -52.5 96t-82.5 38q-36 0 -62 -17.5t-43 -45t-25 -61.5t-8 -67q0 -38 9.5 -73
t29 -62t48.5 -43.5t68 -16.5q27 0 48.5 6.5t39 15.5t30 20t21.5 20z" />
    <glyph glyph-name="d" unicode="d" horiz-adv-x="494" 
d="M333 386q-11 17 -30 32t-50 15q-35 0 -63 -14t-48 -39.5t-30.5 -60.5t-10.5 -77q0 -60 16 -98.5t39 -61t47.5 -31t42.5 -8.5q27 0 51 13t36 24v306zM338 -9l-2 54q-9 -8 -23 -17.5t-31 -17.5t-36.5 -13.5t-39.5 -5.5q-52 0 -89 21.5t-61 56t-35.5 79t-11.5 90.5
q0 41 15.5 83t45 75.5t72.5 55t97 21.5q32 0 54.5 -9.5t39.5 -23.5v185q0 12 -3 18.5t-8.5 10.5t-11.5 6.5t-12 4.5l123 24v-625q0 -23 12 -29.5t23 -10.5z" />
    <glyph glyph-name="e" unicode="e" horiz-adv-x="460" 
d="M336 303q0 36 -9 61.5t-24 41.5t-34.5 23.5t-40.5 7.5q-27 0 -48 -11t-36 -30t-24 -43t-12 -50h228zM104 266v-28q0 -38 10 -72t30 -60t50 -41.5t70 -15.5q26 0 51.5 9.5t47.5 24.5t38 33.5t23 36.5q-1 -31 -15.5 -60t-39 -51.5t-58.5 -36.5t-74 -14q-53 0 -95 20.5
t-71.5 54.5t-45 76.5t-15.5 87.5q0 41 14.5 84t43 78.5t72 58t100.5 22.5q32 0 65.5 -11.5t60.5 -36.5t44.5 -64.5t17.5 -94.5h-324z" />
    <glyph glyph-name="f" unicode="f" horiz-adv-x="236" 
d="M277 571q-3 13 -9 28t-15.5 27t-21 20t-24.5 8q-25 0 -39 -12t-20.5 -28t-8 -33.5t-1.5 -27.5v-94h132v-38h-132v-383q0 -17 8 -24t20 -14h-140q12 7 19.5 14t7.5 24v383h-56v38h56v84q0 29 8 55.5t24.5 46.5t42.5 32t62 12q25 0 46 -4.5t41 -18.5v-95z" />
    <glyph glyph-name="g" unicode="g" horiz-adv-x="441" 
d="M361 -84q0 22 -12.5 34.5t-29 18.5t-33 7t-24.5 1q-51 2 -83.5 3.5t-48.5 3.5q-30 -11 -50.5 -33t-20.5 -48q0 -18 10 -34t29 -29t47 -20.5t65 -7.5q32 0 59.5 8t48 21.5t32 32.5t11.5 42zM306 296q0 38 -8 65.5t-22 45t-32.5 25.5t-38.5 8q-48 0 -75.5 -33t-27.5 -103
q0 -43 9.5 -71t23.5 -44.5t31.5 -23.5t32.5 -7q22 0 41.5 8t34 24.5t23 42.5t8.5 63zM335 425q29 -26 43.5 -59.5t14.5 -67.5q0 -35 -13.5 -66.5t-38 -55.5t-59.5 -38t-77 -14q-20 0 -35 3q-23 -2 -40.5 -12t-17.5 -30q0 -13 16.5 -20t63.5 -8l87 -1q25 0 51 -5t47.5 -16.5
t35 -32t13.5 -52.5q0 -36 -18.5 -68.5t-51 -57.5t-78 -39.5t-99.5 -14.5q-33 0 -66 6.5t-59 20t-42 35t-16 51.5q0 24 9.5 41.5t23.5 30t30 21t29 14.5q-14 4 -25 12q-9 7 -16.5 17.5t-7.5 27.5q0 15 8 28.5t20 24.5t27 20.5t29 16.5q-48 20 -77 60.5t-29 100.5q0 36 15 68
t39.5 56t57.5 37.5t69 13.5q21 0 40 -1.5t40 -8.5h151v-38h-94z" />
    <glyph glyph-name="h" unicode="h" horiz-adv-x="508" 
d="M327 0q12 7 19.5 14t7.5 24v263q0 22 -5 42.5t-17.5 36t-33 25t-51.5 9.5q-34 0 -64.5 -16t-44.5 -36v-324q0 -17 7 -24t21 -14h-141q13 7 19.5 14t6.5 24v587q0 22 -11.5 28.5t-23.5 11.5l122 24v-287q8 7 23.5 19t35.5 23.5t43.5 20t48.5 8.5q29 0 56 -9t48 -26
t33.5 -43.5t12.5 -60.5v-296q0 -17 6.5 -24t19.5 -14h-138z" />
    <glyph glyph-name="i" unicode="i" horiz-adv-x="212" 
d="M25 0q11 7 18.5 14t7.5 24v371q0 23 -11.5 29.5t-23.5 10.5l122 24v-435q0 -17 7 -24t19 -14h-139zM143 625q0 -21 -14.5 -36t-34.5 -15t-35 15t-15 36q0 20 15 34t35 14t34.5 -14t14.5 -34z" />
    <glyph glyph-name="j" unicode="j" horiz-adv-x="204" 
d="M136 -68q0 -28 -10 -53.5t-27.5 -44.5t-41.5 -30t-51 -11q-33 0 -53 8.5t-34 17.5l-2 87q21 -78 73 -78q23 0 35 11.5t17 25.5q6 17 7 38v506q0 12 -3 19t-8 11t-11 6l-12 4l121 24v-541zM142 625q0 -21 -14.5 -36t-34.5 -15q-21 0 -36 15t-15 36q0 20 15 34t36 14
q20 0 34.5 -14t14.5 -34z" />
    <glyph glyph-name="k" unicode="k" horiz-adv-x="446" 
d="M305 0q17 7 20 18t-5 19l-182 198v-197q0 -17 7 -24t19 -14h-140q12 7 19.5 14t7.5 24v583q0 23 -12 30.5t-25 9.5l124 28v-431q8 8 34 32.5t54 51.5q33 32 72 70q19 18 15 30t-24 19h146q-20 -9 -36.5 -18.5t-33.5 -24.5q-17 -16 -43 -40t-51 -47q-29 -27 -60 -56
l212 -230q13 -14 25 -24t36 -21h-179z" />
    <glyph glyph-name="l" unicode="l" horiz-adv-x="212" 
d="M25 0q11 7 18.5 14t7.5 24v587q0 12 -3.5 18.5t-8.5 10.5t-11.5 6.5t-13.5 4.5l124 24v-651q0 -17 7 -24t19 -14h-139z" />
    <glyph glyph-name="m" unicode="m" horiz-adv-x="794" 
d="M621 0q11 7 19.5 14t8.5 24v268q0 22 -5.5 42t-18 35t-32.5 24t-49 9q-30 0 -59.5 -18.5t-48.5 -44.5q2 -5 2 -15v-300q0 -17 7 -24t19 -14h-139q12 7 19 14t7 24v272q0 21 -5 40.5t-17 34t-32 23t-50 8.5q-35 0 -61 -17t-40 -34v-327q0 -17 8 -24t20 -14h-140
q12 7 19 14t7 24v371q0 23 -11.5 29.5t-24.5 10.5l122 24v-69q9 7 23.5 18.5t33 23t41 19.5t48.5 8q42 0 81.5 -22.5t54.5 -65.5q12 15 29 31t37.5 28.5t44 20.5t47.5 8q25 0 51.5 -8t48 -25t35 -43t13.5 -61v-298q0 -17 7 -24t19 -14h-139z" />
    <glyph glyph-name="n" unicode="n" horiz-adv-x="498" 
d="M319 0q13 7 19.5 14t6.5 24v260q0 21 -4 41.5t-16 37t-32.5 27t-53.5 10.5q-32 0 -59.5 -17t-41.5 -35v-324q0 -17 7 -24t19 -14h-138q12 7 18.5 14t6.5 24v371q0 23 -10 30t-23 12l120 22v-71q8 9 22.5 21t33.5 23.5t41.5 19t46.5 7.5q28 0 54.5 -9t47.5 -27t33.5 -44
t12.5 -59v-296q0 -17 7.5 -24t18.5 -14h-137z" />
    <glyph glyph-name="o" unicode="o" horiz-adv-x="484" 
d="M357 238q-2 38 -10.5 74.5t-25.5 64.5t-42 44.5t-58 15.5t-56.5 -19.5t-38 -47.5t-21 -66.5t-5.5 -77.5q1 -41 11 -77t27 -63t41.5 -42t55.5 -14q33 1 56.5 18.5t39 45.5t22 65t4.5 79zM448 231q0 -44 -15.5 -87t-44.5 -77t-69.5 -55t-90.5 -21q-59 0 -101 23t-68 58
t-38 77t-12 82q0 45 15 88t43.5 77.5t69.5 55.5t93 21q57 0 98 -21.5t68 -55.5t39.5 -77t12.5 -88z" />
    <glyph glyph-name="p" unicode="p" horiz-adv-x="502" 
d="M373 231q0 57 -14 93.5t-35 57t-44.5 28.5t-42.5 8q-32 0 -59.5 -15.5t-41.5 -33.5v-292q14 -17 35.5 -32t55.5 -15q67 0 106.5 53.5t39.5 147.5zM467 235q0 -41 -14.5 -84t-43 -78.5t-71.5 -58.5t-99 -23q-34 0 -58 6t-45 17v-204q0 -17 7.5 -25t18.5 -13h-139
q12 5 19 13t7 25v595q0 24 -10.5 31t-22.5 11l119 26v-62q7 9 20.5 20t31.5 20t39.5 15.5t45.5 6.5q32 0 66.5 -14t63 -43t47 -74t18.5 -107z" />
    <glyph glyph-name="q" unicode="q" horiz-adv-x="490" 
d="M335 379q-5 15 -16 27q-9 10 -24.5 18.5t-40.5 8.5q-27 0 -54 -13t-48.5 -38t-34.5 -62t-13 -85q0 -39 8.5 -74t26 -61.5t44.5 -42t64 -15.5q23 0 48 9.5t40 26.5v301zM309 -228q12 5 19 13t7 25v228q-26 -21 -52.5 -34t-68.5 -13q-54 0 -92.5 20.5t-63 53t-36.5 73.5
t-12 83q0 43 15 88t45 81.5t75 59.5t105 23q16 0 31.5 -3.5t29 -7.5t23 -8t12.5 -5q3 1 15 3.5t26 5.5q16 4 35 7v-655q0 -17 7.5 -25t19.5 -13h-140z" />
    <glyph glyph-name="r" unicode="r" horiz-adv-x="303" 
d="M284 371q-11 14 -25 22.5t-34 8.5q-29 0 -51 -18t-36 -36v-310q0 -17 7.5 -24t18.5 -14h-139q12 7 19 14t7 24v371q0 23 -11.5 29.5t-24.5 10.5l123 24v-88q8 13 21 28.5t28 29t30.5 22t28.5 8.5q18 0 23.5 -2t14.5 -6v-94z" />
    <glyph glyph-name="s" unicode="s" horiz-adv-x="338" 
d="M307 130q0 -35 -16 -61t-40.5 -43t-54.5 -26t-57 -9q-42 0 -75 15.5t-58 31.5v129q6 -26 17.5 -50.5t27.5 -43.5t36.5 -30.5t45.5 -11.5q27 0 44.5 9t28 22t14.5 26.5t4 22.5q0 18 -6.5 31t-20 24.5t-33.5 23t-46 26.5q-29 17 -49 32.5t-32 31t-17 33t-5 38.5
q0 18 7.5 39.5t25 40t45.5 30.5t70 12q20 0 47.5 -5.5t62.5 -23.5v-120q-6 19 -15.5 39.5t-23 37t-31 27t-40.5 10.5q-19 0 -33 -5.5t-23.5 -14.5t-14 -19.5t-4.5 -20.5q0 -32 22.5 -50t62.5 -41q24 -14 48 -28.5t43 -33t31 -41.5t12 -54z" />
    <glyph glyph-name="t" unicode="t" horiz-adv-x="285" 
d="M285 59q0 -10 -8 -21.5t-21.5 -22t-31.5 -17.5t-40 -7q-60 0 -99.5 36.5t-39.5 108.5v283h-43l130 134v-92h138v-42h-140v-282q0 -35 10 -56t24 -31.5t29.5 -13.5t27.5 -3q15 0 25 2.5t17 6t12 8t10 9.5z" />
    <glyph glyph-name="u" unicode="u" horiz-adv-x="498" 
d="M374 -9q-9 5 -16 10.5t-11.5 13t-6.5 18.5t-2 28q-23 -25 -58 -47.5t-88 -22.5q-22 0 -48.5 8.5t-49.5 29.5t-38.5 57.5t-15.5 92.5v230q0 12 -3 19t-8 11t-11 6l-12 4l121 24v-294q0 -64 30 -96.5t73 -32.5q37 0 60.5 15t45.5 36v308q0 23 -11.5 29.5t-23.5 10.5l120 24
v-393q0 -23 8.5 -38t31.5 -19z" />
    <glyph glyph-name="v" unicode="v" horiz-adv-x="368" 
d="M398 459q-27 -10 -43 -47l-184 -422l-181 421q-8 19 -18.5 31.5t-28.5 16.5h168q-20 -6 -26 -18.5t0 -28.5l110 -275l110 270q9 23 1 33.5t-31 18.5h123z" />
    <glyph glyph-name="w" unicode="w" horiz-adv-x="629" 
d="M665 461q-18 -8 -31.5 -23.5t-18.5 -28.5l-186 -419l-126 342l-137 -342l-171 422q-8 21 -19.5 31.5t-28.5 17.5h175q-43 -14 -31 -47l97 -270l94 244l-15 33q-8 17 -19 26t-34 14h185q-44 -13 -33 -47l94 -266l108 256q8 17 -1 33.5t-29 23.5h127z" />
    <glyph glyph-name="x" unicode="x" horiz-adv-x="383" 
d="M245 0q8 3 15 7t9.5 10.5t0.5 15.5t-12 23l-99 142l-113 -155q-7 -10 -7.5 -23t23.5 -20h-138q10 3 21 8t20.5 11.5t17 13.5t11.5 12l137 186l-135 187q-7 9 -12 15t-10.5 11t-13 8.5t-17.5 8.5h181q-8 -3 -15 -7t-10.5 -10.5t-1.5 -15.5t12 -23l83 -118l89 124
q11 16 4 29.5t-27 20.5h138q-20 -9 -32.5 -18.5t-23.5 -24.5l-123 -162l149 -213q13 -19 26 -25.5t32 -17.5h-179z" />
    <glyph glyph-name="y" unicode="y" horiz-adv-x="395" 
d="M429 459q-18 -8 -31 -18t-21 -30q-26 -63 -61 -142t-73.5 -164.5t-76.5 -173.5t-71 -168h-90q16 8 26.5 16.5t18 17.5t13 19t11.5 22q20 38 43 84.5t46 96.5l-158 393q-6 14 -11 21.5t-10.5 12t-12.5 7t-17 6.5h173q-9 -3 -16 -7t-11.5 -10t-5 -15t4.5 -23l108 -284
q38 84 69.5 159.5t50.5 125.5q10 26 -2.5 38t-30.5 16h135z" />
    <glyph glyph-name="z" unicode="z" horiz-adv-x="394" 
d="M371 0h-385l261 421q-17 1 -41.5 1h-51h-51t-42.5 -1q-23 -2 -35 -11.5t-19 -24.5l3 76h357l-259 -423h31.5t48 0.5t60.5 1.5t69 3q16 1 25.5 5.5t15.5 11.5t10 14.5t8 15.5z" />
    <glyph glyph-name="braceleft" unicode="{" horiz-adv-x="226" 
d="M176 -132q-36 -2 -61 3t-41 19.5t-23 39t-7 63.5v178q0 21 0.5 41t-3 36t-13.5 28t-31 18q19 6 29 18t14 28.5t4 36v39.5v174q0 38 8.5 61t25.5 35t41.5 16t56.5 4q-20 -5 -31 -15t-16 -24.5t-6 -33.5t-1 -41v-164v-43.5t-4 -39.5t-15 -31.5t-33 -19.5q24 -6 35 -20
t14.5 -33t3 -41.5t-0.5 -46.5v-170q0 -22 1 -41t6 -34.5t16 -25.5t31 -14z" />
    <glyph glyph-name="bar" unicode="|" horiz-adv-x="168" 
d="M42 0v680h56v-680h-56z" />
    <glyph glyph-name="braceright" unicode="}" horiz-adv-x="226" 
d="M199 294q-21 -6 -31 -18t-13.5 -28t-3 -36t0.5 -41v-178q0 -39 -7 -63.5t-22.5 -39t-40.5 -19.5t-61 -3q20 4 31 14t16 25.5t6 34.5t1 41v170q0 24 -0.5 46.5t4 41.5t15 33t33.5 20q-22 6 -33 19.5t-15 31.5t-4 39.5v43.5v164q0 22 -0.5 41t-5.5 33.5t-16 24.5t-32 15
q32 0 56.5 -4t41 -16t25 -35t8.5 -61v-174v-39.5t4 -36t13.5 -28.5t29.5 -18z" />
    <glyph glyph-name="asciitilde" unicode="~" horiz-adv-x="372" 
d="M318 419q-14 -17 -31 -30q-14 -11 -32 -20t-38 -9q-18 0 -34.5 5t-30.5 11.5t-25.5 11.5t-19.5 5q-12 0 -22 -5.5t-18 -11.5q-9 -7 -17 -16l-21 19q1 6 11 17.5t25 22.5t33.5 19.5t38.5 8.5q11 0 25 -4t29 -9t29.5 -9t25.5 -4q13 0 23 3t17 8q8 5 13 12z" />
    <glyph glyph-name="quotesinglbase" unicode="&#x201a;" horiz-adv-x="136" 
d="M127 26q0 -21 -8 -39.5t-20 -33t-26.5 -23t-27.5 -10.5q-5 -2 -6.5 1.5t6.5 5.5q4 1 11.5 7t14.5 15.5t11.5 21.5t3.5 25q-2 -1 -5.5 -1h-5.5q-20 0 -34.5 14.5t-14.5 33.5q0 12 5 21.5t12.5 15.5t16 9t15.5 3q26 0 39 -18t13 -48z" />
    <glyph glyph-name="florin" unicode="&#x192;" horiz-adv-x="383" 
d="M349 572q-2 15 -8 29.5t-14.5 26t-20 19t-23.5 7.5q-20 0 -33 -9t-21.5 -22.5t-12.5 -30.5t-6 -33l-14 -98h118l-6 -42h-117l-84 -471q-5 -26 -17.5 -48t-31 -38t-41 -25t-45.5 -9q-21 0 -39.5 6t-33.5 20l8 76q1 -11 4.5 -22.5t10.5 -21.5t16 -16t20 -6q32 0 51.5 23.5
t24.5 55.5l70 476h-78l7 42h76l16 99q9 54 45 91.5t96 37.5q25 0 50 -7t45 -21z" />
    <glyph glyph-name="quotedblbase" unicode="&#x201e;" horiz-adv-x="256" 
d="M126 26q0 -21 -8 -39.5t-20 -33t-26.5 -23t-27.5 -10.5q-5 -2 -6.5 1.5t6.5 5.5q4 1 11.5 7t14.5 15.5t11.5 21.5t3.5 25q-2 -1 -5.5 -1h-5.5q-20 0 -34.5 14.5t-14.5 33.5q0 12 5 21.5t12.5 15.5t16 9t15.5 3q26 0 39 -18t13 -48zM246 26q0 -21 -8 -39.5t-20 -33
t-26.5 -23t-27.5 -10.5q-5 -2 -6.5 1.5t6.5 5.5q4 1 11.5 7t14.5 15.5t11.5 21.5t3.5 25q-2 -1 -5.5 -1h-5.5q-20 0 -34.5 14.5t-14.5 33.5q0 12 5 21.5t12.5 15.5t16 9t15.5 3q26 0 39 -18t13 -48z" />
    <glyph glyph-name="ellipsis" unicode="&#x2026;" horiz-adv-x="616" 
d="M125 43q0 -20 -14.5 -34t-34.5 -14q-21 0 -35.5 14t-14.5 34q0 21 14.5 35t35.5 14q20 0 34.5 -14t14.5 -35zM348 43q0 -20 -14 -34t-37 -14q-20 0 -34.5 14t-14.5 34q0 21 14.5 35t34.5 14q23 0 37 -14t14 -35zM563 43q0 -20 -14 -34t-34 -14q-21 0 -35 14t-14 34
q0 21 14 35t35 14q20 0 34 -14t14 -35z" />
    <glyph glyph-name="dagger" unicode="&#x2020;" horiz-adv-x="461" 
d="M428 426q-3 6 -18.5 9t-34.5 4t-37 1h-27h-61v-310q0 -8 1.5 -28t5 -41.5t8.5 -39.5t11 -21h-116q6 3 10.5 21t8 39.5t5.5 41.5t2 28v310h-63h-26t-37 -1t-34.5 -4t-18.5 -9v66h179v58q0 8 -2 28.5t-5.5 42t-8 39t-10.5 20.5h116q-6 -3 -11 -20.5t-8.5 -39t-5 -42
t-1.5 -28.5v-58h178v-66z" />
    <glyph glyph-name="daggerdbl" unicode="&#x2021;" horiz-adv-x="461" 
d="M431 174q-3 6 -18 9t-34 4t-37.5 1h-26.5h-63v-58q0 -8 2 -28t5 -41.5t8 -39.5t11 -21h-117q6 3 11 21t8.5 39.5t5.5 41.5t2 28v58h-65h-26t-37 -1t-34.5 -4t-18.5 -9v68h181v198h-65h-26t-37 -1t-34.5 -4t-18.5 -9v66h181v58q0 8 -2 28.5t-5.5 42t-8.5 39t-11 20.5h117
q-6 -3 -11 -20.5t-8 -39t-5 -42t-2 -28.5v-58h179v-66q-3 6 -18 9t-34 4t-37.5 1h-26.5h-63v-198h179v-68z" />
    <glyph glyph-name="circumflex" unicode="&#x2c6;" 
d="M338 503q-3 -3 -24.5 6.5t-47.5 21.5q-30 14 -67 34q-37 -20 -66 -34q-12 -6 -24.5 -11.5t-22.5 -10t-16.5 -6.5t-7.5 0t8 12.5t23.5 25.5t32.5 32.5t33.5 32t26.5 24t13 9.5t13.5 -9.5t27.5 -24t34 -32t32.5 -32.5t24 -25.5t7.5 -12.5z" />
    <glyph glyph-name="perthousand" unicode="&#x2030;" horiz-adv-x="872" 
d="M471 160q0 69 -17.5 109.5t-43.5 40.5q-29 0 -48 -38.5t-19 -107.5q-1 -76 17.5 -111.5t44.5 -35.5q29 -1 47 35t19 108zM207 519q1 69 -16 109t-43 40q-29 0 -48 -37.5t-20 -108.5q-1 -76 17.5 -110.5t44.5 -35.5q28 -1 46 35t19 108zM769 160q1 69 -17 109.5t-44 40.5
q-28 0 -46.5 -38.5t-19.5 -107.5q-1 -76 17 -111.5t44 -35.5q29 -1 47 35t19 108zM541 162q0 -42 -12 -74t-31.5 -53t-43.5 -31.5t-49 -10.5q-26 0 -49.5 11t-42 32t-29.5 52t-11 72q0 38 10.5 69t29 53.5t43.5 34.5t53 12q27 0 51 -12t42 -34t28.5 -53t10.5 -68zM490 680
q-17 -29 -48 -83t-67.5 -121t-76 -140t-75 -139t-62.5 -118.5t-39 -78.5h-60q17 27 47.5 81t67 120.5t76.5 140t75 139.5t63 119.5t40 79.5h59zM278 519q0 -42 -12 -73.5t-31 -52.5t-43.5 -31.5t-49.5 -10.5t-49 11t-42.5 32.5t-29.5 52.5t-11 72q0 37 10.5 68.5t29.5 53.5
t44 34t54 12q27 0 50.5 -12.5t41 -34.5t28 -53t10.5 -68zM840 162q0 -42 -12 -74t-31 -53t-43.5 -31.5t-49.5 -10.5t-49 11t-42.5 32t-29.5 52t-11 72q0 38 10.5 69t29.5 53.5t44 34.5t54 12q27 0 50.5 -12t41 -34t28 -53t10.5 -68z" />
    <glyph glyph-name="guilsinglleft" unicode="&#x2039;" horiz-adv-x="181" 
d="M25 259v52l108 143v-61l-70 -108l70 -108v-60z" />
    <glyph glyph-name="OE" unicode="&#x152;" horiz-adv-x="876" 
d="M474 132v420q0 50 -30.5 70t-72.5 20q-55 0 -102 -19.5t-81.5 -57t-54 -91t-19.5 -121.5q0 -81 23.5 -140.5t60 -98.5t82.5 -57.5t91 -18.5q55 0 79 26.5t24 67.5zM848 0h-385q-21 -4 -44.5 -6.5t-45.5 -2.5q-72 0 -138.5 25.5t-117 71.5t-80.5 109.5t-30 140.5
q0 60 24.5 122.5t71.5 112.5t115.5 82t157.5 32q20 0 43 -3.5t43 -3.5h360l2 -78q-10 13 -28 23.5t-40 11.5q-40 1 -74 1.5t-59 0.5h-54v-241h162q11 0 22 9.5t15 18.5v-97q-4 9 -15 18.5t-22 9.5h-162v-308q16 -3 49 -5t68 -1q40 1 68 2t48.5 6.5t35.5 18t29 36.5z" />
    <glyph glyph-name="quoteleft" unicode="&#x2018;" horiz-adv-x="136" 
d="M106 563q0 -12 -5 -21.5t-12.5 -15.5t-16 -9t-15.5 -3q-26 0 -39 18t-13 48q0 21 7.5 39.5t19.5 33t26.5 23t28.5 10.5q5 2 6.5 -1.5t-6.5 -5.5q-5 -1 -12 -7t-14 -15.5t-11.5 -21.5t-3.5 -25q2 1 5.5 1h5.5q20 0 34.5 -14.5t14.5 -33.5z" />
    <glyph glyph-name="quoteright" unicode="&#x2019;" horiz-adv-x="136" 
d="M106 626q0 -21 -8 -39.5t-20 -33t-26.5 -23t-27.5 -10.5q-5 -2 -6.5 1.5t6.5 5.5q4 1 11.5 7t14.5 15.5t11.5 21.5t3.5 25q-2 -1 -5.5 -1h-5.5q-20 0 -34.5 14.5t-14.5 33.5q0 12 5 21.5t12.5 15.5t16 9t15.5 3q26 0 39 -18t13 -48z" />
    <glyph glyph-name="quotedblleft" unicode="&#x201c;" horiz-adv-x="256" 
d="M106 563q0 -12 -5 -21.5t-12.5 -15.5t-16 -9t-15.5 -3q-26 0 -39 18t-13 48q0 21 7.5 39.5t19.5 33t26.5 23t28.5 10.5q5 2 6.5 -1.5t-6.5 -5.5q-5 -1 -12 -7t-14 -15.5t-11.5 -21.5t-3.5 -25q2 1 5.5 1h5.5q20 0 34.5 -14.5t14.5 -33.5zM226 563q0 -12 -5 -21.5
t-12.5 -15.5t-16 -9t-15.5 -3q-26 0 -39 18t-13 48q0 21 7.5 39.5t19.5 33t26.5 23t28.5 10.5q5 2 6.5 -1.5t-6.5 -5.5q-5 -1 -12 -7t-14 -15.5t-11.5 -21.5t-3.5 -25q2 1 5.5 1h5.5q20 0 34.5 -14.5t14.5 -33.5z" />
    <glyph glyph-name="quotedblright" unicode="&#x201d;" horiz-adv-x="256" 
d="M106 626q0 -21 -8 -39.5t-20 -33t-26.5 -23t-27.5 -10.5q-5 -2 -6.5 1.5t6.5 5.5q4 1 11.5 7t14.5 15.5t11.5 21.5t3.5 25q-2 -1 -5.5 -1h-5.5q-20 0 -34.5 14.5t-14.5 33.5q0 12 5 21.5t12.5 15.5t16 9t15.5 3q26 0 39 -18t13 -48zM226 626q0 -21 -8 -39.5t-20 -33
t-26.5 -23t-27.5 -10.5q-5 -2 -6.5 1.5t6.5 5.5q4 1 11.5 7t14.5 15.5t11.5 21.5t3.5 25q-2 -1 -5.5 -1h-5.5q-20 0 -34.5 14.5t-14.5 33.5q0 12 5 21.5t12.5 15.5t16 9t15.5 3q26 0 39 -18t13 -48z" />
    <glyph glyph-name="bullet" unicode="&#x2022;" horiz-adv-x="390" 
d="M356 325q0 -36 -13.5 -67t-37.5 -54.5t-55.5 -37t-67.5 -13.5q-37 0 -68.5 13.5t-55 37t-37 54.5t-13.5 67q0 37 13.5 68.5t37 55t55 37t68.5 13.5q36 0 67.5 -13.5t55.5 -37t37.5 -55t13.5 -68.5z" />
    <glyph glyph-name="endash" unicode="&#x2013;" horiz-adv-x="421" 
d="M4 231v63h387v-63h-387z" />
    <glyph glyph-name="emdash" unicode="&#x2014;" horiz-adv-x="739" 
d="M3 231v63h706v-63h-706z" />
    <glyph glyph-name="tilde" unicode="&#x2dc;" 
d="M345 579q-15 -17 -32 -29q-14 -11 -32 -19.5t-38 -8.5q-18 0 -35 5.5t-31 12t-25.5 12t-20.5 5.5q-11 0 -20.5 -5.5t-17.5 -11.5q-9 -7 -17 -16l-21 12q1 6 10.5 17.5t24.5 22.5t34 19.5t39 8.5q11 0 25 -5t29 -11t29.5 -11t25.5 -5q13 0 23 3t17 8q8 5 13 12z" />
    <glyph glyph-name="trademark" unicode="&#x2122;" horiz-adv-x="305" 
d="M90 666v-200h-18v200h-40v14h96v-14h-38zM288 466v202l-52 -202h-15l-49 202v-202h-16v214h29l43 -180l47 180h28v-214h-15z" />
    <glyph glyph-name="guilsinglright" unicode="&#x203a;" horiz-adv-x="181" 
d="M27 117v60l69 108l-69 108v61l108 -143v-52z" />
    <glyph glyph-name="oe" unicode="&#x153;" horiz-adv-x="807" 
d="M358 233q0 38 -7.5 74.5t-23.5 65.5t-40 46.5t-58 17.5q-33 0 -57.5 -17t-41 -45.5t-24.5 -65t-8 -76.5q0 -41 8 -77.5t24 -64.5t40 -44.5t55 -16.5q33 0 58 16t41.5 44t25 64.5t8.5 78.5zM683 303q0 36 -9 61.5t-24 41.5t-34.5 23.5t-40.5 7.5q-28 0 -49.5 -11
t-36.5 -30t-24 -43t-12 -50h230zM452 266q0 -6 -1 -15t-1 -16q0 -40 10.5 -74t30.5 -59t50 -39t69 -14q26 0 52 9.5t47.5 24.5t38 33.5t24.5 36.5q-2 -30 -16.5 -59t-39 -52t-59 -37t-75.5 -14q-43 0 -72 12t-49 27.5t-34 29.5t-26 18q-11 -3 -24.5 -17t-33.5 -29.5t-48 -28
t-68 -12.5q-59 0 -100.5 23t-67.5 58.5t-38.5 78t-12.5 82.5q0 44 15 87t43.5 77t69.5 55t93 21q42 0 70.5 -11t48 -25.5t33 -27.5t25.5 -16q11 3 25.5 16t35.5 27.5t49.5 25.5t69.5 11q33 0 66.5 -11.5t60.5 -36t44 -64t17 -95.5h-322z" />
    <glyph glyph-name="Ydieresis" unicode="&#x178;" 
d="M475 680q-22 -9 -35.5 -23t-23.5 -32l-162 -303v-277q0 -17 11.5 -27.5t25.5 -17.5h-171q12 7 24.5 17t12.5 28v273l-191 314q-11 19 -23 28t-33 20h193q-9 -4 -16 -7.5t-10.5 -10t-1.5 -17t12 -27.5l146 -247l136 261q11 20 5.5 31t-26.5 17h127zM190 769q0 -21 -15 -35
t-35 -14t-33.5 14t-13.5 35q0 20 14 34.5t34 14.5t34.5 -14.5t14.5 -34.5zM334 769q0 -21 -13.5 -35t-34.5 -14q-20 0 -33.5 14t-13.5 35q0 20 13.5 34.5t33.5 14.5q21 0 34.5 -14.5t13.5 -34.5z" />
    <glyph glyph-name="exclamdown" unicode="&#xa1;" horiz-adv-x="232" 
d="M155 -127q0 -48 -15 -73.5t-44 -25.5q-30 0 -44.5 25.5t-14.5 73.5q0 7 3 38.5t8.5 75.5t12 95.5t13 99t12.5 86t10 56.5q4 -18 10 -56.5t12.5 -86t13 -99t11.5 -95.5t8.5 -75.5t3.5 -38.5zM145 419q0 -21 -14 -34.5t-35 -13.5t-35.5 13.5t-14.5 34.5t14.5 36t35.5 15
t35 -15t14 -36z" />
    <glyph glyph-name="cent" unicode="&#xa2;" horiz-adv-x="414" 
d="M211 157v374q-30 -5 -52 -23.5t-35.5 -45t-20 -57.5t-6.5 -60q0 -33 7 -64t21.5 -56t35.5 -43t50 -25zM391 212q-2 -11 -10.5 -29.5t-25.5 -37t-43 -33t-62 -18.5q0 -35 0.5 -57t0.5 -27h-41q0 5 0.5 26.5t0.5 55.5q-53 3 -92 25t-64 56t-37 75.5t-12 82.5q0 34 11.5 74
t36 75t63.5 60.5t94 30.5q0 23 -0.5 42.5t-0.5 35.5h41v-20t-0.5 -24t-0.5 -21v-12q22 -1 43.5 -6.5t38.5 -12.5q20 -8 38 -19v-132q-16 53 -47.5 89t-74.5 41q0 -44 0.5 -93t0.5 -99t0.5 -99t0.5 -91q28 0 50.5 6.5t39.5 15.5t29.5 20t21.5 20z" />
    <glyph glyph-name="sterling" unicode="&#xa3;" horiz-adv-x="414" 
d="M398 87q-14 -21 -28 -45t-23 -40q-28 -11 -53 -11t-49.5 4t-50 9t-54.5 5q-30 0 -56 -3t-59 -15q27 41 44.5 71t28 54t14.5 45t4 44q0 42 -11.5 78t-25.5 68q-21 0 -41 -0.5t-37 -0.5v43q13 0 28.5 -1t32.5 -1q-14 32 -25.5 65t-11.5 68q0 28 13 57.5t38 53.5t62.5 39
t85.5 15q29 0 69 -10t75 -28l-3 -126q-4 16 -14.5 38t-28 41.5t-41 33t-54.5 13.5t-52 -11t-34 -27.5t-18.5 -35.5t-5.5 -36q0 -42 16 -77.5t33 -72.5q25 0 48 0.5t41 0.5t30 0.5t15 0.5v-43q-5 0 -38.5 0.5t-77.5 0.5q8 -20 12.5 -42t4.5 -48q0 -39 -12 -73t-28 -62.5
t-32 -49.5t-24 -33q31 18 57.5 23t50 4t45.5 -5t44 -4q26 0 49.5 5t46.5 21z" />
    <glyph glyph-name="yen" unicode="&#xa5;" horiz-adv-x="433" 
d="M474 680q-22 -9 -35.5 -23t-23.5 -32l-155 -291h98v-40h-105v-71h105v-40h-105v-138q0 -17 11.5 -27.5t25.5 -17.5h-171q12 7 24.5 17t12.5 28v138h-103v40h103v71h-103v40h94l-182 298q-11 19 -23 28t-33 20h193q-9 -4 -16 -7.5t-10.5 -10t-1.5 -17t12 -27.5l146 -247
l136 261q11 20 5.5 31t-26.5 17h127z" />
    <glyph glyph-name="section" unicode="&#xa7;" horiz-adv-x="425" 
d="M308 256q0 19 -10 35t-26.5 30t-38 26.5t-43.5 24.5q-26 1 -44 -6t-29 -18.5t-16 -25t-5 -24.5q0 -20 9.5 -36.5t26 -30.5t38 -27t44.5 -25q26 -1 43.5 7t29 19.5t16.5 25.5t5 25zM393 271q-2 -50 -36.5 -83t-81.5 -44q47 -36 63.5 -68t16.5 -71q0 -17 -8.5 -38.5
t-28 -41t-51 -32.5t-77.5 -13q-9 0 -23.5 1t-31 4.5t-34 9.5t-33.5 16v119q5 -20 16.5 -40.5t27.5 -37t35.5 -27t42.5 -10.5q21 0 37.5 6.5t27 16.5t16.5 21.5t6 21.5q2 32 -21.5 60t-62.5 51q-24 14 -55.5 31t-60 39.5t-48 51.5t-19.5 68q0 24 10 45t26.5 37.5t37.5 28
t45 16.5q-41 27 -59 58t-18 69q0 18 8 40t26 41.5t46.5 32.5t70.5 13q20 0 50.5 -6.5t64.5 -24.5l-1 -120q-5 19 -15 39.5t-24.5 37t-33.5 27t-41 10.5q-20 0 -34 -6t-23.5 -16t-14 -22t-4.5 -22q0 -30 22 -54t61 -47q24 -15 56 -32t60.5 -39t48 -50.5t18.5 -66.5z" />
    <glyph glyph-name="dieresis" unicode="&#xa8;" horiz-adv-x="314" 
d="M123 569q0 -21 -14 -35t-34 -14t-33.5 14t-13.5 35q0 20 14 33.5t34 13.5q19 0 33 -13.5t14 -33.5zM266 569q0 -21 -13.5 -35t-33.5 -14q-21 0 -35 14t-14 35q0 20 14 33.5t35 13.5q20 0 33.5 -13.5t13.5 -33.5z" />
    <glyph glyph-name="copyright" unicode="&#xa9;" horiz-adv-x="806" 
d="M544 476q-38 25 -66.5 33t-61.5 9q-44 1 -77.5 -14t-56.5 -41.5t-35 -61t-12 -72.5t12.5 -71t35.5 -58.5t57 -40t76 -14.5q35 0 65 8.5t66 31.5l36 -54q-46 -32 -84 -43t-83 -11q-59 0 -105.5 19.5t-79.5 53.5t-50.5 80t-17.5 99t18 99.5t51 81.5t79.5 55t104.5 20
q41 0 81.5 -11t87.5 -43zM725 330q0 68 -25 127t-68.5 102.5t-102.5 68.5t-126 25q-66 0 -124.5 -25t-102 -68.5t-69 -102.5t-25.5 -127q0 -66 25.5 -124.5t69 -102t102 -68.5t124.5 -25q67 0 126 25t102.5 68.5t68.5 102t25 124.5zM762 330q0 -74 -28.5 -139t-77 -113
t-114 -76t-139.5 -28t-139 28t-113.5 76t-76.5 113t-28 139q0 75 28 140t76.5 114t113.5 77t139 28t139.5 -28t114 -77t77 -114t28.5 -140z" />
    <glyph glyph-name="ordfeminine" unicode="&#xaa;" horiz-adv-x="255" 
d="M152 588q-7 -4 -17.5 -9.5t-21.5 -7.5q-20 -7 -33.5 -16t-13.5 -30q0 -20 11 -30t28 -10q11 0 23 8.5t24 19.5v75zM12 391v34h204v-34h-204zM167 451q-9 6 -12 13.5t-3 27.5q-12 -13 -32 -27t-50 -14q-17 0 -27.5 7t-17 16.5t-9 20t-2.5 17.5q0 15 6 30t27 27q10 6 25 11
t31 9.5t29.5 9.5t19.5 12v19q0 13 -9.5 26.5t-34.5 13.5q-21 0 -41 -22.5t-37 -48.5v64q13 11 31 18.5t47 7.5q14 0 31 -3t31.5 -10.5t24 -19.5t9.5 -31v-131q0 -9 1 -16.5t13 -9.5z" />
    <glyph glyph-name="guillemotleft" unicode="&#xab;" horiz-adv-x="272" 
d="M21 259v52l106 143v-61l-68 -108l68 -108v-60zM112 259v52l107 143v-61l-67 -108l67 -108v-60z" />
    <glyph glyph-name="registered" unicode="&#xae;" horiz-adv-x="390" 
d="M282 542q0 18 -7.5 27t-17.5 13t-19.5 4h-13.5h-95v-89h99q9 0 18.5 1.5t17.5 6t13 13.5t5 24zM303 542q0 -15 -6.5 -27t-17 -20t-23 -11.5t-23.5 -1.5l63 -82h-23l-61 82h-83v-82h-18v202h113q15 0 29 -2.5t25 -9t18 -18t7 -30.5zM373 501q0 36 -13.5 68t-36.5 56
t-55 38t-68 14t-67.5 -14t-55.5 -38t-37.5 -56t-13.5 -68q0 -37 13.5 -69t37.5 -56t55.5 -38t67.5 -14t68 14t55 38t36.5 56.5t13.5 68.5zM388 501q0 -39 -15 -73.5t-40.5 -60t-59.5 -40.5t-73 -15t-72.5 15t-59 40.5t-40 60t-14.5 73.5t14.5 73t40 59.5t59 40t72.5 14.5
t73 -14.5t59.5 -40t40.5 -59.5t15 -73z" />
    <glyph glyph-name="degree" unicode="&#xb0;" horiz-adv-x="309" 
d="M224 571q0 34 -23.5 57.5t-57.5 23.5q-35 0 -59.5 -23.5t-24.5 -57.5q0 -35 24.5 -59.5t59.5 -24.5q34 0 57.5 24.5t23.5 59.5zM270 571q0 -26 -10 -49t-27.5 -40t-40.5 -27t-49 -10t-49 10t-40 27t-27 40t-10 49t10 48.5t27 39.5t40 27t49 10t49 -10t40.5 -27
t27.5 -39.5t10 -48.5z" />
    <glyph glyph-name="plusminus" unicode="&#xb1;" horiz-adv-x="429" 
d="M29 96v55h343v-55h-343zM228 358v-168h-54v168h-145v56h145v169h54v-169h144v-56h-144z" />
    <glyph glyph-name="acute" unicode="&#xb4;" 
d="M296 602q0 -16 -12 -26.5t-24 -15.5q-32 -18 -58 -31q-23 -11 -42.5 -20t-21.5 -6q-3 2 8.5 18.5t25.5 34.5q17 21 39 48q8 12 21.5 23.5t29.5 11.5q14 0 24 -10.5t10 -26.5z" />
    <glyph glyph-name="paragraph" unicode="&#xb6;" horiz-adv-x="670" 
d="M320 639h-16q-8 0 -21 0.5t-30 0.5q-76 0 -114.5 -39.5t-38.5 -108.5q0 -51 19 -82t46 -47.5t56.5 -21.5t49.5 -5q33 0 49 7v296zM292 -234q13 7 20.5 17.5t7.5 27.5v500q-29 -12 -59.5 -14.5t-57.5 0.5t-48.5 9t-33.5 11t-32 18t-39.5 35t-34 52.5t-14.5 71.5
q0 29 11 62t38.5 60.5t76 45.5t123.5 18h191q-11 -6 -19.5 -17t-8.5 -28v-824q0 -17 8.5 -27.5t19.5 -17.5h-149zM477 -234q12 7 19.5 17.5t7.5 27.5v824q0 17 -7.5 28t-19.5 17h148q-11 -6 -18.5 -17t-7.5 -28v-824q0 -17 7.5 -27.5t18.5 -17.5h-148z" />
    <glyph glyph-name="periodcentered" unicode="&#xb7;" horiz-adv-x="177" 
d="M126 339q0 -21 -15 -34.5t-35 -13.5q-21 0 -35 13.5t-14 34.5t14 36t35 15q20 0 35 -15t15 -36z" />
    <glyph glyph-name="periodcentered" unicode="&#x2219;" horiz-adv-x="177" 
d="M126 339q0 -21 -15 -34.5t-35 -13.5q-21 0 -35 13.5t-14 34.5t14 36t35 15q20 0 35 -15t15 -36z" />
    <glyph glyph-name="cedilla" unicode="&#xb8;" 
d="M211 -108h-73l78 108h69z" />
    <glyph glyph-name="ordmasculine" unicode="&#xba;" horiz-adv-x="255" 
d="M165 567q0 18 -3 36.5t-9 33.5t-16 24t-24 9t-24 -9t-16.5 -23.5t-10 -32.5t-3.5 -36t3 -36t9.5 -32.5t16.5 -24t24 -10.5q14 1 24 10.5t16.5 24t9.5 32t3 34.5zM12 391v34h204v-34h-204zM221 567q0 -20 -8 -41.5t-22 -39t-34 -28.5t-45 -11q-28 0 -48 11.5t-33 29.5
t-19.5 39.5t-6.5 41.5q0 21 7.5 42.5t21.5 38.5t33.5 28t45.5 11q29 0 49.5 -11t33.5 -29t19 -39.5t6 -42.5z" />
    <glyph glyph-name="guillemotright" unicode="&#xbb;" horiz-adv-x="272" 
d="M28 117v60l70 108l-70 108v61l108 -143v-52zM120 117v60l68 108l-68 108v61l108 -143v-52z" />
    <glyph glyph-name="questiondown" unicode="&#xbf;" horiz-adv-x="371" 
d="M320 -174q-28 -30 -65.5 -43t-81.5 -13q-23 0 -50.5 6t-51.5 21.5t-40 42.5t-16 70q0 25 12.5 56t32.5 65t45 69t51 69q15 19 25 35t17 33.5t12.5 39t11.5 52.5q3 -32 7 -58q2 -23 4.5 -42.5t2.5 -23.5q1 -18 -0.5 -29.5t-5 -20.5t-9 -17.5t-13.5 -20.5q-5 -8 -21.5 -34
t-34 -58.5t-31.5 -65.5t-14 -55q0 -43 25 -67.5t57 -24.5q14 0 32 4.5t36 19.5t34 44t27 77zM269 419q0 -21 -15 -34.5t-35 -13.5q-21 0 -35 13.5t-14 34.5t14 36t35 15q20 0 35 -15t15 -36z" />
    <glyph glyph-name="Agrave" unicode="&#xc0;" horiz-adv-x="558" 
d="M352 245q-20 48 -39.5 97t-36.5 90q-19 48 -37 93q-21 -51 -40 -100q-17 -43 -36 -91t-36 -89h225zM409 0q20 9 25.5 20.5t-0.5 28.5q-5 9 -23.5 52t-41.5 101h-259q-12 -28 -23 -54t-19.5 -46.5t-14 -34.5t-6.5 -18q-6 -17 -2.5 -29t23.5 -20h-122q21 14 30 24.5
t16 24.5l16.5 38.5t33.5 78.5t44 104.5t49 116.5q58 138 131 309q72 -171 131 -309q25 -59 49 -116.5t44 -104.5t33.5 -78.5l16.5 -38.5q6 -16 15 -26.5t35 -22.5h-181zM327 706q-3 -3 -22 6t-42 20q-26 13 -59 32q-11 7 -24 17t-13 25t10.5 25.5t26.5 10.5t27.5 -11.5
t22.5 -23.5q22 -27 39 -48q14 -18 25 -34.5t9 -18.5z" />
    <glyph glyph-name="Aacute" unicode="&#xc1;" horiz-adv-x="557" 
d="M348 245q-20 48 -39.5 97t-36.5 90q-19 48 -37 93q-21 -51 -40 -100q-17 -43 -36 -91t-36 -89h225zM405 0q20 9 25.5 20.5t-0.5 28.5q-5 9 -23.5 52t-41.5 101h-259q-12 -28 -23 -54t-19.5 -46.5t-14 -34.5t-6.5 -18q-6 -17 -2.5 -29t23.5 -20h-122q21 14 30 24.5
t16 24.5l16.5 38.5t33.5 78.5t44 104.5t49 116.5q58 138 131 309q72 -171 131 -309q25 -59 49 -116.5t44 -104.5t33.5 -78.5l16.5 -38.5q6 -16 15 -26.5t35 -22.5h-181zM351 806q0 -15 -12.5 -25t-23.5 -17q-33 -19 -59 -32q-23 -11 -42.5 -20t-22.5 -6q-2 2 10 18.5
t26 34.5q17 21 39 48q9 12 22 23.5t27 11.5q16 0 26 -10.5t10 -25.5z" />
    <glyph glyph-name="Acircumflex" unicode="&#xc2;" horiz-adv-x="557" 
d="M353 245q-20 48 -39.5 97t-36.5 90q-19 48 -37 93q-21 -51 -40 -100q-17 -43 -36 -91t-36 -89h225zM410 0q20 9 25.5 20.5t-0.5 28.5q-5 9 -23.5 52t-41.5 101h-259q-12 -28 -23 -54t-19.5 -46.5t-14 -34.5t-6.5 -18q-6 -17 -2.5 -29t23.5 -20h-122q21 14 30 24.5
t16 24.5l16.5 38.5t33.5 78.5t44 104.5t49 116.5q58 138 131 309q72 -171 131 -309q25 -59 49 -116.5t44 -104.5t33.5 -78.5l16.5 -38.5q6 -16 15 -26.5t35 -22.5h-181zM408 706q-3 -3 -25 6.5t-48 22.5q-30 15 -66 34q-37 -19 -67 -34q-13 -6 -25.5 -12t-22.5 -10.5
t-16.5 -6.5t-7.5 0t8 12.5t24 25.5l32.5 32.5t33.5 32t27.5 24t13.5 9.5t13.5 -9.5t27.5 -24t34 -32t32.5 -32.5t24 -25.5t7.5 -12.5z" />
    <glyph glyph-name="Atilde" unicode="&#xc3;" horiz-adv-x="557" 
d="M350 245q-20 48 -39.5 97t-36.5 90q-19 48 -37 93q-21 -51 -40 -100q-17 -43 -36 -91t-36 -89h225zM407 0q20 9 25.5 20.5t-0.5 28.5q-5 9 -23.5 52t-41.5 101h-259q-12 -28 -23 -54t-19.5 -46.5t-14 -34.5t-6.5 -18q-6 -17 -2.5 -29t23.5 -20h-122q21 14 30 24.5
t16 24.5l16.5 38.5t33.5 78.5t44 104.5t49 116.5q58 138 131 309q72 -171 131 -309q25 -59 49 -116.5t44 -104.5t33.5 -78.5l16.5 -38.5q6 -16 15 -26.5t35 -22.5h-181zM425 783q-15 -18 -33 -32q-15 -12 -34.5 -21.5t-39.5 -9.5q-19 0 -36.5 6t-32.5 13.5l-27 13.5t-20 6
q-13 0 -23.5 -5.5t-18.5 -12.5q-10 -8 -17 -17l-23 12q1 6 11.5 18t26 24.5t35.5 21.5t40 9q12 0 27 -5t30.5 -11.5t30.5 -11.5t27 -5q14 0 24.5 3.5t17.5 8.5q8 5 14 12z" />
    <glyph glyph-name="Adieresis" unicode="&#xc4;" horiz-adv-x="557" 
d="M351 245q-20 48 -39.5 97t-36.5 90q-19 48 -37 93q-21 -51 -40 -100q-17 -43 -36 -91t-36 -89h225zM408 0q20 9 25.5 20.5t-0.5 28.5q-5 9 -23.5 52t-41.5 101h-259q-12 -28 -23 -54t-19.5 -46.5t-14 -34.5t-6.5 -18q-6 -17 -2.5 -29t23.5 -20h-122q21 14 30 24.5
t16 24.5l16.5 38.5t33.5 78.5t44 104.5t49 116.5q58 138 131 309q72 -171 131 -309q25 -59 49 -116.5t44 -104.5t33.5 -78.5l16.5 -38.5q6 -16 15 -26.5t35 -22.5h-181zM241 769q0 -21 -15 -35t-35 -14t-33.5 14t-13.5 35q0 20 14 34.5t34 14.5t34.5 -14.5t14.5 -34.5z
M386 769q0 -21 -14 -35t-35 -14q-20 0 -34.5 14t-14.5 35q0 20 14.5 34.5t34.5 14.5q21 0 35 -14.5t14 -34.5z" />
    <glyph glyph-name="Aring" unicode="&#xc5;" horiz-adv-x="559" 
d="M353 245q-20 48 -39.5 97t-36.5 90q-19 48 -37 93q-21 -51 -40 -100q-17 -43 -36 -91t-36 -89h225zM311 761q0 18 -12.5 30.5t-32.5 12.5q-19 0 -31.5 -12.5t-12.5 -30.5q0 -20 12.5 -33t31.5 -13q20 0 32.5 13t12.5 33zM410 0q20 9 25.5 20.5t-0.5 28.5q-5 9 -23.5 52
t-41.5 101h-259q-12 -28 -23 -54t-19.5 -46.5t-14 -34.5t-6.5 -18q-6 -17 -2.5 -29t23.5 -20h-122q21 14 30 24.5t16 24.5l16.5 38.5t33.5 78.5t44 104.5t49 116.5q58 138 131 309q72 -171 131 -309q25 -59 49 -116.5t44 -104.5t33.5 -78.5l16.5 -38.5q6 -16 15 -26.5
t35 -22.5h-181zM335 761q0 -28 -21 -48t-48 -20q-26 0 -46 20t-20 48q0 27 20 47.5t46 20.5q27 0 48 -20.5t21 -47.5z" />
    <glyph glyph-name="AE" unicode="&#xc6;" horiz-adv-x="760" 
d="M356 562l-201 -296h201v296zM730 0h-402q13 7 20.5 17t7.5 28v178h-230q-4 -6 -11.5 -17t-17 -24.5t-20.5 -29.5t-21 -31q-25 -36 -54 -78q-9 -13 -8 -24t21 -19h-121q10 7 16.5 12.5t11.5 11t9 11.5t9 14q51 74 112 160q51 74 119 170t143 204q16 23 29.5 48.5
t22.5 48.5h338l1 -78q-8 13 -26.5 23.5t-39.5 11.5q-41 1 -75.5 1.5t-59.5 0.5h-53v-241h164q11 0 20.5 9.5t14.5 18.5v-97q-5 9 -14.5 18.5t-20.5 9.5h-164v-308q16 -3 49 -5t68 -1q40 1 68 2t49 6.5t36 18t28 36.5z" />
    <glyph glyph-name="Ccedilla" unicode="&#xc7;" horiz-adv-x="679" 
d="M644 197q0 1 -1.5 -20.5t-3.5 -47.5l-4 -70q-57 -34 -116 -50t-112 -18l-68 -99h-73l73 101q-67 6 -127 33.5t-105 72.5t-71 105.5t-26 133.5q0 64 24 126.5t72 112.5t120 81t167 31q63 0 120.5 -15.5t116.5 -41.5l4 -74q1 -14 1.5 -27t1.5 -24q1 -12 2 -23
q-20 53 -53 85t-67.5 49.5t-66.5 23t-50 5.5q-72 0 -126 -23.5t-90 -64t-54.5 -94.5t-18.5 -114q0 -55 15.5 -111t49.5 -101.5t89 -74.5t133 -29q17 0 49.5 5t69 22t71 49t54.5 86z" />
    <glyph glyph-name="Egrave" unicode="&#xc8;" horiz-adv-x="460" 
d="M433 0h-402q13 7 20.5 17t7.5 28v590q0 17 -8 28t-20 17h376l2 -78q-15 17 -33.5 26t-50.5 9h-35.5t-57.5 1q-35 0 -78 1v-241h164q11 0 21 9.5t14 18.5v-97q-4 9 -14 18.5t-21 9.5h-164v-308q16 -2 49 -4t68 -2q40 0 68.5 1t48.5 7t35 18.5t29 36.5zM299 706
q-3 -3 -22.5 6t-42.5 20q-26 13 -59 32q-11 7 -23.5 17t-12.5 25t10 25.5t26 10.5q14 0 27 -11.5t24 -23.5l38 -48q14 -18 25.5 -34.5t9.5 -18.5z" />
    <glyph glyph-name="Eacute" unicode="&#xc9;" horiz-adv-x="460" 
d="M433 0h-402q13 7 20.5 17t7.5 28v590q0 17 -8 28t-20 17h376l2 -78q-15 17 -33.5 26t-50.5 9h-35.5t-57.5 1q-35 0 -78 1v-241h164q11 0 21 9.5t14 18.5v-97q-4 9 -14 18.5t-21 9.5h-164v-308q16 -2 49 -4t68 -2q40 0 68.5 1t48.5 7t35 18.5t29 36.5zM334 806
q0 -15 -12 -25.5t-25 -16.5q-33 -19 -59 -32q-23 -11 -42 -20t-22 -6q-2 2 9.5 18.5t25.5 34.5q17 21 39 48q9 13 22 24t29 11t25.5 -10.5t9.5 -25.5z" />
    <glyph glyph-name="Ecircumflex" unicode="&#xca;" horiz-adv-x="460" 
d="M433 0h-402q13 7 20.5 17t7.5 28v590q0 17 -8 28t-20 17h376l2 -78q-15 17 -33.5 26t-50.5 9h-35.5t-57.5 1q-35 0 -78 1v-241h164q11 0 21 9.5t14 18.5v-97q-4 9 -14 18.5t-21 9.5h-164v-308q16 -2 49 -4t68 -2q40 0 68.5 1t48.5 7t35 18.5t29 36.5zM363 706
q-3 -3 -24.5 6.5t-46.5 22.5l-66 34q-37 -19 -67 -34q-13 -6 -25.5 -12t-22.5 -10.5t-16.5 -6.5t-7.5 0q-2 2 7.5 12.5t24 25.5t32.5 32.5t34 32t27.5 24t13.5 9.5t13.5 -9.5t27.5 -24t33.5 -32t32 -32.5t23.5 -25.5t7 -12.5z" />
    <glyph glyph-name="Edieresis" unicode="&#xcb;" horiz-adv-x="460" 
d="M433 0h-402q13 7 20.5 17t7.5 28v590q0 17 -8 28t-20 17h376l2 -78q-15 17 -33.5 26t-50.5 9h-35.5t-57.5 1q-35 0 -78 1v-241h164q11 0 21 9.5t14 18.5v-97q-4 9 -14 18.5t-21 9.5h-164v-308q16 -2 49 -4t68 -2q40 0 68.5 1t48.5 7t35 18.5t29 36.5zM207 769
q0 -21 -14.5 -35t-34.5 -14q-21 0 -35 14t-14 35q0 20 14 34.5t35 14.5q20 0 34.5 -14.5t14.5 -34.5zM351 769q0 -21 -14 -35t-35 -14q-20 0 -33.5 14t-13.5 35q0 20 13.5 34.5t33.5 14.5q21 0 35 -14.5t14 -34.5z" />
    <glyph glyph-name="Igrave" unicode="&#xcc;" horiz-adv-x="243" 
d="M33 0q12 7 19.5 17.5t7.5 27.5v590q0 17 -7.5 28t-19.5 17h148q-11 -6 -18.5 -17t-7.5 -28v-590q0 -17 7.5 -27.5t18.5 -17.5h-148zM188 706q-3 -3 -22 6t-41 20q-26 13 -58 32q-14 7 -26.5 17t-12.5 25t10.5 25.5t26.5 10.5t27.5 -11.5t22.5 -23.5q22 -27 39 -48
q14 -18 25 -34.5t9 -18.5z" />
    <glyph glyph-name="Iacute" unicode="&#xcd;" horiz-adv-x="241" 
d="M33 0q12 7 19.5 17.5t7.5 27.5v590q0 17 -7.5 28t-19.5 17h148q-26 -12 -26 -45v-590q0 -31 26 -45h-148zM194 806q0 -15 -12 -25.5t-25 -16.5q-33 -19 -59 -32q-23 -11 -42.5 -20t-22.5 -6q-2 2 10 18.5t26 34.5q17 21 39 48q9 12 22 23.5t29 11.5q14 0 24.5 -10.5
t10.5 -25.5z" />
    <glyph glyph-name="Icircumflex" unicode="&#xce;" horiz-adv-x="241" 
d="M34 0q27 14 27 45v590q0 32 -27 45h149q-26 -12 -26 -45v-590q0 -31 26 -45h-149zM248 706q-3 -3 -24.5 6.5t-47.5 22.5q-30 15 -66 34q-37 -19 -67 -34q-13 -6 -25.5 -12t-22.5 -10.5t-16.5 -6.5t-7.5 0t8 12.5t24 25.5t33 32.5t34 32t27 24t13 9.5t13.5 -9.5t27.5 -24
t33.5 -32t32 -32.5t23.5 -25.5t8 -12.5z" />
    <glyph glyph-name="Idieresis" unicode="&#xcf;" horiz-adv-x="238" 
d="M31 0q11 7 18.5 17.5t7.5 27.5v590q0 17 -7.5 28t-18.5 17h148q-12 -6 -19.5 -17t-7.5 -28v-590q0 -17 7.5 -27.5t19.5 -17.5h-148zM85 769q0 -21 -15 -35t-36 -14q-20 0 -33.5 14t-13.5 35q0 20 13.5 34.5t33.5 14.5q21 0 36 -14.5t15 -34.5zM229 769q0 -21 -14 -35
t-35 -14q-20 0 -34 14t-14 35q0 20 14 34.5t34 14.5q21 0 35 -14.5t14 -34.5z" />
    <glyph glyph-name="Ntilde" unicode="&#xd1;" horiz-adv-x="659" 
d="M608 680q-12 -6 -19.5 -17t-7.5 -28v-654q-133 162 -238 290q-45 55 -87.5 107.5t-76 94.5t-54 68t-20.5 28v-524q0 -31 28 -45h-101q11 7 18.5 17.5t7.5 27.5v552v17.5t-1.5 11t-4 8.5t-6.5 10q-8 9 -18.5 18.5t-27.5 17.5h138l395 -487v442q0 17 -7.5 28t-18.5 17h101z
M481 783q-15 -18 -33 -32q-15 -12 -34 -21.5t-40 -9.5q-19 0 -36.5 6t-32.5 13.5l-27 13.5t-20 6q-13 0 -23.5 -5.5t-18.5 -12.5q-10 -8 -17 -17l-23 12q1 6 11.5 18t26 24.5t35.5 21.5t40 9q12 0 27 -5t30.5 -11.5t30.5 -11.5t27 -5q14 0 24.5 3.5t17.5 8.5q8 5 14 12z" />
    <glyph glyph-name="Ograve" unicode="&#xd2;" horiz-adv-x="774" 
d="M629 331q0 72 -18.5 130.5t-52.5 100t-81.5 63.5t-103.5 22t-103 -20t-82 -57.5t-54.5 -91.5t-19.5 -123q0 -82 23.5 -142t61 -99t84 -58t92.5 -19q55 0 101.5 20.5t80.5 59t53 92.5t19 122zM739 334q-2 -86 -37 -150.5t-89 -108t-119 -65t-128 -19.5q-73 2 -139 29.5
t-116 75t-78.5 112.5t-26.5 142q1 61 27.5 122.5t75 110t118.5 78.5t159 28q62 -2 125.5 -25.5t114.5 -68t83 -110.5t30 -151zM436 706q-3 -3 -22.5 6t-42.5 20q-26 13 -59 32q-11 7 -23.5 17t-12.5 25t10.5 25.5t25.5 10.5t27.5 -11.5t21.5 -23.5q22 -27 39 -48
q14 -18 26 -34.5t10 -18.5z" />
    <glyph glyph-name="Oacute" unicode="&#xd3;" horiz-adv-x="774" 
d="M629 331q0 72 -18.5 130.5t-52.5 100t-81.5 63.5t-103.5 22t-103 -20t-82 -57.5t-54.5 -91.5t-19.5 -123q0 -82 23.5 -142t61 -99t84 -58t92.5 -19q55 0 101.5 20.5t80.5 59t53 92.5t19 122zM739 334q-2 -86 -37 -150.5t-89 -108t-119 -65t-128 -19.5q-73 2 -139 29.5
t-116 75t-78.5 112.5t-26.5 142q1 61 27.5 122.5t75 110t118.5 78.5t159 28q62 -2 125.5 -25.5t114.5 -68t83 -110.5t30 -151zM473 806q0 -15 -12.5 -25t-26.5 -17q-32 -19 -58 -32q-23 -11 -42.5 -20t-21.5 -6q-2 2 9.5 18.5t25.5 34.5q17 21 39 48q9 13 21.5 24t28.5 11
t26.5 -10.5t10.5 -25.5z" />
    <glyph glyph-name="Ocircumflex" unicode="&#xd4;" horiz-adv-x="774" 
d="M629 331q0 72 -18.5 130.5t-52.5 100t-81.5 63.5t-103.5 22t-103 -20t-82 -57.5t-54.5 -91.5t-19.5 -123q0 -82 23.5 -142t61 -99t84 -58t92.5 -19q55 0 101.5 20.5t80.5 59t53 92.5t19 122zM739 334q-2 -86 -37 -150.5t-89 -108t-119 -65t-128 -19.5q-73 2 -139 29.5
t-116 75t-78.5 112.5t-26.5 142q1 61 27.5 122.5t75 110t118.5 78.5t159 28q62 -2 125.5 -25.5t114.5 -68t83 -110.5t30 -151zM514 706q-3 -3 -25 6.5t-48 22.5q-30 15 -66 34q-36 -19 -66 -34q-26 -13 -48 -22.5t-25 -6.5q-1 2 8 12.5t24 25.5t33 32.5t34 32t27 24t13 9.5
t13.5 -9.5t27.5 -24t34 -32t32.5 -32.5t23.5 -25.5t8 -12.5z" />
    <glyph glyph-name="Otilde" unicode="&#xd5;" horiz-adv-x="774" 
d="M629 331q0 72 -18.5 130.5t-52.5 100t-81.5 63.5t-103.5 22t-103 -20t-82 -57.5t-54.5 -91.5t-19.5 -123q0 -82 23.5 -142t61 -99t84 -58t92.5 -19q55 0 101.5 20.5t80.5 59t53 92.5t19 122zM739 334q-2 -86 -37 -150.5t-89 -108t-119 -65t-128 -19.5q-73 2 -139 29.5
t-116 75t-78.5 112.5t-26.5 142q1 61 27.5 122.5t75 110t118.5 78.5t159 28q62 -2 125.5 -25.5t114.5 -68t83 -110.5t30 -151zM530 783q-15 -18 -33 -32q-15 -12 -34.5 -21.5t-40.5 -9.5q-19 0 -36.5 6t-32.5 13.5l-27 13.5t-20 6q-12 0 -23 -5.5t-19 -12.5q-10 -8 -18 -17
l-21 12q1 6 11.5 18t26.5 24.5t36 21.5t40 9q12 0 26.5 -5t30.5 -11.5t30.5 -11.5t26.5 -5q14 0 24 3.5t17 8.5q8 5 13 12z" />
    <glyph glyph-name="Odieresis" unicode="&#xd6;" horiz-adv-x="774" 
d="M630 331q0 72 -18.5 130.5t-52.5 100t-81.5 63.5t-103.5 22t-103 -20t-82 -57.5t-54.5 -91.5t-19.5 -123q0 -82 23.5 -142t61 -99t84 -58t92.5 -19q55 0 101.5 20.5t80.5 59t53 92.5t19 122zM740 334q-2 -86 -37 -150.5t-89 -108t-119 -65t-128 -19.5q-73 2 -139 29.5
t-116 75t-78.5 112.5t-26.5 142q1 61 27.5 122.5t75 110t118.5 78.5t159 28q62 -2 125.5 -25.5t114.5 -68t83 -110.5t30 -151zM355 769q0 -21 -15 -35t-35 -14t-33.5 14t-13.5 35q0 20 14 34.5t34 14.5t34.5 -14.5t14.5 -34.5zM500 769q0 -21 -14 -35t-35 -14
q-20 0 -34.5 14t-14.5 35q0 20 14.5 34.5t34.5 14.5q21 0 35 -14.5t14 -34.5z" />
    <glyph glyph-name="Oslash" unicode="&#xd8;" horiz-adv-x="774" 
d="M631 331q0 64 -16.5 116.5t-46.5 91.5q-40 -47 -88 -103.5t-97 -114t-96 -113t-84 -100.5q38 -35 82.5 -53t89.5 -18q55 0 102 20.5t81.5 59t53.5 92.5t19 122zM537 581q-66 66 -162 66q-56 0 -103.5 -20t-82.5 -57.5t-55 -91.5t-20 -123q0 -64 16 -114.5t42 -87.5
q42 49 91.5 106.5t98.5 115t94.5 111t80.5 95.5zM741 334q-2 -86 -37.5 -150.5t-89.5 -107.5t-119.5 -64.5t-128.5 -20.5q-56 2 -109 18.5t-98 47.5q-20 -25 -34 -41t-16 -21h-73q8 9 30 34t52 60q-53 48 -82.5 114.5t-27.5 146.5q1 61 27 122.5t74.5 110t118 78.5t158.5 28
q48 -1 98 -15.5t95 -41.5q17 22 29 35.5t14 18.5h72q-7 -8 -26 -29.5t-48 -54.5q56 -46 89.5 -112.5t31.5 -155.5z" />
    <glyph glyph-name="Ugrave" unicode="&#xd9;" horiz-adv-x="601" 
d="M568 680q-26 -12 -26 -45l-5 -419q-1 -62 -19.5 -104.5t-50 -69.5t-73 -39t-89.5 -12q-41 0 -84.5 11t-80 37t-60 69t-23.5 106v421q0 17 -10 28t-22 17h160q-13 -6 -23 -17t-10 -28v-423q0 -26 6 -56.5t24 -57t50.5 -44t85.5 -17.5q50 0 83.5 14.5t53.5 39t28.5 56
t8.5 65.5l-2 423q0 17 -7.5 28t-18.5 17h104zM364 706q-2 -3 -21.5 6t-41.5 20q-26 13 -58 32q-13 6 -26 16.5t-13 25.5t11.5 25.5t25.5 10.5q16 0 28.5 -11.5t21.5 -23.5q22 -27 39 -48q14 -18 25 -34.5t9 -18.5z" />
    <glyph glyph-name="Uacute" unicode="&#xda;" horiz-adv-x="601" 
d="M565 680q-26 -12 -26 -45l-5 -419q-1 -62 -19.5 -104.5t-50 -69.5t-73 -39t-89.5 -12q-41 0 -84.5 11t-80 37t-60 69t-23.5 106v421q0 17 -10 28t-22 17h159q-12 -6 -22 -17t-10 -28v-423q0 -26 6 -56.5t24 -57t50.5 -44t85.5 -17.5q50 0 83.5 14.5t53.5 39t28.5 56
t8.5 65.5l-2 423q0 17 -7.5 28t-18.5 17h104zM407 806q0 -15 -12 -25.5t-25 -16.5q-33 -19 -59 -32q-23 -11 -42 -20t-22 -6q-2 2 9.5 18.5t25.5 34.5q17 21 39 48q9 13 22 24t29 11q14 0 24.5 -10.5t10.5 -25.5z" />
    <glyph glyph-name="Ucircumflex" unicode="&#xdb;" horiz-adv-x="606" 
d="M565 680q-26 -13 -26 -45l-5 -419q-1 -62 -19.5 -104.5t-49.5 -69.5t-72.5 -39t-88.5 -12q-41 0 -85.5 11t-81 37t-60 69t-23.5 106v421q0 17 -10 28t-22 17h160q-13 -6 -23 -17t-10 -28v-423q0 -26 6 -56.5t24 -57t50.5 -44t85.5 -17.5q50 0 83.5 14.5t53.5 39t28.5 56
t8.5 65.5l-2 423q0 17 -7.5 28t-18.5 17h104zM450 706q-3 -3 -24.5 6.5t-47.5 22.5q-30 15 -67 34q-36 -19 -66 -34q-26 -13 -48 -22.5t-25 -6.5q-1 2 8 12.5t24 25.5t33 32.5t34 32t27 24t13 9.5t13.5 -9.5t27.5 -24t33.5 -32l32.5 -32.5t24 -25.5t8 -12.5z" />
    <glyph glyph-name="Udieresis" unicode="&#xdc;" horiz-adv-x="601" 
d="M565 680q-26 -12 -26 -45l-5 -419q-1 -62 -19.5 -104.5t-50 -69.5t-73 -39t-89.5 -12q-41 0 -84.5 11t-80 37t-60 69t-23.5 106v421q0 17 -10 28t-22 17h159q-12 -6 -22 -17t-10 -28v-423q0 -26 6 -56.5t24 -57t50.5 -44t85.5 -17.5q50 0 83.5 14.5t53.5 39t28.5 56
t8.5 65.5l-2 423q0 17 -7.5 28t-18.5 17h104zM297 769q0 -21 -15 -35t-35 -14t-33.5 14t-13.5 35q0 20 14 34.5t34 14.5t34.5 -14.5t14.5 -34.5zM442 769q0 -21 -14 -35t-35 -14q-20 0 -34.5 14t-14.5 35q0 20 14.5 34.5t34.5 14.5q21 0 35 -14.5t14 -34.5z" />
    <glyph glyph-name="germandbls" unicode="&#xdf;" horiz-adv-x="518" 
d="M483 190q0 -35 -14.5 -72t-47 -66.5t-83 -46.5t-122.5 -12q-14 -1 -25 0q-10 0 -19.5 1t-12.5 3v40q26 -3 65 1t76 21t63 50t26 89q0 46 -19 76.5t-49 48t-68 24t-77 4.5v46q69 4 110.5 40.5t41.5 96.5q0 22 -7.5 43t-21 37.5t-32 26.5t-40.5 10q-32 0 -51 -15
t-29.5 -36.5t-14 -47t-3.5 -46.5v-506h-111q12 7 18 13.5t6 23.5v452q0 29 8 64t30 65t60.5 50.5t100.5 20.5q34 0 66 -10t56 -29t38.5 -47.5t14.5 -64.5q0 -29 -11 -54.5t-29.5 -46t-44 -35.5t-54.5 -23q34 -2 70.5 -14.5t66.5 -36.5t49.5 -58.5t19.5 -79.5z" />
    <glyph glyph-name="agrave" unicode="&#xe0;" 
d="M279 261q-24 -12 -48 -19t-59 -19q-35 -13 -59 -34t-24 -59q0 -40 20.5 -61.5t55.5 -21.5q37 0 65 15t49 37v162zM315 -10q-17 11 -25.5 24.5t-9.5 49.5q-12 -12 -27.5 -25t-35.5 -23.5t-43 -17.5t-50 -7q-33 0 -56 13t-37.5 32t-20.5 40t-6 37q0 29 14 59t53 54
q20 12 50 21.5t60.5 18.5t56 18.5t37.5 21.5q1 1 2 7.5t1.5 13.5t0.5 13v8q0 16 -4.5 31.5t-15 28t-26.5 20t-40 7.5q-32 0 -55 -11t-40 -30t-28.5 -43.5t-20.5 -51.5l-2 124q14 9 29 18t33.5 16t42 11.5t53.5 4.5q22 0 49 -4.5t51 -19t40.5 -41t16.5 -70.5v-268
q0 -19 3 -30t27 -16zM256 503q-3 -3 -22.5 6t-42.5 20q-26 13 -59 31q-11 5 -23.5 15.5t-12.5 26.5t10 26.5t26 10.5t28 -12l23 -23l38 -48q14 -18 25.5 -34.5t9.5 -18.5z" />
    <glyph glyph-name="aacute" unicode="&#xe1;" 
d="M279 261q-23 -12 -47 -19t-59 -19q-35 -13 -60 -34t-25 -59q0 -40 21.5 -61.5t56.5 -21.5q37 0 64.5 15t48.5 37v162zM316 -10q-17 11 -25.5 24.5t-9.5 49.5q-12 -12 -28 -25t-36 -23.5t-43 -17.5t-50 -7q-33 0 -56 13t-37.5 32t-20.5 40t-6 37q0 29 14.5 59t53.5 54
q19 12 49 21.5t60.5 18.5t56.5 18.5t38 21.5q1 1 1.5 7.5t1 13.5t0.5 13v8q0 16 -4.5 31.5t-14.5 28t-26.5 20t-39.5 7.5q-32 0 -55.5 -11t-40 -30t-28.5 -43.5t-21 -51.5l-1 124q13 9 28 18t33.5 16t42 11.5t54.5 4.5q21 0 48.5 -4.5t51.5 -19t40.5 -41t16.5 -70.5v-268
q0 -19 3 -30t26 -16zM296 602q0 -16 -12 -26.5t-24 -15.5q-32 -18 -58 -31q-23 -11 -42.5 -20t-21.5 -6q-3 2 8.5 18.5t25.5 34.5q17 21 39 48q8 12 21.5 23.5t29.5 11.5q14 0 24 -10.5t10 -26.5z" />
    <glyph glyph-name="acircumflex" unicode="&#xe2;" 
d="M278 261q-23 -12 -47 -19t-58 -19q-37 -13 -61 -34t-24 -59q0 -40 20.5 -61.5t55.5 -21.5q37 0 65 15t49 37v162zM314 -10q-17 11 -25.5 24.5t-9.5 49.5q-12 -12 -27.5 -25t-35.5 -23.5t-43 -17.5t-50 -7q-33 0 -56 13t-37 32t-20 40t-6 37q0 29 13.5 59t52.5 54
q20 12 50 21.5t60.5 18.5t56 18.5t37.5 21.5q2 1 3 7.5t1.5 13.5t0 13t-0.5 8q0 16 -4.5 31.5t-15 28t-26.5 20t-40 7.5q-31 0 -54 -11t-40 -30t-29 -43.5t-21 -51.5l-2 124q14 9 29 18t33.5 16t42 11.5t53.5 4.5q22 0 49 -4.5t51 -19t40.5 -41t16.5 -70.5v-268
q0 -19 3.5 -30t26.5 -16zM338 503q-3 -3 -24.5 6.5t-47.5 21.5q-30 14 -67 34q-37 -20 -66 -34q-12 -6 -24.5 -11.5t-22.5 -10t-16.5 -6.5t-7.5 0t8 12.5t23.5 25.5t32.5 32.5t33.5 32t26.5 24t13 9.5t13.5 -9.5t27.5 -24t34 -32t32.5 -32.5t24 -25.5t7.5 -12.5z" />
    <glyph glyph-name="atilde" unicode="&#xe3;" 
d="M278 261q-23 -12 -47 -19t-58 -19q-37 -13 -61 -34t-24 -59q0 -40 20.5 -61.5t55.5 -21.5q37 0 65 15t49 37v162zM314 -10q-17 11 -25.5 24.5t-9.5 49.5q-12 -12 -27.5 -25t-35.5 -23.5t-43 -17.5t-50 -7q-33 0 -56 13t-37 32t-20 40t-6 37q0 29 13.5 59t52.5 54
q20 12 50 21.5t60.5 18.5t56 18.5t37.5 21.5q2 1 3 7.5t1.5 13.5t0 13t-0.5 8q0 16 -4.5 31.5t-15 28t-26.5 20t-40 7.5q-31 0 -54 -11t-40 -30t-29 -43.5t-21 -51.5l-2 124q14 9 29 18t33.5 16t42 11.5t53.5 4.5q22 0 49 -4.5t51 -19t40.5 -41t16.5 -70.5v-268
q0 -19 3.5 -30t26.5 -16zM345 579q-15 -17 -32 -29q-14 -11 -32 -19.5t-38 -8.5q-18 0 -35 5.5t-31 12t-25.5 12t-20.5 5.5q-11 0 -20.5 -5.5t-17.5 -11.5q-9 -7 -17 -16l-21 12q1 6 10.5 17.5t24.5 22.5t34 19.5t39 8.5q11 0 25 -5t29 -11t29.5 -11t25.5 -5q13 0 23 3t17 8
q8 5 13 12z" />
    <glyph glyph-name="adieresis" unicode="&#xe4;" 
d="M278 261q-23 -12 -47 -19t-58 -19q-37 -13 -61 -34t-24 -59q0 -40 20.5 -61.5t55.5 -21.5q37 0 65 15t49 37v162zM314 -10q-17 11 -25.5 24.5t-9.5 49.5q-12 -12 -27.5 -25t-35.5 -23.5t-43 -17.5t-50 -7q-33 0 -56 13t-37 32t-20 40t-6 37q0 29 13.5 59t52.5 54
q20 12 50 21.5t60.5 18.5t56 18.5t37.5 21.5q2 1 3 7.5t1.5 13.5t0 13t-0.5 8q0 16 -4.5 31.5t-15 28t-26.5 20t-40 7.5q-31 0 -54 -11t-40 -30t-29 -43.5t-21 -51.5l-2 124q14 9 29 18t33.5 16t42 11.5t53.5 4.5q22 0 49 -4.5t51 -19t40.5 -41t16.5 -70.5v-268
q0 -19 3.5 -30t26.5 -16zM177 569q0 -21 -13.5 -35t-33.5 -14t-33.5 14t-13.5 35q0 20 13.5 33.5t33.5 13.5t33.5 -13.5t13.5 -33.5zM321 569q0 -21 -14.5 -35t-34.5 -14t-33.5 14t-13.5 35q0 20 13.5 33.5t33.5 13.5t34.5 -13.5t14.5 -33.5z" />
    <glyph glyph-name="aring" unicode="&#xe5;" 
d="M277 261q-22 -12 -46 -19t-58 -19q-37 -13 -61 -34t-24 -59q0 -40 20.5 -61.5t55.5 -21.5q37 0 64.5 15t48.5 37v162zM246 571q0 18 -12.5 30.5t-32.5 12.5q-19 0 -31.5 -12.5t-12.5 -30.5q0 -20 12.5 -33t31.5 -13q20 0 32.5 13t12.5 33zM314 -10q-17 11 -25.5 24.5
t-9.5 49.5q-12 -12 -27.5 -25t-35 -23.5t-43 -17.5t-49.5 -7q-34 0 -57 13t-37 32t-20 40t-6 37q0 29 13.5 59.5t52.5 53.5q20 12 50 21.5t60 18.5t56 18.5t38 21.5q2 1 3 7.5t1 13.5v13t-1 8q0 16 -4.5 31.5t-14.5 28t-26 20t-40 7.5q-32 0 -55 -11t-39.5 -30t-28.5 -43.5
t-21 -51.5v124q13 9 27.5 18t32.5 16t41.5 11.5t54.5 4.5q22 0 49 -4.5t51 -19t40.5 -41t16.5 -70.5v-268q0 -19 3.5 -30t25.5 -16zM270 571q0 -28 -21 -48t-48 -20q-26 0 -46 20t-20 48q0 27 20 47.5t46 20.5q27 0 48 -20.5t21 -47.5z" />
    <glyph glyph-name="ae" unicode="&#xe6;" horiz-adv-x="703" 
d="M273 261q-23 -12 -46 -19t-58 -19q-35 -13 -60.5 -34t-25.5 -59q0 -40 22 -61.5t57 -21.5q36 0 60.5 17.5t41.5 45.5q5 8 6.5 33t2.5 51q1 31 0 67zM591 299q0 37 -9.5 62t-25 41t-35.5 23t-41 7q-28 0 -49 -11t-35 -29.5t-22.5 -42.5t-11.5 -50h229zM360 263
q0 -7 -1 -13.5t-1 -12.5q0 -38 10 -72.5t30 -61t50 -42.5t70 -16q26 0 52 10t47.5 25.5t38 34t24.5 35.5q-2 -30 -16.5 -59t-39 -52t-59 -37t-75.5 -14q-50 0 -81.5 13.5t-51 30t-31 30t-22.5 13.5t-23.5 -13t-33 -29t-51 -29t-76.5 -13q-33 0 -56 13t-37.5 32t-20.5 40
t-6 37q0 29 14.5 59t53.5 54q20 12 49.5 21.5t59.5 18.5t55 18.5t37 21.5q1 1 2.5 6t2 12t1 13t0.5 8q0 15 -5 30t-15.5 27.5t-27 20t-39.5 7.5q-32 0 -54.5 -11t-39.5 -29.5t-29 -42.5t-22 -51v123q13 9 27.5 18.5t32.5 16.5t41.5 11.5t55.5 4.5q29 0 50 -7.5t36.5 -16
t27 -16t22.5 -7.5q12 0 23.5 7.5t28.5 16t43 16t65 7.5q33 0 66 -11.5t59.5 -36.5t43.5 -64.5t17 -94.5h-322z" />
    <glyph glyph-name="ccedilla" unicode="&#xe7;" horiz-adv-x="417" 
d="M392 111q-1 -11 -9 -29t-24 -36t-40.5 -33t-58.5 -20l-59 -85h-57l60 83q-51 4 -88 27t-61 57t-35.5 75t-11.5 81q0 37 13 79.5t41.5 78.5t72.5 60t106 24q23 0 46.5 -5.5t42.5 -12.5q22 -8 43 -18l-2 -136q-17 58 -52.5 96t-82.5 38q-36 0 -62 -17.5t-43 -45.5
t-25 -61.5t-8 -66.5q0 -38 10 -73t29.5 -62t49 -43.5t68.5 -16.5q27 0 48.5 6.5t38.5 15.5t29.5 20t20.5 20z" />
    <glyph glyph-name="egrave" unicode="&#xe8;" horiz-adv-x="458" 
d="M336 303q0 36 -9 61.5t-24 41.5t-34.5 23.5t-40.5 7.5q-28 0 -49 -11t-36 -30t-24 -43t-13 -50h230zM104 266v-28q0 -38 10 -72t30 -60t50 -41.5t69 -15.5q27 0 52.5 9.5t47 24.5t37.5 33.5t24 36.5q-2 -31 -16.5 -60t-39 -51.5t-58.5 -36.5t-75 -14q-53 0 -94.5 20.5
t-70.5 54.5t-44.5 76.5t-15.5 87.5q0 41 14.5 84t43 78.5t72 58t100.5 22.5q32 0 65 -11.5t60 -36.5t44 -64.5t17 -94.5h-322zM304 503q-3 -3 -22.5 6t-42.5 20q-26 13 -58 31q-12 5 -24.5 15.5t-12.5 26.5t10.5 26.5t26.5 10.5q14 0 27 -11.5t22 -23.5q22 -27 39 -48
q14 -18 25.5 -34.5t9.5 -18.5z" />
    <glyph glyph-name="eacute" unicode="&#xe9;" horiz-adv-x="460" 
d="M336 303q0 36 -9 61.5t-24 41.5t-34.5 23.5t-40.5 7.5q-28 0 -49.5 -11t-36.5 -30t-24 -43t-12 -50h230zM104 266v-28q0 -38 10 -72t30 -60t50 -41.5t69 -15.5q26 0 51.5 9.5t47.5 24.5t38 33.5t24 36.5q-2 -31 -16.5 -60t-39 -51.5t-58.5 -36.5t-75 -14
q-53 0 -94.5 20.5t-70.5 54.5t-44.5 76.5t-15.5 87.5q0 41 14.5 84t43 78.5t71 58t99.5 22.5q33 0 66.5 -11.5t60.5 -36.5t44 -64.5t17 -94.5h-322zM315 602q0 -16 -12.5 -26t-25.5 -16q-32 -18 -58 -31q-23 -11 -42.5 -20t-21.5 -6q-2 2 9.5 18.5t25.5 34.5l38 48
q11 11 23.5 23t26.5 12q16 0 26.5 -10.5t10.5 -26.5z" />
    <glyph glyph-name="ecircumflex" unicode="&#xea;" horiz-adv-x="458" 
d="M336 303q0 36 -9 61.5t-24 41.5t-34.5 23.5t-40.5 7.5q-28 0 -49.5 -11t-36.5 -30t-24 -43t-12 -50h230zM104 266v-28q0 -38 10 -72t30 -60t50 -41.5t69 -15.5q26 0 51.5 9.5t47 24.5t38 33.5t23.5 36.5q-2 -31 -16 -60t-38.5 -51.5t-58.5 -36.5t-75 -14
q-53 0 -94.5 20.5t-70.5 54.5t-44.5 76.5t-15.5 87.5q0 41 14.5 84t43 78.5t71 58t99.5 22.5q33 0 66.5 -11.5t60.5 -36.5t44 -64.5t17 -94.5h-322zM369 503q-3 -3 -24.5 6.5t-47.5 21.5q-30 14 -67 34q-37 -20 -67 -34q-13 -6 -25.5 -11.5t-22.5 -10t-17 -6.5t-8 0
t8.5 12.5t24 25.5t33 32.5t34 32t27 24t13.5 9.5t13.5 -9.5t27.5 -24t33.5 -32l32.5 -32.5t24 -25.5t8 -12.5z" />
    <glyph glyph-name="edieresis" unicode="&#xeb;" horiz-adv-x="458" 
d="M336 303q0 36 -9 61.5t-24 41.5t-34.5 23.5t-40.5 7.5q-28 0 -49.5 -11t-36.5 -30t-24 -43t-12 -50h230zM104 266v-28q0 -38 10 -72t30 -60t50 -41.5t69 -15.5q26 0 51.5 9.5t47 24.5t38 33.5t23.5 36.5q-2 -31 -16 -60t-38.5 -51.5t-58.5 -36.5t-75 -14
q-53 0 -94.5 20.5t-70.5 54.5t-44.5 76.5t-15.5 87.5q0 41 14.5 84t43 78.5t71 58t99.5 22.5q33 0 66.5 -11.5t60.5 -36.5t44 -64.5t17 -94.5h-322zM203 569q0 -21 -14 -35t-34 -14t-33.5 14t-13.5 35q0 20 14 33.5t34 13.5t33.5 -13.5t13.5 -33.5zM346 569q0 -21 -13.5 -35
t-33.5 -14t-34.5 14t-14.5 35q0 20 14.5 33.5t34.5 13.5t33.5 -13.5t13.5 -33.5z" />
    <glyph glyph-name="igrave" unicode="&#xec;" horiz-adv-x="212" 
d="M25 0q11 7 18.5 14t7.5 24v371q0 23 -11.5 29.5t-23.5 10.5l122 24v-435q0 -17 7 -24t19 -14h-139zM161 503q-4 -3 -23 6t-42 20q-26 13 -59 31q-12 5 -24.5 15.5t-12.5 26.5t10.5 26.5t26.5 10.5q14 0 27.5 -11.5t22.5 -23.5q22 -27 39 -48q14 -18 25.5 -34.5t9.5 -18.5
z" />
    <glyph glyph-name="iacute" unicode="&#xed;" horiz-adv-x="212" 
d="M25 0q11 7 18.5 14t7.5 24v371q0 23 -11.5 29.5t-23.5 10.5l122 24v-435q0 -17 7 -24t19 -14h-139zM173 602q0 -16 -13.5 -26.5t-25.5 -15.5q-32 -18 -58 -31q-22 -11 -41.5 -20t-21.5 -6q-2 2 9 18.5t25 34.5q17 21 39 48q11 11 22.5 23t27.5 12q14 0 25.5 -10.5
t11.5 -26.5z" />
    <glyph glyph-name="icircumflex" unicode="&#xee;" horiz-adv-x="212" 
d="M25 0q13 7 19.5 14t6.5 24v371q0 23 -11.5 29.5t-23.5 10.5l122 24v-435q0 -17 7 -24t19 -14h-139zM234 503q-3 -3 -24.5 6.5t-47.5 21.5q-30 14 -66 34q-37 -20 -67 -34q-13 -6 -25.5 -11.5t-22.5 -10t-16.5 -6.5t-7.5 0t8 12.5t24 25.5t33 32.5t34 32t27 24t13 9.5
t13.5 -9.5t27.5 -24t34 -32t32.5 -32.5t23.5 -25.5t7 -12.5z" />
    <glyph glyph-name="idieresis" unicode="&#xef;" horiz-adv-x="212" 
d="M24 0q14 7 20 14t6 24v371q0 12 -3 19t-8 11t-11 6l-12 4l121 24v-435q0 -17 7.5 -24t19.5 -14h-140zM66 569q0 -21 -14 -35t-33 -14q-21 0 -34 14t-13 35q0 20 13.5 33.5t33.5 13.5t33.5 -13.5t13.5 -33.5zM209 569q0 -21 -13.5 -35t-33.5 -14t-33.5 14t-13.5 35
q0 20 13.5 33.5t33.5 13.5t33.5 -13.5t13.5 -33.5z" />
    <glyph glyph-name="ntilde" unicode="&#xf1;" horiz-adv-x="498" 
d="M319 0q13 7 19.5 14t6.5 24v260q0 21 -4 41.5t-16 37t-32.5 27t-53.5 10.5q-32 0 -59.5 -17t-41.5 -35v-324q0 -17 7 -24t19 -14h-138q12 7 18.5 14t6.5 24v371q0 23 -10 30t-23 12l120 22v-71q8 9 22.5 21t33.5 23.5t41.5 19t46.5 7.5q28 0 54.5 -9t47.5 -27t33.5 -44
t12.5 -59v-296q0 -17 7.5 -24t18.5 -14h-137zM388 579q-14 -17 -31 -29q-14 -11 -32 -19.5t-38 -8.5q-18 0 -34.5 5.5t-31 12t-26 12t-19.5 5.5q-12 0 -22 -5.5t-18 -11.5q-9 -7 -17 -16l-19 12q0 6 9.5 17.5t24.5 22.5t34 19.5t38 8.5q11 0 25 -5t29 -11t29.5 -11t25.5 -5
q13 0 22.5 3t16.5 8q8 5 13 12z" />
    <glyph glyph-name="ograve" unicode="&#xf2;" horiz-adv-x="484" 
d="M358 238q-2 38 -10.5 74.5t-25.5 64.5t-42 44.5t-58 15.5t-56.5 -19.5t-38 -47.5t-21 -66.5t-5.5 -77.5q1 -41 11 -77t27 -63t41.5 -42t55.5 -14q33 1 56.5 18.5t39 45.5t22 65t4.5 79zM449 231q0 -44 -15.5 -87t-44.5 -77t-69.5 -55t-90.5 -21q-59 0 -101 23t-68 58
t-38 77t-12 82q0 45 15 88t43.5 77.5t69.5 55.5t93 21q57 0 98 -21.5t68 -55.5t39.5 -77t12.5 -88zM297 503q-4 -3 -23 6t-42 20q-26 13 -58 31q-12 5 -24.5 15.5t-12.5 26.5t10.5 26.5t26.5 10.5q14 0 27 -12t21 -23q22 -27 39 -48q14 -18 26 -34.5t10 -18.5z" />
    <glyph glyph-name="oacute" unicode="&#xf3;" horiz-adv-x="483" 
d="M355 238q-2 38 -10.5 74.5t-25.5 64.5t-41.5 44.5t-57.5 15.5t-56 -19.5t-37.5 -47.5t-21 -66.5t-5.5 -77.5q1 -41 10.5 -77t26.5 -63t41.5 -42t56.5 -14q33 1 56.5 18.5t38 45.5t21 65t4.5 79zM448 231q0 -44 -15.5 -87t-44.5 -77t-70 -55t-91 -21q-59 0 -101 23
t-68.5 58t-38.5 77t-12 82q0 45 15 88t43.5 77.5t69.5 55.5t93 21q57 0 98.5 -21.5t68.5 -55.5t40 -77t13 -88zM317 602q0 -16 -13.5 -26.5t-24.5 -15.5q-33 -18 -59 -31q-23 -11 -42.5 -20t-22.5 -6q-2 2 10 18.5t26 34.5q17 21 39 48q8 11 21.5 23t28.5 12
q16 0 26.5 -10.5t10.5 -26.5z" />
    <glyph glyph-name="ocircumflex" unicode="&#xf4;" horiz-adv-x="484" 
d="M358 238q-2 38 -10.5 74.5t-25.5 64.5t-42 44.5t-58 15.5t-56.5 -19.5t-38 -47.5t-21 -66.5t-5.5 -77.5q1 -41 11 -77t27 -63t41.5 -42t55.5 -14q33 1 56.5 18.5t39 45.5t22 65t4.5 79zM449 231q0 -44 -15.5 -87t-44.5 -77t-69.5 -55t-90.5 -21q-59 0 -101 23t-68 58
t-38 77t-12 82q0 45 15 88t43.5 77.5t69.5 55.5t93 21q57 0 98 -21.5t68 -55.5t39.5 -77t12.5 -88zM367 503q-3 -3 -24.5 6.5t-47.5 21.5q-30 14 -66 34q-37 -20 -67 -34q-13 -6 -25.5 -11.5t-22.5 -10t-16.5 -6.5t-7.5 0t8 12.5t24 25.5l32.5 32.5t33.5 32t27.5 24
t13.5 9.5t13.5 -9.5t27.5 -24t33.5 -32t32 -32.5t23.5 -25.5t8 -12.5z" />
    <glyph glyph-name="otilde" unicode="&#xf5;" horiz-adv-x="484" 
d="M358 238q-2 38 -10.5 74.5t-25.5 64.5t-42 44.5t-58 15.5t-56.5 -19.5t-38 -47.5t-21 -66.5t-5.5 -77.5q1 -41 11 -77t27 -63t41.5 -42t55.5 -14q33 1 56.5 18.5t39 45.5t22 65t4.5 79zM449 231q0 -44 -15.5 -87t-44.5 -77t-69.5 -55t-90.5 -21q-59 0 -101 23t-68 58
t-38 77t-12 82q0 45 15 88t43.5 77.5t69.5 55.5t93 21q57 0 98 -21.5t68 -55.5t39.5 -77t12.5 -88zM375 579q-14 -17 -31 -29q-14 -11 -32.5 -19.5t-38.5 -8.5q-18 0 -34.5 5.5t-30.5 12t-25.5 12t-19.5 5.5q-12 0 -22 -5.5t-18 -11.5q-9 -7 -17 -16l-21 12q1 6 11 17.5
t25 22.5t34 19.5t38 8.5q11 0 25 -5t29 -11t29.5 -11t25.5 -5q13 0 23 3t17 8q8 5 13 12z" />
    <glyph glyph-name="odieresis" unicode="&#xf6;" horiz-adv-x="484" 
d="M358 238q-2 38 -10.5 74.5t-25.5 64.5t-42 44.5t-58 15.5t-56.5 -19.5t-38 -47.5t-21 -66.5t-5.5 -77.5q1 -41 11 -77t27 -63t41.5 -42t55.5 -14q33 1 56.5 18.5t39 45.5t22 65t4.5 79zM449 231q0 -44 -15.5 -87t-44.5 -77t-69.5 -55t-90.5 -21q-59 0 -101 23t-68 58
t-38 77t-12 82q0 45 15 88t43.5 77.5t69.5 55.5t93 21q57 0 98 -21.5t68 -55.5t39.5 -77t12.5 -88zM203 569q0 -21 -14 -35t-35 -14q-18 0 -31.5 14t-13.5 35q0 20 13.5 33.5t33.5 13.5t33.5 -13.5t13.5 -33.5zM346 569q0 -21 -13.5 -35t-33.5 -14t-33.5 14t-13.5 35
q0 20 13.5 33.5t33.5 13.5t33.5 -13.5t13.5 -33.5z" />
    <glyph glyph-name="divide" unicode="&#xf7;" horiz-adv-x="429" 
d="M242 247q0 -17 -12 -29.5t-30 -12.5q-17 0 -29.5 12.5t-12.5 29.5t12.5 29.5t29.5 12.5q18 0 30 -12.5t12 -29.5zM29 311v56h345v-56h-345zM242 432q0 -17 -12 -29.5t-30 -12.5q-17 0 -29.5 12.5t-12.5 29.5t12.5 29t29.5 12q18 0 30 -12t12 -29z" />
    <glyph glyph-name="oslash" unicode="&#xf8;" horiz-adv-x="484" 
d="M358 238q-2 58 -26 107q-22 -30 -47.5 -64.5l-51 -69t-50 -67.5t-44.5 -60q18 -26 41.5 -40.5t55.5 -13.5q33 1 56.5 18t38.5 45.5t21.5 65.5t5.5 79zM315 390q-17 22 -40 35t-53 12q-33 -1 -56 -19t-38 -47.5t-21.5 -66.5t-5.5 -76q1 -26 5 -50.5t14 -47.5
q23 30 48.5 64.5t51 68.5t50 67t45.5 60zM449 231q0 -44 -15.5 -87t-44.5 -77t-69.5 -55t-90.5 -21q-41 0 -73 11t-57 31q-11 -14 -18 -25.5t-8 -14.5h-59q5 8 19 26t33 44q-29 36 -42.5 81t-13.5 87q0 45 15 88t43.5 77.5t69.5 55.5t93 21q37 0 67 -9.5t53 -25.5
q12 15 18.5 25t9.5 12h57q-6 -7 -19 -23t-31 -40q32 -36 47.5 -84t15.5 -97z" />
    <glyph glyph-name="ugrave" unicode="&#xf9;" horiz-adv-x="495" 
d="M374 -9q-10 5 -16.5 10.5t-11 13t-6.5 18.5t-2 28q-12 -12 -26.5 -24.5t-32 -22.5t-39.5 -16.5t-49 -6.5q-23 0 -49 8.5t-49 29.5t-38 57.5t-15 92.5v230q0 23 -11.5 29.5t-24.5 10.5l123 24v-294q0 -64 29 -96.5t72 -32.5q38 0 61.5 15t46.5 36v308q0 23 -11.5 29.5
t-23.5 10.5l120 24v-393q0 -23 7.5 -38t32.5 -19zM292 503q-3 -3 -22 6t-42 20q-26 13 -59 31q-12 5 -24.5 15.5t-12.5 26.5t10.5 26.5t26.5 10.5q14 0 26.5 -12t23.5 -23q22 -27 39 -48q14 -18 25 -34.5t9 -18.5z" />
    <glyph glyph-name="uacute" unicode="&#xfa;" horiz-adv-x="495" 
d="M374 -9q-9 5 -15.5 10.5t-11 13t-6.5 18.5t-3 28q-23 -25 -58 -47.5t-87 -22.5q-23 0 -49.5 8.5t-49.5 29.5t-38.5 57.5t-15.5 92.5v230q0 12 -3 19t-8 11t-11 6l-12 4l121 24v-294q0 -64 30 -96.5t73 -32.5q37 0 61 15t47 36v308q0 23 -11.5 29.5t-25.5 10.5l120 24
v-393q0 -23 8.5 -38t33.5 -19zM329 602q0 -16 -13 -26.5t-25 -15.5q-32 -18 -58 -31q-23 -11 -42.5 -20t-21.5 -6q-3 2 8.5 18.5t25.5 34.5q17 21 39 48q8 12 21.5 23.5t29.5 11.5q14 0 25 -10.5t11 -26.5z" />
    <glyph glyph-name="ucircumflex" unicode="&#xfb;" horiz-adv-x="495" 
d="M374 -9q-9 5 -15.5 10.5t-11 13t-6.5 18.5t-3 28q-23 -25 -58 -47.5t-87 -22.5q-23 0 -49.5 8.5t-49.5 29.5t-38.5 57.5t-15.5 92.5v230q0 12 -3 19t-8 11t-11 6l-12 4l121 24v-294q0 -64 30 -96.5t73 -32.5q37 0 61 15t47 36v308q0 23 -11.5 29.5t-25.5 10.5l120 24
v-393q0 -23 8.5 -38t33.5 -19zM371 503q-4 -3 -25.5 6.5t-47.5 21.5q-30 14 -66 34q-37 -20 -67 -34q-26 -12 -47.5 -21.5t-24.5 -6.5q-2 2 7.5 12.5t24.5 25.5t33 32.5t33.5 32t27 24t13.5 9.5t13.5 -9.5t27.5 -24t33.5 -32l32.5 -32.5t24 -25.5t8 -12.5z" />
    <glyph glyph-name="udieresis" unicode="&#xfc;" horiz-adv-x="494" 
d="M376 -9q-10 5 -17 10.5t-11.5 13t-6.5 18.5t-2 28q-23 -25 -58 -47.5t-88 -22.5q-23 0 -49.5 8.5t-49.5 29.5t-38.5 57.5t-15.5 92.5v230q0 23 -11 29.5t-24 10.5l124 24v-294q0 -64 28.5 -96.5t72.5 -32.5q37 0 60.5 15t46.5 36v308q0 12 -3 19t-8 11t-11 6l-12 4
l120 24v-393q0 -23 7.5 -38t32.5 -19zM209 569q0 -21 -14.5 -35t-34.5 -14t-33.5 14t-13.5 35q0 20 13.5 33.5t33.5 13.5t34.5 -13.5t14.5 -33.5zM351 569q0 -21 -14 -35t-33 -14q-20 0 -34 14t-14 35q0 20 14 33.5t34 13.5q19 0 33 -13.5t14 -33.5z" />
    <glyph glyph-name="ydieresis" unicode="&#xff;" horiz-adv-x="385" 
d="M421 459q-18 -8 -31 -18t-21 -30q-26 -63 -61 -142t-73.5 -164.5t-76.5 -173.5t-71 -168h-90q16 8 26.5 16.5t18 17.5t13 19t11.5 22q20 38 43 84.5t46 96.5l-158 393q-6 14 -11 21.5t-10.5 12t-12.5 7t-17 6.5h173q-9 -3 -16 -7t-11.5 -10t-5 -15t4.5 -23l108 -284
q38 84 69.5 159.5t50.5 125.5q10 26 -2.5 38t-30.5 16h135zM166 569q0 -21 -14.5 -35t-34.5 -14t-32.5 14t-12.5 35q0 20 13.5 33.5t33.5 13.5t33.5 -13.5t13.5 -33.5zM308 569q0 -21 -13.5 -35t-33.5 -14t-33.5 14t-13.5 35q0 20 13.5 33.5t33.5 13.5t33.5 -13.5
t13.5 -33.5z" />
    <glyph glyph-name="notequal" unicode="&#x2260;" horiz-adv-x="429" 
d="M165 247l-36 -47h-70l37 47h-67v56h110l57 73h-167v56h208l33 43h73l-33 -43h64v-56h-111l-58 -73h169v-56h-209z" />
    <glyph glyph-name="lessequal" unicode="&#x2264;" 
d="M31 96v55h345v-55h-345zM33 365v51l343 200v-63l-282 -162l282 -160v-64z" />
    <glyph glyph-name="greaterequal" unicode="&#x2265;" horiz-adv-x="429" 
d="M31 96v55h343v-55h-343zM31 167v64l280 160l-280 162v63l343 -200v-51z" />
    <glyph glyph-name="radical" unicode="&#x221a;" horiz-adv-x="303" 
d="M132 525q0 -29 -14.5 -46t-44.5 -17q-10 0 -21.5 3t-19.5 8l-1 1v13h1q7 -4 19.5 -7.5t21.5 -3.5q26 0 35.5 14t9.5 34q0 19 -13.5 28.5t-29.5 18t-29.5 21t-13.5 37.5q0 24 15 38.5t37 14.5q11 0 19.5 -2t19.5 -7v-1v-13h-2q-18 9 -37 9q-18 0 -27.5 -11t-9.5 -28
q0 -19 13.5 -28.5t29 -18t29 -21t13.5 -36.5zM288 466v202l-52 -202h-15l-49 202v-202h-16v214h29l43 -180l47 180h28v-214h-15z" />
    <glyph glyph-name="Delta" unicode="&#x394;" horiz-adv-x="740" 
d="M0 0v680h681v-680h-681z" />
    <glyph glyph-name="Delta" unicode="&#x2206;" horiz-adv-x="740" 
d="M0 0v680h681v-680h-681z" />
    <glyph glyph-name="nonbreakingspace" unicode="&#xa0;" horiz-adv-x="500" 
 />
    <glyph glyph-name="caron" unicode="&#x2c7;" 
d="M62 639q2 2 24 -7t48 -21q30 -14 67 -34q37 20 66 34q25 12 46.5 21t24.5 7q1 -2 -8 -12.5t-23.5 -25.5t-32.5 -32.5t-33.5 -32t-26.5 -24t-13 -9.5t-13.5 9.5t-27.5 24t-34 32t-32.5 32.5t-24 25.5t-7.5 12.5z" />
    <glyph glyph-name="ring" unicode="&#x2da;" 
d="M249 571q0 18 -12.5 30.5t-32.5 12.5q-19 0 -31.5 -12.5t-12.5 -30.5q0 -20 12.5 -33t31.5 -13q20 0 32.5 13t12.5 33zM273 571q0 -28 -21 -48t-48 -20q-26 0 -46 20t-20 48q0 27 20 47.5t46 20.5q27 0 48 -20.5t21 -47.5z" />
    <glyph glyph-name="apple" horiz-adv-x="738" 
d="M653 657h-630v-634h630v634zM-1 0v680h677v-680h-677z" />
    </font>
</defs>
</svg>
