<?xml version="1.0" standalone="no"?>
<!DOCTYPE svg PUBLIC "-//W3C//DTD SVG 1.1//EN" "http://www.w3.org/Graphics/SVG/1.1/DTD/svg11.dtd" >
<svg xmlns="http://www.w3.org/2000/svg" xmlns:xlink="http://www.w3.org/1999/xlink" version="1.1">
<metadata>
Created by FontForge 20181214 at Mon Jul 19 21:01:03 2004
 By convertio
Copyright (c) Font Diner, 2004. All rights reserved.
</metadata>
<defs>
<font id="SquareMealHearty" horiz-adv-x="205" >
  <font-face 
    font-family="Square Meal Hearty"
    font-weight="500"
    font-stretch="normal"
    units-per-em="2048"
    panose-1="2 0 6 3 2 0 0 2 0 4"
    ascent="1638"
    descent="-410"
    x-height="1341"
    cap-height="1319"
    bbox="-760 -569 2950 2078"
    underline-thickness="41"
    underline-position="-272"
    unicode-range="U+0020-FB02"
  />
<missing-glyph horiz-adv-x="670" 
 />
    <glyph glyph-name=".notdef" horiz-adv-x="670" 
 />
    <glyph glyph-name="NUL" 
 />
    <glyph glyph-name="nonmarkingreturn" 
 />
    <glyph glyph-name="space" unicode=" " horiz-adv-x="670" 
 />
    <glyph glyph-name="exclam" unicode="!" horiz-adv-x="502" 
d="M440 1372q-24 -313 -24 -629q0 -106 1 -212.5t3 -213.5l-348 9q3 170 6.5 336.5t3.5 334.5q0 97 -1 192.5t-3 192.5l362 -10v0zM436 111q0 -37 -15 -67.5t-40.5 -52.5t-57.5 -34t-67 -12q-38 0 -73.5 12.5t-62.5 36t-43 56t-16 71.5q0 43 20 74t50.5 50.5t68.5 28.5t74 9
t65.5 -14t51 -38t33.5 -55t12 -65z" />
    <glyph glyph-name="quotedbl" unicode="&#x22;" horiz-adv-x="909" 
d="M848 1466q-6 -146 -9 -291t-5 -290h-338q0 146 -0.5 292.5t-3.5 295.5q89 -2 177.5 -3.5t178.5 -3.5zM418 1466q-6 -146 -9.5 -291t-5.5 -290h-337q0 146 -0.5 292.5t-4.5 295.5q90 -2 178.5 -3.5t178.5 -3.5z" />
    <glyph glyph-name="numbersign" unicode="#" horiz-adv-x="1374" 
d="M1266 688l-219 4l-25 -117q21 1 43.5 2.5t48.5 3t57 3t70 2.5l-47 -303l-233 4q-10 -46 -19.5 -95t-23.5 -118l-304 10q20 68 33.5 115.5t24.5 89.5q-31 0 -60.5 1t-60.5 1q-9 -47 -19.5 -97.5t-25.5 -119.5l-301 10q18 68 31 115.5t24 89.5l-209 -2l72 299
q65 -3 113.5 -6t93.5 -5q8 31 14 61.5t12 59.5l-239 -2l82 297q65 -3 114.5 -5.5t96.5 -4.5q8 44 15 93t17 116l312 14l-54 -231h117l37 215l311 16l-51 -221q20 1 40.5 1.5t44.5 2t54 3t68 3.5zM639 698l-31 -131l131 2l27 127z" />
    <glyph glyph-name="dollar" unicode="$" horiz-adv-x="1225" 
d="M872 911q-12 59 -43 98.5t-73 61.5q-2 -59 -3 -118t-1 -119q39 -6 85 -14t92 -21.5t88.5 -33.5t75.5 -49t52.5 -68.5t19.5 -92.5q0 -95 -35 -166t-92 -120.5t-129 -80t-147 -45.5l2 -141l-301 4q3 43 4.5 72.5t3.5 52.5q-75 10 -148.5 41t-136 83.5t-108.5 127.5t-66 174
h365q6 -66 34 -112.5t68 -71.5q2 65 3 128t1 128q-41 7 -88 17t-93.5 25t-90 37t-76.5 53t-52.5 72.5t-19.5 96.5q0 104 36 173.5t94.5 114t134 68t153.5 33.5l-2 143l285 -8l-2 -131q46 -5 98.5 -17.5t104 -34t98.5 -53.5t83 -76t57.5 -101.5t21.5 -129.5h-353zM483 1096
q-57 -10 -91 -38t-34 -81q0 -24 11.5 -40.5t29.5 -27.5t40.5 -18t43.5 -12v217zM827 494q0 31 -22 48.5t-51 26.5l4 -196q69 37 69 121z" />
    <glyph glyph-name="percent" unicode="%" horiz-adv-x="1706" 
d="M1645 354q0 -81 -33 -144.5t-86.5 -108t-122.5 -68t-141 -23.5t-141 19.5t-123 60t-87.5 103t-33.5 147.5q0 77 32 145t85.5 118.5t123 80t144.5 29.5q81 0 151 -23.5t121.5 -69t81 -112.5t29.5 -154zM659 68l-321 6q110 165 205.5 325.5t180 320.5t159.5 322t143 330
h309zM827 1034q0 -80 -32 -143.5t-85 -108t-121 -68.5t-140 -24t-142 20t-124.5 60.5t-88 103t-33.5 146.5q0 78 32.5 146t86.5 119t124 80.5t145 29.5q81 0 150.5 -24t120 -70t79 -113.5t28.5 -153.5zM1386 352q0 63 -36 99t-99 36q-29 0 -55 -11.5t-45.5 -31.5t-31 -46.5
t-11.5 -55.5q0 -24 12 -45.5t32 -38.5t45 -27t52 -10q29 0 54 10t43.5 28t29 42t10.5 51zM565 1032q0 62 -33.5 96.5t-95.5 34.5q-28 0 -53.5 -11.5t-44.5 -30.5t-30 -44.5t-11 -54.5q0 -22 11.5 -43t31 -37t44 -25.5t50.5 -9.5q29 0 53 9t41 25.5t27 39.5t10 51z" />
    <glyph glyph-name="ampersand" unicode="&#x26;" horiz-adv-x="1446" 
d="M1421 567q-55 -78 -100.5 -131.5t-91.5 -97.5l37 -18.5t41 -20t47.5 -22.5t56.5 -27l-108 -275q-46 25 -86 47.5t-76 44t-69.5 41.5t-65.5 39q-54 -37 -112.5 -70.5t-121.5 -58t-129 -39t-135 -14.5q-80 0 -163 23.5t-150.5 72t-110.5 121.5t-43 172q0 69 26 125.5
t67 102.5t90.5 82.5t97.5 64.5q-47 74 -77 159.5t-30 176.5q0 94 38 167.5t100 124t141.5 77t162.5 26.5q79 0 152.5 -24t129.5 -71t90 -116t34 -159q0 -81 -27 -146.5t-71 -118.5t-99 -95t-112 -77q54 -46 111.5 -88.5t117.5 -81.5q24 24 45.5 51t42.5 59t41.5 70t42.5 85
l266 -181v0zM788 1090q0 46 -36 70t-95 24q-34 0 -64 -8t-52.5 -23.5t-35.5 -37.5t-13 -50q0 -53 19 -104t50 -99q30 16 69 39.5t74.5 53t59.5 63.5t24 72zM748 309q-65 48 -127 98.5t-121 106.5q-20 -11 -48.5 -28.5t-54.5 -38.5t-44.5 -45t-18.5 -48q0 -29 13.5 -50.5
t37.5 -35t55.5 -20t67.5 -6.5q62 0 122.5 18t117.5 49z" />
    <glyph glyph-name="quotesingle" unicode="'" horiz-adv-x="479" 
d="M418 1466q-6 -146 -9.5 -291t-5.5 -290h-337q0 146 -0.5 292.5t-4.5 295.5q90 -2 178.5 -3.5t178.5 -3.5z" />
    <glyph glyph-name="parenleft" unicode="(" horiz-adv-x="680" 
d="M610 -86q-99 15 -178.5 56t-140.5 100t-104.5 133t-71.5 156.5t-41 169.5t-13 171q0 132 30 263.5t95.5 243.5t170 196t253.5 123v-301q-76 -29 -128 -78.5t-83.5 -112t-45 -136t-13.5 -150.5q0 -87 12.5 -169t44.5 -152t86.5 -125.5t137.5 -90.5z" />
    <glyph glyph-name="parenright" unicode=")" horiz-adv-x="680" 
d="M618 737q0 -88 -13 -176.5t-41 -172t-71 -159t-104 -138t-139.5 -109.5t-177.5 -72v303q76 29 127.5 78t83 111.5t45.5 136t14 151.5q0 86 -13 167t-45 151.5t-86 126.5t-137 90l11 297q99 -15 177.5 -56t139.5 -100.5t104 -133.5t71 -156t41 -168.5t13 -170.5z" />
    <glyph glyph-name="asterisk" unicode="*" horiz-adv-x="1153" 
d="M932 274q-59 50 -119 99.5t-123 95.5q2 -34 5.5 -68.5t7.5 -72t9.5 -80t12.5 -92.5l-334 12q19 87 33.5 156.5t24.5 134.5q-55 -37 -112.5 -81t-135.5 -104l-156 289q87 31 157 57t132 54q-60 28 -128.5 53t-160.5 59l156 289q78 -60 141 -108t123 -88q-1 34 -3 68.5
t-5.5 73t-7.5 81t-9 92.5l324 -12q-17 -87 -30.5 -155.5t-24.5 -131.5q58 42 112.5 88t110.5 92l178 -280q-85 -34 -154 -63t-129 -58q29 -14 59.5 -27t65 -27t73.5 -29.5t85 -33.5z" />
    <glyph glyph-name="plus" unicode="+" horiz-adv-x="1272" 
d="M1210 535q-105 2 -208.5 4t-208.5 4q0 -193 12 -387l-379 16q15 93 26 186t17 187q-102 0 -203.5 -1t-204.5 -3l13 313q100 -9 200.5 -13t200.5 -7q3 92 7.5 182.5t9.5 181.5l360 -12l-45 -350q97 2 193.5 6.5t193.5 13.5l16 -321v0z" />
    <glyph glyph-name="comma" unicode="," horiz-adv-x="442" 
d="M381 72q0 -73 -35 -122.5t-89.5 -79.5t-119.5 -43t-125 -13q19 10 41 23t43.5 27.5t40.5 31t31 34.5q-53 16 -87 58.5t-34 99.5q0 38 16 65.5t41.5 45t59 26t67.5 8.5q32 0 59 -13.5t47.5 -36t32 -51.5t11.5 -60z" />
    <glyph glyph-name="hyphen" unicode="-" horiz-adv-x="1217" 
d="M1157 532q-95 3 -183.5 5t-172 3.5t-164 2t-160.5 0.5q-47 0 -95 -0.5t-99 -1t-106.5 -1.5t-117.5 -3l11 288q73 -4 139.5 -7t129 -5.5t122 -4t117.5 -1.5q131 0 268 5.5t297 14.5l14 -295v0z" />
    <glyph glyph-name="period" unicode="." horiz-adv-x="475" 
d="M414 86q0 -34 -12.5 -64.5t-35 -53t-53 -35.5t-65.5 -13q-34 0 -68 10t-60 30t-42.5 49.5t-16.5 68.5q0 41 18 72t47 52.5t65 32.5t73 11q78 0 114 -43t36 -117z" />
    <glyph glyph-name="slash" unicode="/" horiz-adv-x="1155" 
d="M1178 1462q-96 -176 -190 -351.5t-185 -352.5q-99 -193 -193 -385t-188 -387l-381 6q207 361 397.5 732t374.5 744q182 -6 365 -6z" />
    <glyph glyph-name="zero" unicode="0" horiz-adv-x="1341" 
d="M1280 743q0 -130 -44.5 -245.5t-124.5 -202.5t-191.5 -138t-245.5 -51q-137 0 -250 44t-193.5 124t-125 192.5t-44.5 250.5q0 81 20 164t58 160t92.5 144.5t122.5 117.5t148.5 79t171.5 29q150 0 263 -52t189.5 -142.5t115 -212.5t38.5 -261zM965 750q0 77 -15.5 150.5
t-50 131t-89.5 92.5t-134 35q-48 0 -88.5 -19t-74 -51.5t-59 -76t-42.5 -92t-26 -99t-9 -98.5q0 -65 22 -132t61.5 -121t94 -88t119.5 -34q71 0 125.5 35.5t91.5 93t55.5 129.5t18.5 144z" />
    <glyph glyph-name="one" unicode="1" horiz-adv-x="547" 
d="M485 1303q-9 -84 -19.5 -168t-20 -168.5t-15.5 -169t-6 -168.5q0 -131 3.5 -261t8.5 -262l-375 13q17 167 33.5 332.5t16.5 332.5q0 135 3.5 266.5t8.5 264.5l362 -12v0z" />
    <glyph glyph-name="two" unicode="2" horiz-adv-x="1346" 
d="M1305 965q0 -76 -21 -133t-56.5 -97.5t-83.5 -68t-102 -46t-111 -29.5t-112 -20q-37 -6 -75.5 -11.5t-77 -12.5t-76 -17.5t-72.5 -25.5q-46 -20 -75.5 -51t-39.5 -80l830 18l-10 -299q-65 4 -124 6t-113.5 3.5t-106.5 2t-103 0.5q-170 0 -345.5 -3.5t-375.5 -6.5v203
q0 103 28 179.5t76 131.5t112 91.5t137 60t150.5 36.5t152.5 21q41 4 92.5 9.5t97.5 21.5t77.5 47t31.5 86q0 56 -34 100t-86 74t-115 46t-122 16q-60 0 -110.5 -17.5t-87 -53t-56.5 -90t-20 -128.5l-338 -8q-1 101 24 179.5t68 137t102 98.5t126.5 64.5t141 35.5t146.5 11
q62 0 134.5 -12.5t145.5 -38.5t141 -65.5t120 -93t83.5 -121t31.5 -150.5z" />
    <glyph glyph-name="three" unicode="3" horiz-adv-x="1286" 
d="M1245 389q0 -95 -36.5 -168t-97 -127.5t-138 -91t-160 -59t-163 -32t-146.5 -9.5q-55 0 -131.5 6t-158 21t-161 41t-141.5 67l72 280q64 -34 129.5 -61.5t129.5 -47.5t123.5 -31t110.5 -11q37 0 83 4t92.5 14t90.5 27.5t78.5 43.5t55 62t20.5 84q0 45 -23 77.5t-60.5 55
t-85 36t-96 20.5t-93.5 9.5t-78 2.5q-32 0 -65.5 -1t-69.5 -5t-76.5 -12t-87.5 -21l-6 322q38 -9 72 -15t68 -9t68.5 -4t71.5 -1q36 0 78.5 3.5t85.5 13t83.5 25t71.5 40t49.5 59t18.5 80.5q0 33 -15 55t-39.5 36t-55 20.5t-62.5 9t-62.5 2.5h-53.5q-90 0 -201.5 -31.5
t-222.5 -85.5l-123 265q72 29 147.5 53.5t150 42.5t145 28.5t132.5 10.5q57 0 125 -6.5t136 -23t131.5 -44.5t112.5 -70t78.5 -99.5t29.5 -133.5q0 -131 -54 -220t-151 -138q56 -20 105.5 -51t87 -74.5t59.5 -101t22 -132.5z" />
    <glyph glyph-name="four" unicode="4" horiz-adv-x="1368" 
d="M1296 416q-60 3 -104 3.5t-82 2.5q-1 -51 -1.5 -103.5t-1 -107.5t-0.5 -114.5t1 -125.5l-338 -6q9 134 16 244t13 213q-88 0 -176 -0.5t-179.5 -1.5t-189 -2.5t-203.5 -3.5q22 101 36.5 195.5t23.5 184.5t12.5 176t3.5 171q0 22 -0.5 44.5t-1.5 48t-3 56t-5 68.5h334
v-162t-2.5 -162t-9.5 -162t-21 -161l393 10q0 15 1 30t1 29q0 73 -2 146.5t-5.5 150t-8.5 157.5t-11 169h357q-14 -186 -19 -350t-8 -322l193 4z" />
    <glyph glyph-name="five" unicode="5" horiz-adv-x="1493" 
d="M1452 465q0 -89 -32 -164t-86.5 -136t-125.5 -107t-149 -77t-157.5 -47t-151.5 -16q-59 0 -128 8.5t-139.5 28t-139 52t-126.5 81t-101.5 114t-64.5 150.5h377q17 -47 55 -78.5t86.5 -51t101 -28t97.5 -8.5q65 0 126 19.5t108.5 56t76.5 88t29 115.5q0 54 -31 98t-79 75
t-107.5 47.5t-116.5 16.5q-47 0 -99.5 -9t-101.5 -29t-89.5 -51.5t-63.5 -77.5l-334 -5q2 52 3.5 96.5t2 84.5t0.5 77v74q0 58 -0.5 116t-1 119.5t-1.5 128t-3 140.5q89 -2 171.5 -3.5t160.5 -2.5t153 -1.5t150 -0.5q149 0 303 2t332 6v-322q-100 8 -192.5 13.5t-181 9
t-174 5t-169.5 1.5h-125t-125 -2q3 -49 3.5 -96.5t0.5 -95.5q85 38 175.5 53.5t181.5 15.5q67 0 145.5 -9.5t156.5 -31.5t150.5 -58.5t128 -90t88.5 -126t33 -167.5z" />
    <glyph glyph-name="six" unicode="6" horiz-adv-x="1694" 
d="M1286 850q-25 63 -71.5 107.5t-104 73t-121 41.5t-123.5 13q-87 0 -164 -26.5t-138 -74.5t-101 -115.5t-53 -149.5q109 60 231 87.5t244 27.5q59 0 136 -7t159 -23.5t161 -45t141 -71.5t100 -102.5t38 -138.5q0 -92 -39 -163t-103 -124t-145.5 -89.5t-166.5 -58.5
t-166 -32t-144 -10q-104 0 -203.5 17.5t-187.5 53t-162.5 90.5t-128 130.5t-83.5 171t-30 213.5q0 116 36.5 212.5t99.5 173t147 134t179.5 95t198 56.5t200.5 19q102 0 212 -26.5t209.5 -83.5t180 -147t123.5 -218zM1251 438q0 40 -17.5 68.5t-47 48.5t-66.5 32t-76.5 18.5
t-77.5 8.5t-69 2q-124 0 -236.5 -45t-205.5 -127q28 -55 72 -96t99 -68.5t117.5 -41t126.5 -13.5q36 0 78 3t84.5 11.5t82 23t70 38.5t48.5 57.5t18 79.5z" />
    <glyph glyph-name="seven" unicode="7" horiz-adv-x="1214" 
d="M1282 1366q-52 -94 -99 -178.5t-90 -163t-83 -153.5t-78 -150q-76 -150 -144.5 -304.5t-130.5 -328.5l-417 2l583 1024q-98 -5 -197 -10.5t-200.5 -13.5t-207 -19.5t-216.5 -28.5l-49 338q90 -6 172 -11t159 -8t150.5 -5t145.5 -2q79 0 159.5 1t166.5 2.5t179 4t197 4.5z
" />
    <glyph glyph-name="eight" unicode="8" horiz-adv-x="1550" 
d="M1489 354q0 -76 -38.5 -134t-101.5 -100t-142 -70t-160.5 -44.5t-157 -23.5t-131.5 -7q-58 0 -132.5 7.5t-152 25.5t-151.5 47.5t-132 73t-93.5 102.5t-35.5 136q0 57 18 102.5t47.5 82t68.5 64.5t81 48q-37 20 -70.5 46.5t-58 61t-39 77t-14.5 93.5q0 72 35.5 128
t93.5 98t131.5 71t149.5 47.5t148 26.5t126 8q59 0 132 -7.5t148.5 -25t147 -47t127 -73t89.5 -102.5t34 -136q0 -51 -14 -91.5t-38 -72.5t-56.5 -57t-69.5 -43q45 -22 83.5 -51t67 -67.5t44.5 -86.5t16 -107zM1106 942q0 59 -32.5 95t-80.5 55.5t-103.5 26.5t-101.5 7
q-31 0 -68.5 -2.5t-75.5 -9.5t-73.5 -20t-63.5 -33.5t-44.5 -50t-16.5 -70.5q0 -52 34 -84t83 -49t103.5 -23t95.5 -6h69.5t76 3.5t74 12.5t63.5 27t44.5 47.5t16.5 73.5zM1126 367q0 63 -34.5 102t-86 60t-110.5 28.5t-109 7.5q-34 0 -74 -3t-80 -11t-77.5 -21.5t-66.5 -36
t-46.5 -54t-17.5 -74.5q0 -37 17 -64.5t44.5 -47t63 -32.5t73 -20t73.5 -10t65 -3h74.5t81 4t78.5 14t67.5 30t47 51.5t17.5 79.5z" />
    <glyph glyph-name="nine" unicode="9" horiz-adv-x="1511" 
d="M1450 682q0 -110 -30.5 -202.5t-84 -167t-126.5 -131.5t-159 -95t-181.5 -57t-192.5 -19q-98 0 -195.5 29.5t-182 89t-149.5 148t-100 206.5l320 13q21 -61 58.5 -105.5t84.5 -74t101 -44t108 -14.5q85 0 154 23.5t120.5 67t85.5 105.5t49 138q-89 -60 -194 -88.5
t-211 -28.5q-57 0 -126 8.5t-140 27.5t-137.5 51t-118.5 79t-83.5 110.5t-31.5 145.5q0 87 29.5 156t79.5 122t115 91t136.5 62.5t144.5 36t138 11.5q159 0 291 -47.5t227.5 -137t148 -218t52.5 -291.5zM1106 866q-56 121 -155 186.5t-232 65.5q-51 0 -105.5 -14
t-99.5 -40.5t-73.5 -64.5t-28.5 -86q0 -54 26 -95t68.5 -69t96.5 -42.5t110 -14.5q57 0 115.5 9.5t112 30.5t97 54t68.5 80z" />
    <glyph glyph-name="colon" unicode=":" horiz-adv-x="467" 
d="M406 549q0 -34 -13 -63t-35 -50.5t-51.5 -34t-62.5 -12.5q-34 0 -66.5 10t-58.5 29.5t-42 48.5t-16 66q0 40 17.5 70.5t45 51.5t63 31.5t71.5 10.5q77 0 112.5 -43t35.5 -115zM397 80q0 -34 -13 -62.5t-34.5 -49.5t-51 -32.5t-62.5 -11.5q-35 0 -66.5 12.5t-55 35
t-37.5 53t-14 65.5q0 39 17.5 68t45.5 47.5t62 27.5t68 9q33 0 59 -14t44.5 -37t28 -52t9.5 -59z" />
    <glyph glyph-name="semicolon" unicode=";" horiz-adv-x="449" 
d="M387 553q0 -34 -12 -64t-33.5 -52.5t-51.5 -35t-65 -12.5q-34 0 -66 10t-57.5 29.5t-41 48.5t-15.5 66q0 40 17 70.5t45 51.5t63.5 31.5t71.5 10.5q75 0 110 -41t35 -113zM381 72q0 -73 -35 -122.5t-89.5 -79.5t-119.5 -43t-125 -13q19 10 41 23t43.5 27.5t40.5 31
t31 34.5q-53 16 -87 58.5t-34 99.5q0 38 16 65.5t41.5 45t59 26t67.5 8.5q32 0 59 -13.5t47.5 -36t32 -51.5t11.5 -60z" />
    <glyph glyph-name="less" unicode="&#x3c;" horiz-adv-x="1165" 
d="M1106 156q-79 30 -150.5 57.5t-138.5 52t-129.5 45.5t-124.5 37q-113 31 -233.5 56t-261.5 45l-7 391q153 37 286 73.5t261 79.5q56 20 112.5 41t117 44t127 48.5t141.5 55.5v-324q-165 -56 -316 -104.5t-301 -96.5q148 -46 298 -93.5t319 -96.5v-311v0z" />
    <glyph glyph-name="equal" unicode="=" horiz-adv-x="1317" 
d="M1255 655q-196 3 -391 7t-391 4q-103 0 -205.5 -1.5t-206.5 -5.5l9 349q133 -11 264 -18t264 -7q162 0 321 7t320 18l16 -353v0zM1255 219q-196 3 -391 6.5t-391 3.5q-205 0 -412 -6l9 350q136 -11 269 -18.5t267 -7.5q159 0 316.5 7.5t316.5 16.5l16 -352v0z" />
    <glyph glyph-name="greater" unicode="&#x3e;" horiz-adv-x="1165" 
d="M1106 498q-154 -39 -286.5 -75.5t-260.5 -80.5q-56 -19 -112.5 -39.5t-117.5 -43t-127 -48.5t-141 -57v325q165 54 315.5 103.5t299.5 97.5q-146 46 -296.5 93t-318.5 97v312q80 -31 151 -59t137 -52.5t129 -45.5t126 -38q114 -29 234 -54.5t262 -43.5l6 -391v0z" />
    <glyph glyph-name="question" unicode="?" horiz-adv-x="1446" 
d="M1405 879q0 -81 -20.5 -141.5t-60 -104.5t-97 -74t-131.5 -51q-34 -10 -75.5 -18.5t-76 -24t-55.5 -44t-15 -79.5l-399 6q0 95 25 154.5t66.5 95t95 52.5t109 27.5t108.5 19.5t95 28.5t67.5 54.5t25.5 97q0 41 -16.5 72.5t-44.5 55t-64 39.5t-74 25.5t-76.5 13.5t-70.5 4
q-67 0 -122 -17.5t-93.5 -53t-59.5 -88t-20 -123.5l-365 -6q-1 96 24.5 172t70.5 133t107 97.5t135 65.5t154.5 36.5t164.5 11.5q63 0 139 -10t152.5 -32t148 -56.5t126.5 -83t88.5 -111.5t33.5 -143zM864 135q0 -38 -15 -70.5t-40.5 -56t-59 -36.5t-71.5 -13
q-37 0 -74 10.5t-66.5 31.5t-48 52.5t-18.5 73.5q0 44 20 77t52.5 55t72 33t78.5 11q81 0 125.5 -43t44.5 -125z" />
    <glyph glyph-name="at" unicode="@" horiz-adv-x="1589" 
d="M1528 692q0 -80 -24 -155t-70 -133t-113.5 -93t-153.5 -35q-31 0 -62.5 5.5t-60 18t-52.5 32.5t-40 49q-24 -20 -57 -34t-68 -23t-69 -13t-62 -4q-48 0 -93.5 11t-81 35t-56.5 62t-21 93q0 61 33 104.5t83 75t107.5 52.5t107.5 37t83 29t33 28v8q0 20 -1 42.5t-8 42
t-22 32t-43 12.5q-24 0 -38.5 -10t-23 -26t-11.5 -36t-3 -39q0 -3 0.5 -9.5t2 -14t4 -14t6.5 -9.5h-287q0 79 32.5 133.5t86 88t121.5 48.5t139 15q90 0 148.5 -23t93.5 -66.5t49 -106t14 -142.5q0 -59 -3 -117t-3 -117q0 -10 1 -22t5.5 -22t13 -16.5t23.5 -6.5
q28 0 46 27.5t28.5 64.5t15 74.5t4.5 58.5q0 108 -34.5 196.5t-97.5 151.5t-151 97t-196 34q-111 0 -201.5 -33.5t-154.5 -96.5t-99 -153t-35 -202q0 -98 36.5 -181t99.5 -143.5t147.5 -94.5t181.5 -34q39 0 70.5 1.5t61 6.5t60 13.5t66.5 23.5l228 -129q-64 -34 -121 -59
t-114.5 -41t-119.5 -23.5t-135 -7.5q-94 0 -183.5 22.5t-169 64.5t-145.5 102t-114 135t-74.5 162.5t-26.5 185.5q0 103 28 192.5t77.5 163.5t118.5 131.5t151 97.5t175 60.5t190 20.5q155 0 288 -40.5t230.5 -122t153 -205t55.5 -288.5zM907 553q-6 47 -6 94
q-15 -7 -46 -17.5t-62 -25t-54.5 -31.5t-23.5 -36q0 -23 13.5 -33t35.5 -10q18 0 37.5 4.5t39 12.5t37 19t29.5 23z" />
    <glyph glyph-name="A" unicode="A" horiz-adv-x="1604" 
d="M1239 -88q-40 125 -74.5 233.5t-68.5 214.5l-604 23l-152 -309l-391 4q166 270 316.5 544.5t283.5 561.5h-66.5t-70.5 -0.5t-78.5 -1t-89.5 -2.5l12 303q84 -4 162.5 -7.5t152.5 -6t144.5 -4t140.5 -1.5q167 0 339.5 6t367.5 13l20 -305l-418 4l455 -1276zM1008 645
q-35 119 -74 235t-82 234l-225 -455l381 -14v0z" />
    <glyph glyph-name="B" unicode="B" horiz-adv-x="1477" 
d="M1417 420q0 -94 -32.5 -166.5t-86.5 -126.5t-125 -91.5t-148 -60.5t-154.5 -33t-145.5 -10q-78 0 -157 2t-161.5 5.5t-169 8.5t-180.5 11q22 214 30.5 404t8.5 374q0 166 -4 337.5t-18 361.5q154 26 289 39.5t264 13.5q54 0 128.5 -5t154.5 -18.5t158 -38t140 -63.5
t100 -95.5t38 -133.5q0 -134 -59.5 -221.5t-160.5 -137.5q58 -19 110.5 -49t92.5 -73.5t64 -101.5t24 -132zM975 1124q0 30 -16.5 49.5t-43.5 30.5t-60.5 16t-67.5 6t-64 0t-51 -1q-69 0 -138.5 -11t-140.5 -26q-2 -74 -3 -147.5t-3 -145.5q50 -9 100 -9.5t101 -0.5
q63 0 131.5 14.5t125 44.5t93.5 75t37 105zM1051 432q0 44 -23.5 76.5t-61 54.5t-85 35.5t-96 20.5t-93.5 9.5t-78 2.5q-57 0 -114.5 -3t-110.5 -16q0 -100 2 -200.5t10 -202.5q84 -12 166 -12q37 0 87 3.5t104 13t106.5 26.5t94 43t67 62.5t25.5 86.5z" />
    <glyph glyph-name="C" unicode="C" horiz-adv-x="1470" 
d="M1073 866q-12 62 -46 106t-81.5 72t-103 41t-109.5 13q-78 0 -148 -31.5t-122 -84.5t-82.5 -123t-30.5 -148q0 -70 33 -131t86 -106t120.5 -71t137.5 -26q55 0 110.5 14t104 42.5t85 72.5t54.5 104l373 8q-40 -129 -114 -225.5t-168.5 -160.5t-202.5 -96t-217 -32
q-90 0 -178 16t-167 49t-146 83t-116 117.5t-76.5 153t-27.5 188.5q0 94 27 181.5t75.5 164t115 139.5t145.5 108t167.5 70t180.5 25q111 0 224.5 -31t211.5 -96t170 -165.5t100 -240.5h-385z" />
    <glyph glyph-name="D" unicode="D" horiz-adv-x="1473" 
d="M1452 782q0 -115 -29.5 -213.5t-83.5 -178.5t-128 -142t-163 -104t-189.5 -63.5t-207.5 -21.5q-69 0 -138.5 1t-142.5 2.5t-150.5 4.5t-162.5 7q25 221 35 419t10 390q0 112 -3 230.5t-15 262.5q78 -2 178.5 -2.5t211.5 -5t226.5 -16t224 -36.5t204.5 -66t168 -105
t113.5 -153t41.5 -210zM1108 756q0 102 -46 167.5t-120.5 103.5t-168.5 52.5t-191 14.5q-41 0 -79.5 -1.5t-78.5 -5.5q-6 -123 -15.5 -246t-9.5 -247q0 -66 1 -131.5t3 -130.5q45 -10 90.5 -13.5t92.5 -3.5q114 0 209.5 25t165 78.5t108.5 137t39 200.5z" />
    <glyph glyph-name="E" unicode="E" horiz-adv-x="1452" 
d="M1401 -29q-223 8 -422 13.5t-393 5.5q-61 0 -122 -1t-125.5 -3t-134 -6.5t-147.5 -10.5q10 105 17 201.5t11 188.5t5.5 180t1.5 176v171t-0.5 175.5t-2 183.5t-3.5 195q91 -3 174.5 -5t163 -3t156 -1.5t151.5 -0.5t151 0.5t155 1.5t162 3t173 5v-324q-100 9 -193.5 14.5
t-183 9.5t-176 5.5t-172.5 1.5q-63 0 -127 -0.5t-127 -3.5l4 -334q107 7 215 10.5t219 5t226.5 2t238.5 0.5l-18 -299q-205 8 -387 12.5t-359 4.5h-133q2 -66 3.5 -130.5t5.5 -129.5q100 -8 198.5 -12.5t198.5 -4.5q141 0 288 5.5t320 15.5z" />
    <glyph glyph-name="F" unicode="F" horiz-adv-x="1409" 
d="M1368 1116q-91 8 -174.5 14t-163 9.5t-156 5.5t-151.5 2q-84 0 -166 -0.5t-166 -3.5l4 -334q107 7 215 10.5t219 5t226 2t237 0.5l-16 -299q-204 8 -385.5 12.5t-358.5 4.5h-133q3 -130 8.5 -264.5t12.5 -292.5q-49 -2 -92.5 -3.5t-86.5 -3.5t-87.5 -5t-96.5 -7
q10 104 16.5 200.5t10 188.5t5 180.5t1.5 176.5v171v175.5t-0.5 183.5t-1.5 195q180 -6 335 -8t304 -2q75 0 151 0.5t155 1.5t162 3t173 5v-324v0z" />
    <glyph glyph-name="G" unicode="G" horiz-adv-x="1872" 
d="M1669 547l-16 -551l-277 -27l-10 176q-54 -45 -117 -76t-130 -50.5t-136 -28t-137 -8.5q-97 0 -194.5 13t-187 42t-167 76.5t-134.5 116.5t-89.5 161.5t-32.5 212.5q0 133 48.5 248.5t130 211t190 170.5t228 126.5t244 78.5t238.5 27q70 0 145.5 -12t148.5 -38.5
t139.5 -68t118.5 -99.5t86.5 -134t43.5 -172l-348 -14q-16 74 -59 127.5t-101 88t-125.5 50.5t-132.5 16q-83 0 -162.5 -20t-151 -57.5t-132 -90t-104.5 -117.5t-68.5 -141t-24.5 -159q0 -91 44 -161.5t114.5 -119t159.5 -73.5t178 -25q71 0 138 12.5t125.5 39t108 69
t85.5 102.5l-7 82l-417 6v242l929 10v-264z" />
    <glyph glyph-name="H" unicode="H" horiz-adv-x="1286" 
d="M1229 1391q-6 -88 -10.5 -170t-7.5 -159t-5 -151t-4 -147q-2 -102 -3.5 -204.5t-3 -208.5t-2 -215.5t-1.5 -225.5l-334 -6q8 146 15.5 270.5t13.5 243.5q-88 5 -175 9.5t-173 4.5q-42 0 -82 -1.5t-82 -4.5q0 -66 1 -138t3 -169l-320 4q16 267 29.5 509t13.5 478v46.5
t-1.5 50.5t-3.5 59t-7 71l322 -4q-17 -178 -26 -333t-11 -306l524 13v41q0 150 -6 306t-19 337h355v0z" />
    <glyph glyph-name="I" unicode="I" horiz-adv-x="539" 
d="M481 1307q-9 -85 -19.5 -169t-19 -168t-14.5 -168.5t-6 -168.5q0 -131 3.5 -261t8.5 -261l-377 12q17 166 34.5 333t17.5 335q0 133 3.5 264t8.5 264l360 -12v0z" />
    <glyph glyph-name="J" unicode="J" horiz-adv-x="1198" 
d="M1159 1096q0 -68 -3.5 -153.5t-14 -178.5t-30 -189.5t-51 -187t-77 -170t-108 -138.5t-143.5 -93.5t-185 -34.5q-80 0 -149.5 24.5t-128.5 68t-107 103t-85.5 128.5t-64 145.5t-41.5 154.5l342 11q7 -69 25.5 -134.5t47.5 -115.5t69.5 -80.5t91.5 -30.5q70 0 118.5 36
t80.5 94t49 131.5t25 149t9.5 145t1.5 120.5q0 55 -2 110t-6.5 113.5t-11 122t-16.5 133.5l350 4q8 -90 11 -157.5t3 -130.5z" />
    <glyph glyph-name="K" unicode="K" horiz-adv-x="1589" 
d="M1880 492q-7 -78 -26.5 -155t-51 -147t-76 -129.5t-101 -103t-126 -68t-151.5 -24.5q-101 0 -170.5 23.5t-119 67.5t-84 108.5t-65.5 146.5q-29 79 -55 132t-62.5 85t-91 45.5t-141.5 13.5q-64 0 -129 -12q2 -50 4.5 -100t5 -103.5t6 -111.5t7.5 -123h-396
q9 108 17.5 209.5t14.5 198t9.5 190.5t3.5 188q0 61 -1 122.5t-3.5 126.5t-6.5 134.5t-9 145.5l373 -4q-11 -151 -20.5 -281.5t-12.5 -255.5l772 541l647 14l-1089 -643q116 -15 194.5 -47.5t129 -77.5t79 -99t43.5 -110q14 -49 21.5 -101t25.5 -100q14 -32 36.5 -49.5
t70.5 -17.5q42 0 71 18.5t46.5 50t25.5 73.5t8 89q0 26 -3.5 58.5t-14.5 93.5l395 -12v0z" />
    <glyph glyph-name="L" unicode="L" horiz-adv-x="522" 
d="M1741 -379q-45 2 -82.5 3.5t-71 2t-64 0.5h-59.5q-170 0 -341 -0.5t-346 -1t-354 -2t-366 -2.5q16 160 29 312.5t22 300t14 292.5t5 289v70t-1 73.5t-2.5 81.5t-4.5 93h356l-24 -1215l1302 25z" />
    <glyph glyph-name="M" unicode="M" horiz-adv-x="1858" 
d="M1507 -182q-14 139 -26 279t-27 280t-36.5 279t-53.5 276q-78 -218 -147.5 -443t-143.5 -466l-391 -7q-23 227 -54.5 437.5t-66.5 412.5l-250 -858h-348q58 168 113 327t105 314t93 307t76 306q-24 0 -48 -0.5t-51 -1t-58.5 -1.5t-69.5 -2l-14 287q72 -5 136.5 -9.5
t124 -7.5t115.5 -5t111 -2q101 0 206 3t234 9l19 -291q-79 3 -139.5 4.5t-112.5 3.5l117 -725q41 118 79 237t74 241.5t70 248.5t67 258l414 -6q-1 -24 -1.5 -41.5t-0.5 -30.5v-23v-19q0 -199 24.5 -396t63 -392.5t86 -389.5t94.5 -387z" />
    <glyph glyph-name="N" unicode="N" horiz-adv-x="1436" 
d="M1362 -78l-246 -4q-80 125 -168 242.5t-180.5 230.5t-188.5 223.5t-192 221.5l-16 -883h-312q11 195 16 364.5t5 333.5q0 78 -0.5 157t-1 161.5t-1 169t-1.5 180.5l403 -6q63 -110 132 -212t141.5 -198.5t148.5 -189t154 -183.5l8 961l311 6z" />
    <glyph glyph-name="O" unicode="O" horiz-adv-x="1624" 
d="M1583 705q0 -108 -33.5 -197t-91.5 -158.5t-135 -121t-165 -85.5t-181.5 -50.5t-183.5 -16.5q-95 0 -187.5 19.5t-176 57t-154.5 93.5t-123 128.5t-81.5 162t-29.5 194.5q0 103 32 192t87.5 162.5t130.5 131t161 96.5t179 59.5t184 20.5q152 0 290.5 -46t245 -134.5
t169.5 -216t63 -291.5zM1233 733q0 97 -27 177t-79 137.5t-128.5 89.5t-175.5 32q-102 0 -181.5 -31.5t-134.5 -89t-83.5 -139t-28.5 -182.5q0 -88 29 -161t81.5 -125.5t126.5 -81.5t163 -29q114 0 197 20t136.5 67t79 124.5t25.5 191.5z" />
    <glyph glyph-name="P" unicode="P" horiz-adv-x="1372" 
d="M1352 1018q0 -88 -39.5 -156t-104.5 -118t-148.5 -84t-170.5 -54.5t-171 -29.5t-151 -9h-86.5t-87.5 -2q1 -55 1.5 -111t1.5 -115t1.5 -122t1.5 -133l-340 2q7 131 13.5 254.5t11 242.5t7.5 235.5t3 232.5q0 75 -1.5 154.5t-6.5 180.5q169 26 318 40t294 14
q57 0 127.5 -7.5t143.5 -26t141.5 -50t122.5 -78t86.5 -111t32.5 -149.5zM1004 1020q0 52 -31.5 78.5t-76.5 37t-94.5 11t-86.5 0.5q-79 0 -157.5 -6.5t-156.5 -22.5q-5 -80 -7.5 -159.5t-2.5 -159.5q29 -2 58.5 -2h58.5q38 0 89.5 2t106.5 9.5t108.5 22t96 39t69 61.5
t26.5 89z" />
    <glyph glyph-name="Q" unicode="Q" horiz-adv-x="1444" 
d="M1612 268q-14 -106 -53 -197.5t-100.5 -159t-143.5 -106t-182 -38.5q-81 0 -139 26t-98.5 70t-66.5 101t-43 118q-17 -2 -33.5 -2h-33.5q-84 0 -168.5 14.5t-162 44t-145 75.5t-117 109t-78 144.5t-28.5 181.5q0 92 27.5 176t76.5 156t115.5 130t144.5 99t163.5 63.5
t171.5 22.5q142 0 268 -38.5t220 -116.5t149 -194.5t55 -272.5q0 -93 -32 -178.5t-87 -157t-128.5 -126t-157.5 -85.5q12 -51 36 -81t66 -30q37 0 64.5 18t45.5 51t27 79.5t8 103.5h359v0zM1087 672q0 85 -25.5 152.5t-73.5 114.5t-116.5 72t-154.5 25q-78 0 -148 -31.5
t-122.5 -84.5t-83.5 -124t-31 -149q0 -40 14 -81t39 -79q15 42 42.5 78t63.5 62.5t77.5 41.5t84.5 15q78 0 131 -24.5t88.5 -65t56 -93t32.5 -108.5q58 53 92 126.5t34 152.5zM733 311q-4 18 -11 36.5t-17 33.5t-24 24t-34 9q-42 0 -73.5 -14.5t-47.5 -45.5q89 -46 191 -43
h16v0z" />
    <glyph glyph-name="R" unicode="R" horiz-adv-x="1354" 
d="M2030 55q0 -140 -42.5 -252t-118 -191.5t-180 -122t-229.5 -42.5q-139 0 -244 37t-179.5 107.5t-120 173t-64.5 233.5q-17 118 -35.5 199.5t-59 131.5t-113.5 72.5t-198 22.5h-45q2 -58 4 -117t4.5 -120.5t5.5 -127.5t7 -139l-363 -6q8 170 17 332.5t17 320t13 312.5
t5 309q0 26 -0.5 52.5t-1 57t-2 65.5t-3.5 77q206 -4 386.5 -6t355.5 -2q67 0 131 -19.5t120.5 -54t103.5 -82t81 -104.5t53 -121t19 -131q0 -99 -36.5 -168.5t-95.5 -116t-134 -72.5t-152 -37q65 -39 107 -85t69 -99.5t42.5 -114t25.5 -129.5q5 -35 10.5 -79t14.5 -89.5
t24 -89t39.5 -77t59.5 -54t85 -20.5q83 0 135.5 20t82 63.5t40.5 111.5t10 165l349 6v0zM1020 942q0 57 -17.5 95t-47 62.5t-69 37t-83.5 18t-89.5 6t-88.5 0.5q-57 0 -112.5 -6t-111.5 -12q-2 -109 -2 -214.5t-2 -211.5q40 0 101.5 -1t131 2t139 14.5t125.5 36.5t91 67
t35 106z" />
    <glyph glyph-name="S" unicode="S" horiz-adv-x="1352" 
d="M989 954q0 77 -21 133.5t-58.5 93t-89 54.5t-113.5 18q-60 0 -121.5 -16t-111 -46.5t-81 -76t-31.5 -104.5q0 -53 26.5 -84.5t66.5 -48t85.5 -23t84.5 -10.5q62 -7 136.5 -10.5t149.5 -13.5t145 -30t124.5 -59.5t87 -102.5t32.5 -159q0 -84 -24.5 -152t-66.5 -120.5
t-99 -91t-122 -63t-134 -36.5t-137 -12q-67 0 -141.5 10.5t-147.5 34.5t-139.5 63.5t-117 97.5t-80.5 135.5t-30 178.5h345q0 -68 20.5 -121t56.5 -89.5t83.5 -55.5t101.5 -19q56 0 108 13t92.5 39t65 66.5t24.5 94.5q0 27 -21 45.5t-54.5 30.5t-74.5 18.5t-80 10t-71.5 4.5
t-50.5 2q-61 5 -127 16t-129 31t-119 51.5t-98 78.5t-67 112t-25 151q0 92 30.5 164t82.5 127t120 93.5t142.5 63t151 35.5t145.5 11q75 0 149.5 -11t143.5 -36.5t128 -66.5t103 -101t69 -140t25 -184z" />
    <glyph glyph-name="T" unicode="T" horiz-adv-x="512" 
d="M428 1454v-1210h-354l47 1233l-864 -23l-17 322q275 -17 523 -27t489 -10q346 0 698.5 11.5t728.5 25.5v-322h-1251z" />
    <glyph glyph-name="U" unicode="U" horiz-adv-x="1393" 
d="M1352 969q0 -104 -11 -212.5t-38.5 -210t-75 -191.5t-120 -157t-174 -106t-237.5 -39q-125 0 -221 32.5t-166.5 90t-118 136t-76.5 169.5t-41 191.5t-12 201.5q0 121 14.5 249t49.5 272l358 -33q-46 -153 -67 -285t-21 -256q0 -94 16.5 -180.5t56.5 -152.5t106 -105
t165 -39q66 0 112.5 24.5t78.5 65.5t51 94t29 110.5t13 115.5t3 108q0 119 -13.5 244t-45.5 272l344 29q24 -125 32.5 -231.5t8.5 -206.5z" />
    <glyph glyph-name="V" unicode="V" horiz-adv-x="1221" 
d="M1321 1563q-45 -111 -87 -212.5t-80.5 -197.5t-73 -188.5t-66.5 -184.5t-61 -185.5t-53.5 -190.5t-45 -199t-35.5 -211l-399 -8q-46 187 -98 370t-115 363.5t-140.5 360t-175.5 360.5l383 -6q91 -262 171.5 -511t158.5 -495q42 138 86 276t87 279t82.5 286.5t70.5 299.5
l391 -6v0z" />
    <glyph glyph-name="W" unicode="W" horiz-adv-x="1810" 
d="M1886 1524q-35 -110 -67.5 -211.5t-62.5 -197.5t-56.5 -189t-50.5 -185q-25 -92 -46 -185t-37.5 -190t-28 -199t-17.5 -212l-404 -6q-44 255 -95 491t-116 463l-211 -911l-385 6q-17 183 -48 357.5t-71.5 348t-86.5 348t-93 357.5l338 2l176 -858q50 204 96 412t89 438
l381 -6q53 -234 105 -452.5t110 -430.5q39 125 68.5 251.5t53 254t43 256t39.5 256.5l377 -8v0z" />
    <glyph glyph-name="X" unicode="X" horiz-adv-x="1323" 
d="M934 33q-74 125 -144 237t-141 222q-88 -127 -170.5 -261t-161.5 -288l-370 24q77 110 148 211t137 196t127.5 187t119.5 184q-59 84 -120 168t-127.5 172t-139 183.5t-153.5 201.5l446 -22q71 -118 136 -224.5t130 -211.5q82 127 164 255.5t172 270.5l391 -22
q-81 -111 -153.5 -211.5t-140.5 -194.5t-132 -183.5t-127 -178.5q61 -86 124 -172t131.5 -176t144 -187t159.5 -205z" />
    <glyph glyph-name="Y" unicode="Y" horiz-adv-x="1303" 
d="M1565 1511q-102 -140 -196 -271t-181.5 -257t-170 -248.5t-161.5 -245.5q0 -62 1.5 -124.5t3.5 -128t5 -135.5t6 -148h-362l22 555q-67 113 -137 226t-145 230t-156 240t-172 256q68 -2 123.5 -3.5t104 -3t93 -4t91.5 -7.5q96 -161 185.5 -310t185.5 -292l444 688
l416 -17v0z" />
    <glyph glyph-name="Z" unicode="Z" horiz-adv-x="1411" 
d="M1391 1358q-1 -47 -2 -87t-2.5 -77.5t-3 -74t-3.5 -75.5q-62 -36 -132.5 -82.5t-144 -99.5t-147.5 -111.5t-144.5 -117.5t-135.5 -117.5t-119 -112.5h90q78 0 156 1.5t159 5t166.5 8.5t178.5 12v-90t-0.5 -83t-1 -83t-2.5 -90q-93 6 -178.5 10t-166.5 6t-159 3t-156 1
q-138 0 -280.5 -2t-309.5 -8v320q116 64 223.5 139t209.5 157t200 169.5t195 175.5q-126 6 -250 6q-69 0 -138.5 -1.5t-142.5 -4t-150 -6.5t-161 -9l12 316q218 -7 413 -13t384 -6q63 0 126.5 1t130 3t137.5 6.5t149 10.5z" />
    <glyph glyph-name="bracketleft" unicode="[" horiz-adv-x="723" 
d="M664 -70q-153 0 -302 -4.5t-301 -15.5q19 201 28 400.5t9 400.5q0 399 -6 798q144 -5 286 -6.5t286 -3.5v-301q-62 0 -123 -1t-123 -1q5 -244 6 -485.5t10 -485.5q57 -3 114 -5.5t116 -4.5v-285v0z" />
    <glyph glyph-name="backslash" unicode="\" horiz-adv-x="1260" 
d="M815 -14q-94 195 -187 387t-192 385q-91 177 -185 352.5t-190 351.5q182 0 363 6q186 -373 376 -744t398 -732z" />
    <glyph glyph-name="bracketright" unicode="]" horiz-adv-x="723" 
d="M664 1511q-19 -201 -29 -400t-10 -400q0 -400 6 -799q-143 5 -284.5 6.5t-285.5 3.5v301q62 0 123 1t123 1q-6 244 -6.5 485.5t-9.5 485.5q-57 3 -115 5.5t-115 4.5v285q152 0 301.5 4.5t301.5 15.5z" />
    <glyph glyph-name="asciicircum" unicode="^" horiz-adv-x="1485" 
d="M1067 231q-54 236 -114 466.5t-140 457.5l-391 -840l-393 7q171 260 307 539.5t252 568.5l448 -9l404 -1196z" />
    <glyph glyph-name="underscore" unicode="_" horiz-adv-x="1733" 
d="M1733 -29q-186 -2 -346.5 -4t-315.5 -2q-210 0 -419.5 9.5t-420.5 9.5q-47 0 -100 -1.5t-131 -2.5l4 221l1718 14l11 -244v0z" />
    <glyph glyph-name="grave" unicode="`" horiz-adv-x="1622" 
d="M905 1137l-454 323l376 4l322 -327h-244z" />
    <glyph glyph-name="a" unicode="a" horiz-adv-x="1516" 
d="M1229 -41l-152 428q-102 3 -201.5 9.5t-201.5 6.5q-79 0 -157 -2.5t-157 -7.5l-108 -217l-361 4q83 154 162 298.5t154 283.5t147.5 274t143.5 269q-51 2 -102.5 3.5t-106 4t-113 5t-123.5 5.5l4 274l1364 21l13 -309l-353 -4q47 -168 105 -332.5t124 -331t138.5 -338
t148.5 -352.5zM791 1198l-287 -526l469 8z" />
    <glyph glyph-name="b" unicode="b" horiz-adv-x="1456" 
d="M1417 420q0 -94 -32.5 -166.5t-86.5 -126.5t-125 -91.5t-148 -60.5t-154.5 -33t-145.5 -10q-78 0 -157 2t-161.5 5.5t-169 8.5t-180.5 11q22 214 30.5 404t8.5 374q0 166 -4 337.5t-18 361.5q154 26 289 39.5t264 13.5q54 0 128.5 -5t154.5 -18.5t158 -38t140 -63.5
t100 -95.5t38 -133.5q0 -134 -59.5 -221.5t-160.5 -137.5q58 -19 110.5 -49t92.5 -73.5t64 -101.5t24 -132zM975 1124q0 30 -16.5 49.5t-43.5 30.5t-60.5 16t-67.5 6t-64 0t-51 -1q-69 0 -138.5 -11t-140.5 -26q-2 -74 -3 -147.5t-3 -145.5q50 -9 100 -9.5t101 -0.5
q63 0 131.5 14.5t125 44.5t93.5 75t37 105zM1051 432q0 44 -23.5 76.5t-61 54.5t-85 35.5t-96 20.5t-93.5 9.5t-78 2.5q-57 0 -114.5 -3t-110.5 -16q0 -100 2 -200.5t10 -202.5q84 -12 166 -12q37 0 87 3.5t104 13t106.5 26.5t94 43t67 62.5t25.5 86.5z" />
    <glyph glyph-name="c" unicode="c" horiz-adv-x="1571" 
d="M1540 598q-51 -132 -135 -229.5t-187 -162t-218.5 -96.5t-229.5 -32q-76 0 -160 14t-165 43.5t-154 74.5t-128.5 106.5t-88.5 140t-33 174.5q0 106 26.5 202t75 178t117 148.5t152.5 113t181 72t202 25.5q72 0 152 -11.5t159.5 -38t153.5 -68t132 -102t95.5 -140
t44.5 -181.5l-375 -4q-15 71 -50 125t-82.5 90.5t-105 55t-118.5 18.5q-81 0 -156 -32t-132.5 -86.5t-92.5 -126.5t-35 -152q0 -81 27 -150t75.5 -119.5t116 -79t148.5 -28.5q60 0 120.5 15.5t114 46.5t96.5 78t68 110l389 8v0z" />
    <glyph glyph-name="d" unicode="d" horiz-adv-x="1473" 
d="M1452 748q0 -115 -33 -207t-90.5 -162t-135.5 -120t-167 -82t-185 -47t-190 -15q-138 0 -281 4t-311 10q16 252 24.5 480t8.5 452q0 81 -0.5 169t-5.5 202q94 -3 180.5 -4t168.5 -3t160.5 -6.5t156.5 -13.5q87 -11 173 -35.5t164 -63.5t144.5 -93t115 -123.5t76 -154.5
t27.5 -187zM1120 807q0 72 -23 125t-63.5 90.5t-95.5 61t-117.5 36.5t-130.5 18t-135 5q-34 0 -67.5 1t-65.5 -1q-16 -102 -21.5 -205.5t-5.5 -206.5q0 -185 6 -373q38 -2 75.5 -2h74.5q125 0 229 21.5t180 73t118 138.5t42 218z" />
    <glyph glyph-name="e" unicode="e" horiz-adv-x="1180" 
d="M1133 1108q-67 2 -127.5 4t-116.5 3.5t-109 2t-106 0.5q-78 0 -155.5 -1t-156.5 -3q-2 -31 -2 -62.5v-62.5q57 -2 115 -3t115 -1q120 0 245.5 1.5t274.5 2.5v-289q-135 7 -244.5 10t-214.5 3q-72 0 -144 -3.5t-145 -11.5q4 -43 7 -86t6 -88q175 0 356.5 3t386.5 10
l-16 -314q-152 16 -281 23.5t-252 7.5q-116 0 -238.5 -3.5t-271.5 -12.5q6 85 10.5 163t7.5 151t4 143t1 139q0 67 -1 134t-2.5 137.5t-4 145.5t-6.5 156q73 -1 139 -1.5t128 -1t120.5 -1t115.5 -0.5q66 0 133 1t137 2.5t143.5 4t154.5 6.5z" />
    <glyph glyph-name="f" unicode="f" horiz-adv-x="1157" 
d="M1133 1053q-134 5 -244.5 7.5t-214.5 2.5q-79 0 -156 -1t-156 -3q-2 -31 -2 -62.5t-2 -62.5q59 -2 117 -3t115 -1q120 0 245 1.5t273 2.5v-287q-133 5 -242.5 7.5t-214.5 2.5q-72 0 -144 -3t-145 -11q3 -51 7 -102.5t8.5 -106.5t9.5 -114.5t10 -126.5l-338 -9
q6 85 10.5 162.5t7.5 150.5t4 142.5t1 138.5q0 67 -1 134.5t-2.5 138t-4 145.5t-6.5 156q73 -1 139 -1.5t128 -1t120.5 -1t115.5 -0.5q65 0 131.5 1t136 2.5t143.5 4t155 6.5z" />
    <glyph glyph-name="g" unicode="g" horiz-adv-x="1872" 
d="M1669 547l-16 -551l-277 -27l-10 176q-54 -45 -117 -76t-130 -50.5t-136 -28t-137 -8.5q-97 0 -194.5 13t-187 42t-167 76.5t-134.5 116.5t-89.5 161.5t-32.5 212.5q0 133 48.5 248.5t130 211t190 170.5t228 126.5t244 78.5t238.5 27q70 0 145.5 -12t148.5 -38.5
t139.5 -68t118.5 -99.5t86.5 -134t43.5 -172l-348 -14q-16 74 -59 127.5t-101 88t-125.5 50.5t-132.5 16q-83 0 -162.5 -20t-151 -57.5t-132 -90t-104.5 -117.5t-68.5 -141t-24.5 -159q0 -91 44 -161.5t114.5 -119t159.5 -73.5t178 -25q71 0 138 12.5t125.5 39t108 69
t85.5 102.5l-7 82l-417 6v242l929 10v-264z" />
    <glyph glyph-name="h" unicode="h" horiz-adv-x="1331" 
d="M1272 1477q-9 -202 -15 -378.5t-6 -348.5q0 -88 0.5 -177t1 -180.5t2 -187.5t2.5 -199l-311 -4l6 375l-577 16l-2 -362h-314q10 184 15.5 342.5t5.5 312.5q0 146 -1 298t-1 329l338 -4q-6 -88 -12 -170.5t-11.5 -160t-9 -152t-4.5 -148.5l577 -16v71q0 89 -1 177.5
t-2.5 180t-4 187t-4.5 197.5l328 2v0z" />
    <glyph glyph-name="i" unicode="i" horiz-adv-x="483" 
d="M59 215l35 1098h324q-12 -199 -12 -400q0 -176 6 -348.5t12 -349.5h-365z" />
    <glyph glyph-name="j" unicode="j" horiz-adv-x="1180" 
d="M1141 1137q0 -73 -4 -161t-15 -182t-30.5 -190t-51 -185t-75.5 -167t-104 -136t-138 -91t-176 -33q-80 0 -149.5 24.5t-128.5 68t-107 103t-85.5 129t-64 146.5t-41.5 155l361 9q4 -69 19 -130.5t42 -108t65.5 -74t88.5 -27.5q69 0 116 34.5t76.5 91t44.5 127.5t21.5 144
t7 140.5t0.5 117.5q0 54 -2 109.5t-6.5 114t-11.5 122t-17 133.5l350 4q8 -90 11.5 -157.5t3.5 -130.5z" />
    <glyph glyph-name="k" unicode="k" horiz-adv-x="1462" 
d="M1690 631q0 -74 -7 -155.5t-25 -160.5t-49.5 -150t-81 -125t-119.5 -86t-165 -32q-79 0 -141.5 20.5t-109.5 60t-79.5 96t-52.5 128.5q-8 29 -15 66.5t-15 76.5t-17 75t-22 61q-9 18 -24.5 33t-42 26.5t-67.5 18t-102 6.5q-42 0 -82 -6.5t-80 -14.5v-20q0 -65 0.5 -131
t1.5 -135t3 -142t5 -153h-346q25 287 36 549t11 518q0 110 -2 226t-10 257h350q-14 -156 -24 -290.5t-17 -264.5q186 134 360.5 281t344.5 317h565l-1040 -743h37q149 0 240 -32t142 -96.5t71 -161t26 -226.5q2 -25 3 -56t9.5 -57t27 -44t54.5 -18q49 0 77 27.5t41.5 68
t17 87t3.5 84.5q0 22 -1 45t-3.5 49.5t-7 58.5t-12.5 72l334 -8v0z" />
    <glyph glyph-name="l" unicode="l" horiz-adv-x="1442" 
d="M1430 68q-88 12 -169 23t-157.5 19.5t-150 13.5t-146.5 5q-88 0 -177.5 -1t-181.5 -2.5t-189 -4t-202 -4.5q10 122 20 237t17.5 226t12 218.5t4.5 215.5q0 45 -1 91t-3.5 95.5t-6.5 104t-10 116.5l395 -16l-108 -1020q139 11 276 21t277 10h514z" />
    <glyph glyph-name="m" unicode="m" horiz-adv-x="1702" 
d="M1645 1376q-9 -82 -16 -157t-11 -145.5t-6 -138t-2 -134.5q0 -155 4.5 -315.5t11.5 -346.5h-350q14 164 18 303t4 271v147q-89 -124 -175.5 -250.5t-174.5 -271.5l-237 4q-81 149 -160.5 281t-169.5 256q-3 -44 -3.5 -86.5t-0.5 -87.5q0 -54 1 -108.5t3 -112t5 -119
t7 -129.5h-334q10 147 14.5 270t4.5 239q0 69 -1.5 139t-4 143t-6 149.5t-7.5 160.5l363 4q109 -157 212.5 -305t203.5 -297q117 159 236 317t247 328l324 -8v0z" />
    <glyph glyph-name="n" unicode="n" horiz-adv-x="1307" 
d="M1249 1384q-7 -88 -11.5 -169.5t-8 -159t-6 -151t-4.5 -146.5q-4 -102 -7.5 -205t-6 -208.5t-5 -215t-4.5 -225.5l-303 -6q-126 257 -254.5 497t-271.5 467l-17 -749l-291 8q8 127 15.5 247t13.5 235.5t10 228.5t4 225q0 30 -0.5 60t-3.5 63t-8.5 70.5t-15.5 82.5l340 -6
l495 -831l-14 888h354v0z" />
    <glyph glyph-name="o" unicode="o" horiz-adv-x="1391" 
d="M1350 729q0 -135 -55 -243t-146.5 -184t-208.5 -116.5t-242 -40.5q-83 0 -164 15t-154 45.5t-135 76.5t-107.5 108.5t-71 141t-25.5 173.5q0 87 25 168t69.5 151.5t106.5 129t135 100t154.5 64.5t166.5 23q141 0 260.5 -40.5t206.5 -118.5t136 -192t49 -261zM1016 725
q0 79 -20 145.5t-60 114.5t-100 75t-140 27q-72 0 -132.5 -33.5t-105 -87.5t-69 -123t-24.5 -141q0 -65 27 -125t72.5 -105.5t105 -73t124.5 -27.5q73 0 132.5 28t101.5 76.5t65 113t23 136.5z" />
    <glyph glyph-name="p" unicode="p" horiz-adv-x="1352" 
d="M1352 1018q0 -88 -39.5 -156t-104.5 -118t-148.5 -84t-170.5 -54.5t-171 -29.5t-151 -9h-86.5t-87.5 -2q1 -55 1.5 -111t1.5 -115t1.5 -122t1.5 -133l-340 2q7 131 13.5 254.5t11 242.5t7.5 235.5t3 232.5q0 75 -1.5 154.5t-6.5 180.5q169 26 318 40t294 14
q57 0 127.5 -7.5t143.5 -26t141.5 -50t122.5 -78t86.5 -111t32.5 -149.5zM1004 1020q0 52 -31.5 78.5t-76.5 37t-94.5 11t-86.5 0.5q-79 0 -157.5 -6.5t-156.5 -22.5q-5 -80 -7.5 -159.5t-2.5 -159.5q29 -2 58.5 -2h58.5q38 0 89.5 2t106.5 9.5t108.5 22t96 39t69 61.5
t26.5 89z" />
    <glyph glyph-name="q" unicode="q" horiz-adv-x="1464" 
d="M1632 268q-14 -106 -53 -197.5t-100.5 -159t-143.5 -106t-182 -38.5q-81 0 -138.5 26t-98 70t-66.5 101t-43 118q-17 -2 -34 -2h-34q-84 0 -168.5 14.5t-162 44t-144.5 75.5t-116.5 109t-78 144.5t-28.5 181.5q0 92 27.5 176t76.5 156t115.5 130t144 99t163 63.5
t171.5 22.5q142 0 268 -38.5t220.5 -116.5t149.5 -194.5t55 -272.5q0 -93 -32 -178.5t-87.5 -157t-129 -126t-157.5 -85.5q12 -51 36 -81t66 -30q37 0 65 18t46 51t27 79.5t8 103.5h358v0zM1108 672q0 85 -25.5 152.5t-73.5 114.5t-117 72t-155 25q-78 0 -148 -31.5
t-122.5 -84.5t-83.5 -124t-31 -149q0 -40 14.5 -81t39.5 -79q14 42 41.5 78t63.5 62.5t78 41.5t85 15q78 0 131 -24.5t88 -65t55.5 -93t32.5 -108.5q59 53 93 126.5t34 152.5zM754 311q-5 18 -11.5 36.5t-16.5 33.5t-24 24t-34 9q-42 0 -74 -14.5t-47 -45.5q88 -46 190 -43
h17v0z" />
    <glyph glyph-name="r" unicode="r" horiz-adv-x="1425" 
d="M1548 434q0 -100 -28 -196.5t-85 -172.5t-143.5 -122.5t-204.5 -46.5q-70 0 -121.5 12t-89.5 34.5t-66 54.5t-51 72t-43 87t-44 100q-20 50 -47 82.5t-74 58.5q-32 -3 -65.5 -4.5t-65.5 -3.5q2 -83 4.5 -171.5t7.5 -201.5l-373 -14q8 115 16 223t14.5 212t10.5 204.5
t4 200.5q0 116 -10.5 237.5t-25.5 263.5q160 28 298 40t273 12q66 0 148 -5.5t167 -21.5t165 -44.5t143 -74.5t101 -111.5t38 -156.5q0 -120 -41.5 -208t-110.5 -150.5t-158 -103t-184 -64.5q28 -50 44 -104.5t34 -108.5q23 -67 52 -103.5t79 -36.5q32 0 54 14t35.5 39
t19.5 59.5t6 74.5q0 18 -1 36t-3.5 39.5t-7.5 48.5t-13 62h342v-41v0zM1024 961q0 56 -25.5 92.5t-68 57.5t-98 29.5t-115.5 8.5q-78 0 -154 -10t-151 -27q-2 -54 -3 -107.5t-1 -107.5q0 -62 2 -123.5t2 -124.5q38 0 98.5 2t128.5 11t136.5 28t124 54t90 88t34.5 129z" />
    <glyph glyph-name="s" unicode="s" horiz-adv-x="1475" 
d="M1083 946q1 51 -15 87.5t-42 62t-60 41t-71 23.5t-74 11t-69 3h-63t-67 -3t-64 -11t-55 -25t-38 -43.5t-14 -67.5q0 -28 14.5 -49.5t37.5 -37t52.5 -26.5t59.5 -18.5t58.5 -12t49.5 -8.5q65 -10 141.5 -20t153 -27t148 -44.5t126.5 -72t88 -110t33 -158.5
q0 -88 -28.5 -155.5t-76 -117t-110.5 -82.5t-132 -52.5t-140 -28t-135 -8.5q-87 0 -178 12t-177 40.5t-161.5 75.5t-132 116t-89.5 162t-33 214l363 -10q2 -80 26.5 -146t66 -113.5t98 -74t122.5 -26.5q27 0 62.5 1.5t72 7.5t72 16.5t63.5 28.5t45 44.5t17 63.5
q0 50 -27 83.5t-67 55.5t-86 35t-84 22q-55 12 -126 23.5t-145 28t-145 41t-126.5 62.5t-89.5 93t-34 133q0 90 33 157.5t87.5 116t125 80t145.5 50t148.5 25.5t134.5 7q57 0 131 -8.5t152 -29.5t153.5 -56t134.5 -87.5t95.5 -125t36.5 -168.5h-392z" />
    <glyph glyph-name="t" unicode="t" horiz-adv-x="1059" 
d="M729 1171v-1210h-350l45 1233l-696 -25l-17 326q206 -23 386 -32t352 -9q213 0 433 10t464 29v-322h-617z" />
    <glyph glyph-name="u" unicode="u" horiz-adv-x="1389" 
d="M1348 965q0 -104 -13.5 -204t-44 -190t-80 -165.5t-122 -130.5t-170 -86t-224.5 -31q-121 0 -214.5 29t-164 81t-119 124t-78.5 157t-43.5 181t-13.5 196q0 96 11 198.5t39 223.5l360 -29q-38 -128 -55 -234.5t-17 -203.5q0 -91 17.5 -171t57 -139.5t103.5 -94t158 -34.5
q57 0 99.5 19.5t73 53.5t50.5 79.5t31.5 97t16 107.5t4.5 110q0 94 -11.5 196t-37.5 228l346 25q24 -113 32.5 -208.5t8.5 -184.5z" />
    <glyph glyph-name="v" unicode="v" horiz-adv-x="1221" 
d="M1321 1563q-45 -111 -87 -212.5t-80.5 -197.5t-73 -188.5t-66.5 -184.5t-61 -185.5t-53.5 -190.5t-45 -199t-35.5 -211l-399 -8q-46 187 -98 370t-115 363.5t-140.5 360t-175.5 360.5l383 -6q91 -262 171.5 -511t158.5 -495q42 138 86 276t87 279t82.5 286.5t70.5 299.5
l391 -6v0z" />
    <glyph glyph-name="w" unicode="w" horiz-adv-x="1810" 
d="M1886 1524q-35 -110 -67.5 -211.5t-62.5 -197.5t-56.5 -189t-50.5 -185q-25 -92 -46 -185t-37.5 -190t-28 -199t-17.5 -212l-404 -6q-44 255 -95 491t-116 463l-211 -911l-385 6q-17 183 -48.5 358t-72 348.5t-86.5 348t-92 356.5l338 2l176 -858q50 204 96 412t89 438
l381 -6q53 -234 105 -452.5t110 -430.5q39 125 68.5 251.5t53 254t43 256t39.5 256.5l377 -8v0z" />
    <glyph glyph-name="x" unicode="x" horiz-adv-x="1323" 
d="M934 33q-74 125 -144 237t-141 222q-88 -127 -170.5 -261t-161.5 -288l-370 24q77 110 148 211t137 196t127.5 187t119.5 184q-59 84 -120 168t-127.5 172t-139 183.5t-153.5 201.5l446 -22q71 -118 136 -224.5t130 -211.5q82 127 164 255.5t172 270.5l391 -22
q-81 -111 -153.5 -211.5t-140.5 -194.5t-132 -183.5t-127 -178.5q61 -86 124 -172t131.5 -176t144 -187t159.5 -205z" />
    <glyph glyph-name="y" unicode="y" horiz-adv-x="1221" 
d="M1481 1511q-69 -98 -130.5 -186.5t-118.5 -170.5t-111 -159.5t-107 -154.5q-60 -88 -120.5 -174.5t-119.5 -176.5q0 -62 1 -124.5t3.5 -128t5.5 -135.5t7 -148h-363l23 555q-68 113 -138 226t-145 230.5t-156 241t-172 256.5q61 -3 114 -4t101.5 -2.5t96.5 -4.5t100 -9
q96 -161 185.5 -310t185.5 -292l421 653l23 35l414 -17v0z" />
    <glyph glyph-name="z" unicode="z" horiz-adv-x="1276" 
d="M1276 991q-224 -118 -421.5 -243.5t-383.5 -268.5l694 -18l-6 -293q-202 19 -382 33t-353 14q-39 0 -79.5 -1t-85 -4t-93.5 -8t-105 -14l5 336l729 502h-142q-130 0 -276 -3t-307 -28v361q156 -12 305 -20.5t297 -15.5t297 -12.5t303 -11.5l4 -305v0z" />
    <glyph glyph-name="braceleft" unicode="{" horiz-adv-x="811" 
d="M709 -68q-70 0 -142.5 -1t-140.5 12q-63 11 -100.5 41.5t-58.5 74t-29 98.5t-11 115q-3 70 -1.5 137t1.5 115q0 50 -52.5 95t-168.5 83q45 27 85.5 52.5t71 50.5t48.5 48.5t18 47.5q0 72 -1 145.5t-1 145.5q0 99 19.5 159.5t59.5 94t100.5 44.5t142.5 11q21 0 41.5 -0.5
t44.5 -0.5t52 -0.5t63 -0.5v-282h-60t-64 -2t-54 -7t-31 -16q-4 -4 -6.5 -20t-3.5 -35t-1 -36v-24q0 -43 2.5 -84.5t2.5 -85.5q0 -30 -9.5 -57.5t-25.5 -51.5t-35.5 -44.5t-40.5 -36.5q45 -31 68.5 -62t33 -65.5t10 -74.5t-0.5 -91q0 -15 -0.5 -42.5t0.5 -56.5t5 -54t13 -35
q14 -14 40 -21t55.5 -10.5t57 -4t44.5 -1.5v-267h-41z" />
    <glyph glyph-name="bar" unicode="|" horiz-adv-x="500" 
d="M61 -31q13 184 19 367t6 369q0 369 -6 741q90 -2 178 -3t178 -3q-5 -174 -9.5 -343.5t-4.5 -342.5q0 -200 5 -395.5t11 -393.5z" />
    <glyph glyph-name="braceright" unicode="}" horiz-adv-x="811" 
d="M805 729q-46 -26 -86.5 -51.5t-71 -50t-48 -48.5t-17.5 -47q0 -74 1 -147t1 -145q0 -100 -20 -160.5t-60.5 -93.5t-100.5 -43.5t-141 -10.5h-201v285q27 0 60 -0.5t64 1t54.5 6.5t30.5 16q4 5 6.5 21t3.5 34.5t1 35v23.5q0 44 -2.5 85.5t-2.5 84.5q0 31 9.5 58.5t25 51.5
t35.5 44.5t41 36.5q-21 15 -41.5 34t-36.5 42t-25.5 50t-9.5 58t1 60.5t1 58.5q0 68 -4 108.5t-25 63.5t-64.5 31.5t-121.5 11.5v268h41h142.5t138.5 -12q64 -12 101.5 -42t58 -74t28.5 -98.5t11 -115.5q2 -34 2.5 -69t0.5 -68t-0.5 -62.5t-0.5 -52.5q0 -49 52.5 -93.5
t168.5 -84.5z" />
    <glyph glyph-name="asciitilde" unicode="~" horiz-adv-x="1260" 
d="M1198 528q-75 -27 -138.5 -38t-123.5 -11q-81 0 -155.5 20t-146 44.5t-142 44.5t-144.5 20q-31 0 -62 -5.5t-66.5 -19t-77.5 -37t-93 -59.5q9 62 15 110t9 88.5t4 76.5t1 74q63 34 119.5 47.5t113.5 13.5q79 0 152.5 -20t145.5 -44.5t144.5 -44.5t149.5 -20q37 0 76 11
t77 27t74.5 34.5t67.5 33.5v-346v0z" />
    <glyph glyph-name="Adieresis" unicode="&#xc4;" horiz-adv-x="1624" 
d="M1239 -88q-40 125 -74.5 233.5t-68.5 214.5l-604 23l-152 -309l-391 4q166 270 316.5 544.5t283.5 561.5h-66.5t-70.5 -0.5t-78.5 -1t-89.5 -2.5l12 303q84 -4 162.5 -7.5t152.5 -6t144.5 -4t140.5 -1.5q167 0 339.5 6t367.5 13l20 -305l-418 4l455 -1276zM1008 645
q-35 119 -74 235t-82 234l-225 -455l381 -14v0zM1243 1745q0 -30 -13.5 -54.5t-36 -42t-51.5 -27t-61 -9.5q-34 0 -65.5 10.5t-55 29.5t-37.5 45.5t-14 58.5q0 38 19.5 63t48 40t62 21.5t60.5 6.5q36 0 63 -13t45 -34t27 -46t9 -49zM843 1751q0 -29 -12 -54.5t-34 -45
t-51 -30.5t-64 -11q-30 0 -62 8t-58.5 24t-43.5 41.5t-17 59.5q0 38 18.5 65t47 44.5t62.5 26t65 8.5q77 0 113 -38t36 -98z" />
    <glyph glyph-name="Aring" unicode="&#xc5;" horiz-adv-x="1604" 
d="M1239 -88q-40 125 -74.5 235.5t-68.5 217.5l-604 22l-152 -311l-391 2q166 275 315.5 551.5t284.5 566.5q-33 0 -66.5 -0.5t-70.5 -1t-78.5 -1t-89.5 -1.5l12 305q88 -5 159.5 -8t137.5 -6q-9 20 -12.5 40.5t-3.5 43.5q0 62 28.5 107.5t71.5 74.5t94 43t96 14
q49 0 105 -15.5t104 -47.5t79.5 -81t31.5 -116q0 -17 -2.5 -33.5t-7.5 -31.5q97 3 199 6t227 8l20 -307l-418 6l455 -1288zM952 1544q0 13 -10.5 27t-27.5 25t-40 18.5t-49 7.5q-13 0 -29.5 -2t-31.5 -7.5t-25 -15.5t-10 -26q0 -22 15 -37.5t36 -25t44.5 -13.5t41.5 -4
q20 0 36 5.5t27 13.5t17 17.5t6 16.5zM1008 653q-35 119 -74 236.5t-82 234.5l-225 -458l381 -13v0z" />
    <glyph glyph-name="Ccedilla" unicode="&#xc7;" horiz-adv-x="1470" 
d="M1073 866q-12 62 -46 106t-81.5 72t-103 41t-109.5 13q-78 0 -148 -31.5t-122 -84.5t-82.5 -123t-30.5 -148q0 -70 33 -131t86 -106t120.5 -71t137.5 -26q55 0 110.5 14t104 42.5t85 72.5t54.5 104l373 8q-38 -123 -107.5 -216.5t-158 -157.5t-191 -99t-206.5 -41
l-31 -84q54 -6 111 -21t104 -44t77.5 -74t30.5 -110q0 -70 -36 -119t-90.5 -80t-119.5 -45t-122 -14q-110 0 -213 34t-197 86l43 158q103 -32 210 -52t216 -20q13 0 30 1t32 6t25.5 15.5t10.5 29.5q0 13 -14.5 21.5t-37.5 14t-50.5 8t-53.5 4t-47 1.5h-30q-48 0 -95 -2.5
t-95 -5.5l159 303q-114 17 -217 61.5t-181 118.5t-123.5 177.5t-45.5 238.5q0 94 27 181.5t75.5 164t115 139.5t145.5 108t167.5 70t180.5 25q111 0 224.5 -31t211.5 -96t170 -165.5t100 -240.5h-385z" />
    <glyph glyph-name="Eacute" unicode="&#xc9;" horiz-adv-x="1452" 
d="M1401 -29q-223 8 -422 13.5t-393 5.5q-61 0 -122 -1t-125.5 -3t-134 -6.5t-147.5 -10.5q10 105 17 201.5t11 188.5t5.5 180t1.5 176v171t-0.5 175.5t-2 183.5t-3.5 195q91 -3 174.5 -5t163 -3t156 -1.5t151.5 -0.5t151 0.5t155 1.5t162 3t173 5v-324q-100 9 -193.5 14.5
t-183 9.5t-176 5.5t-172.5 1.5q-63 0 -127 -0.5t-127 -3.5l4 -334q107 7 215 10.5t219 5t226.5 2t238.5 0.5l-18 -299q-205 8 -387 12.5t-359 4.5h-133q2 -66 3.5 -130.5t5.5 -129.5q100 -8 198.5 -12.5t198.5 -4.5q141 0 288 5.5t320 15.5zM737 1588h-244l322 327l376 -4z
" />
    <glyph glyph-name="Ntilde" unicode="&#xd1;" horiz-adv-x="1436" 
d="M1362 -78l-246 -4q-80 125 -168 242.5t-180.5 230.5t-188.5 223.5t-192 221.5l-16 -883h-312q11 195 16 364.5t5 333.5q0 78 -0.5 157t-1 161.5t-1 169t-1.5 180.5l403 -6q63 -110 132 -212t141.5 -198.5t148.5 -189t154 -183.5l8 961l311 6zM954 1462q-44 -9 -71 -12.5
t-52 -3.5q-32 0 -63 6t-61.5 13.5t-61 13.5t-62.5 6q-15 0 -44 -8t-77 -35l-4 223q50 12 85 17t67 5q30 0 59 -5t57.5 -11t57.5 -11t59 -5q10 0 20.5 1t24.5 4t32.5 10t43.5 19z" />
    <glyph glyph-name="Odieresis" unicode="&#xd6;" horiz-adv-x="1624" 
d="M1583 705q0 -108 -33.5 -197t-91.5 -158.5t-135 -121t-165 -85.5t-181.5 -50.5t-183.5 -16.5q-95 0 -187.5 19.5t-176 57t-154.5 93.5t-123 128.5t-81.5 162t-29.5 194.5q0 103 32 192t87.5 162.5t130.5 131t161 96.5t179 59.5t184 20.5q152 0 290.5 -46t245 -134.5
t169.5 -216t63 -291.5zM1233 733q0 97 -27 177t-79 137.5t-128.5 89.5t-175.5 32q-102 0 -181.5 -31.5t-134.5 -89t-83.5 -139t-28.5 -182.5q0 -88 29 -161t81.5 -125.5t126.5 -81.5t163 -29q114 0 197 20t136.5 67t79 124.5t25.5 191.5zM1202 1642q0 -30 -13.5 -54.5
t-36 -42t-51.5 -27t-61 -9.5q-34 0 -65.5 10.5t-55 29.5t-37.5 45.5t-14 58.5q0 38 19.5 63t48 40t62 21.5t60.5 6.5q36 0 63 -13t45 -34t27 -46t9 -49zM802 1648q0 -29 -12 -54.5t-34 -45t-51 -30.5t-64 -11q-30 0 -62 8t-58.5 24t-43.5 41.5t-17 59.5q0 38 18.5 65
t47 44.5t62.5 26t65 8.5q77 0 113 -38t36 -98z" />
    <glyph glyph-name="Udieresis" unicode="&#xdc;" horiz-adv-x="1393" 
d="M1352 969q0 -104 -11 -212.5t-38.5 -210t-75 -191.5t-120 -157t-174 -106t-237.5 -39q-125 0 -221 32.5t-166.5 90t-118 136t-76.5 169.5t-41 191.5t-12 201.5q0 121 14.5 249t49.5 272l358 -33q-46 -153 -67 -285t-21 -256q0 -94 16.5 -180.5t56.5 -152.5t106 -105
t165 -39q66 0 112.5 24.5t78.5 65.5t51 94t29 110.5t13 115.5t3 108q0 119 -13.5 244t-45.5 272l344 29q24 -125 32.5 -231.5t8.5 -206.5zM1081 1663q0 -30 -13.5 -54.5t-36 -42t-51.5 -27t-61 -9.5q-34 0 -65.5 10.5t-55 29.5t-37.5 45.5t-14 58.5q0 38 19.5 63t48 40
t62 21.5t60.5 6.5q36 0 63 -13t45 -34t27 -46t9 -49zM681 1669q0 -29 -12 -54.5t-34 -45t-51 -30.5t-64 -11q-30 0 -62 8t-58.5 24t-43.5 41.5t-17 59.5q0 38 18.5 65t47 44.5t62.5 26t65 8.5q77 0 113 -38t36 -98z" />
    <glyph glyph-name="aacute" unicode="&#xe1;" horiz-adv-x="1516" 
d="M1229 -41l-152 428q-102 3 -201.5 9.5t-201.5 6.5q-79 0 -157 -2.5t-157 -7.5l-108 -217l-361 4q83 154 162 298.5t154 283.5t147.5 274t143.5 269q-51 2 -102.5 3.5t-106 4t-113 5t-123.5 5.5l4 274l1364 21l13 -309l-353 -4q47 -168 105 -332.5t124 -331t138.5 -338
t148.5 -352.5zM791 1198l-287 -526l469 8zM840 1731h-244l322 327l376 -4z" />
    <glyph glyph-name="agrave" unicode="&#xe0;" horiz-adv-x="1516" 
d="M1229 -41l-152 428q-102 3 -201.5 9.5t-201.5 6.5q-79 0 -157 -2.5t-157 -7.5l-108 -217l-361 4q83 154 162 298.5t154 283.5t147.5 274t143.5 269q-51 2 -102.5 3.5t-106 4t-113 5t-123.5 5.5l4 274l1364 21l13 -309l-353 -4q47 -168 105 -332.5t124 -331t138.5 -338
t148.5 -352.5zM791 1198l-287 -526l469 8zM742 1751l-454 323l376 4l322 -327h-244z" />
    <glyph glyph-name="acircumflex" unicode="&#xe2;" horiz-adv-x="1516" 
d="M1229 -41l-152 428q-102 3 -201.5 9.5t-201.5 6.5q-79 0 -157 -2.5t-157 -7.5l-108 -217l-361 4q83 154 162 298.5t154 283.5t147.5 274t143.5 269q-51 2 -102.5 3.5t-106 4t-113 5t-123.5 5.5l4 274l1364 21l13 -309l-353 -4q47 -168 105 -332.5t124 -331t138.5 -338
t148.5 -352.5zM791 1198l-287 -526l469 8zM1012 1724l-195 105l-213 -105l-106 173q45 23 86 43t80.5 39.5t77.5 39t77 41.5l305 -166z" />
    <glyph glyph-name="adieresis" unicode="&#xe4;" horiz-adv-x="1516" 
d="M1229 -41l-152 428q-102 3 -201.5 9.5t-201.5 6.5q-79 0 -157 -2.5t-157 -7.5l-108 -217l-361 4q83 154 162 298.5t154 283.5t147.5 274t143.5 269q-51 2 -102.5 3.5t-106 4t-113 5t-123.5 5.5l4 274l1364 21l13 -309l-353 -4q47 -168 105 -332.5t124 -331t138.5 -338
t148.5 -352.5zM791 1198l-287 -526l469 8zM1182 1847q0 -30 -13.5 -54.5t-36 -42t-51.5 -27t-61 -9.5q-34 0 -65.5 10.5t-55 29.5t-37.5 45.5t-14 58.5q0 38 19.5 63t48 40t62 21.5t60.5 6.5q36 0 63 -13t45 -34t27 -46t9 -49zM782 1853q0 -29 -12 -54.5t-34 -45t-51 -30.5
t-64 -11q-30 0 -62 8t-58.5 24t-43.5 41.5t-17 59.5q0 38 18.5 65t47 44.5t62.5 26t65 8.5q77 0 113 -38t36 -98z" />
    <glyph glyph-name="atilde" unicode="&#xe3;" horiz-adv-x="1516" 
d="M1229 -41l-152 428q-102 3 -201.5 9.5t-201.5 6.5q-79 0 -157 -2.5t-157 -7.5l-108 -217l-361 4q83 154 162 298.5t154 283.5t147.5 274t143.5 269q-51 2 -102.5 3.5t-106 4t-113 5t-123.5 5.5l4 274l1364 21l13 -309l-353 -4q47 -168 105 -332.5t124 -331t138.5 -338
t148.5 -352.5zM791 1198l-287 -526l469 8zM1036 1769q-44 -9 -71 -12.5t-52 -3.5q-32 0 -63 6t-61.5 13.5t-61 13.5t-62.5 6q-15 0 -44 -8t-77 -35l-4 223q50 12 85 17t67 5q30 0 59 -5t57.5 -11t57.5 -11t59 -5q10 0 20.5 1t24.5 4t32.5 10t43.5 19z" />
    <glyph glyph-name="aring" unicode="&#xe5;" horiz-adv-x="1604" 
d="M1597 -49q-76 182 -148.5 354.5t-138.5 341t-124 335t-105 335.5l353 2l-13 313l-325 -6q5 16 6.5 31t1.5 31q0 67 -31.5 116t-79.5 81t-104 47.5t-105 15.5q-45 0 -96 -14t-94 -43.5t-71.5 -75t-28.5 -107.5q0 -49 18 -90l-455 -6l-4 -279q65 -3 123.5 -5.5t113 -5
t106 -4t102.5 -3.5q-71 -135 -143.5 -271t-147.5 -275.5t-154 -285.5t-162 -301l361 -4l108 219q79 3 157 6t157 3q102 0 201.5 -6t201.5 -9l152 -432zM909 1683q0 -7 -6 -16t-17 -17t-27 -14t-36 -6q-18 0 -41.5 4.5t-44.5 14.5t-36 25.5t-15 37.5q0 16 10 26.5t25 17
t31.5 9t29.5 2.5q26 0 49 -8t40 -20.5t27.5 -27.5t10.5 -28zM973 686l-469 -8l287 530z" />
    <glyph glyph-name="ccedilla" unicode="&#xe7;" horiz-adv-x="1470" 
d="M1073 866q-12 62 -46 106t-81.5 72t-103 41t-109.5 13q-78 0 -148 -31.5t-122 -84.5t-82.5 -123t-30.5 -148q0 -70 33 -131t86 -106t120.5 -71t137.5 -26q55 0 110.5 14t104 42.5t85 72.5t54.5 104l373 8q-38 -123 -107.5 -216.5t-158 -157.5t-191 -99t-206.5 -41
l-31 -84q54 -6 111 -21t104 -44t77.5 -74t30.5 -110q0 -70 -36 -119t-90.5 -80t-119.5 -45t-122 -14q-110 0 -213 34t-197 86l43 158q103 -32 210 -52t216 -20q13 0 30 1t32 6t25.5 15.5t10.5 29.5q0 13 -14.5 21.5t-37.5 14t-50.5 8t-53.5 4t-47 1.5h-30q-48 0 -95 -2.5
t-95 -5.5l159 303q-114 17 -217 61.5t-181 118.5t-123.5 177.5t-45.5 238.5q0 94 27 181.5t75.5 164t115 139.5t145.5 108t167.5 70t180.5 25q111 0 224.5 -31t211.5 -96t170 -165.5t100 -240.5h-385z" />
    <glyph glyph-name="eacute" unicode="&#xe9;" horiz-adv-x="1180" 
d="M1133 1108q-67 2 -127.5 4t-116.5 3.5t-109 2t-106 0.5q-78 0 -155.5 -1t-156.5 -3q-2 -31 -2 -62.5v-62.5q57 -2 115 -3t115 -1q120 0 245.5 1.5t274.5 2.5v-289q-135 7 -244.5 10t-214.5 3q-72 0 -144 -3.5t-145 -11.5q4 -43 7 -86t6 -88q175 0 356.5 3t386.5 10
l-16 -314q-152 16 -281 23.5t-252 7.5q-116 0 -238.5 -3.5t-271.5 -12.5q6 85 10.5 163t7.5 151t4 143t1 139q0 67 -1 134t-2.5 137.5t-4 145.5t-6.5 156q73 -1 139 -1.5t128 -1t120.5 -1t115.5 -0.5q66 0 133 1t137 2.5t143.5 4t154.5 6.5zM595 1567h-244l322 327l376 -4z
" />
    <glyph glyph-name="egrave" unicode="&#xe8;" horiz-adv-x="1180" 
d="M1133 1108q-67 2 -127.5 4t-116.5 3.5t-109 2t-106 0.5q-78 0 -155.5 -1t-156.5 -3q-2 -31 -2 -62.5v-62.5q57 -2 115 -3t115 -1q120 0 245.5 1.5t274.5 2.5v-289q-135 7 -244.5 10t-214.5 3q-72 0 -144 -3.5t-145 -11.5q4 -43 7 -86t6 -88q175 0 356.5 3t386.5 10
l-16 -314q-152 16 -281 23.5t-252 7.5q-116 0 -238.5 -3.5t-271.5 -12.5q6 85 10.5 163t7.5 151t4 143t1 139q0 67 -1 134t-2.5 137.5t-4 145.5t-6.5 156q73 -1 139 -1.5t128 -1t120.5 -1t115.5 -0.5q66 0 133 1t137 2.5t143.5 4t154.5 6.5zM640 1547l-454 323l376 4
l322 -327h-244z" />
    <glyph glyph-name="ecircumflex" unicode="&#xea;" horiz-adv-x="1180" 
d="M1133 1108q-67 2 -127.5 4t-116.5 3.5t-109 2t-106 0.5q-78 0 -155.5 -1t-156.5 -3q-2 -31 -2 -62.5v-62.5q57 -2 115 -3t115 -1q120 0 245.5 1.5t274.5 2.5v-289q-135 7 -244.5 10t-214.5 3q-72 0 -144 -3.5t-145 -11.5q4 -43 7 -86t6 -88q175 0 356.5 3t386.5 10
l-16 -314q-152 16 -281 23.5t-252 7.5q-116 0 -238.5 -3.5t-271.5 -12.5q6 85 10.5 163t7.5 151t4 143t1 139q0 67 -1 134t-2.5 137.5t-4 145.5t-6.5 156q73 -1 139 -1.5t128 -1t120.5 -1t115.5 -0.5q66 0 133 1t137 2.5t143.5 4t154.5 6.5zM808 1519l-195 105l-213 -105
l-106 173q45 23 86 43t80.5 39.5t77.5 39t77 41.5l305 -166z" />
    <glyph glyph-name="edieresis" unicode="&#xeb;" horiz-adv-x="1180" 
d="M1133 1108q-67 2 -127.5 4t-116.5 3.5t-109 2t-106 0.5q-78 0 -155.5 -1t-156.5 -3q-2 -31 -2 -62.5v-62.5q57 -2 115 -3t115 -1q120 0 245.5 1.5t274.5 2.5v-289q-135 7 -244.5 10t-214.5 3q-72 0 -144 -3.5t-145 -11.5q4 -43 7 -86t6 -88q175 0 356.5 3t386.5 10
l-16 -314q-152 16 -281 23.5t-252 7.5q-116 0 -238.5 -3.5t-271.5 -12.5q6 85 10.5 163t7.5 151t4 143t1 139q0 67 -1 134t-2.5 137.5t-4 145.5t-6.5 156q73 -1 139 -1.5t128 -1t120.5 -1t115.5 -0.5q66 0 133 1t137 2.5t143.5 4t154.5 6.5zM978 1683q0 -30 -13.5 -54.5
t-36 -42t-51.5 -27t-61 -9.5q-34 0 -65.5 10.5t-55 29.5t-37.5 45.5t-14 58.5q0 38 19.5 63t48 40t62 21.5t60.5 6.5q36 0 63 -13t45 -34t27 -46t9 -49zM578 1689q0 -29 -12 -54.5t-34 -45t-51 -30.5t-64 -11q-30 0 -62 8t-58.5 24t-43.5 41.5t-17 59.5q0 38 18.5 65
t47 44.5t62.5 26t65 8.5q77 0 113 -38t36 -98z" />
    <glyph glyph-name="iacute" unicode="&#xed;" horiz-adv-x="483" 
d="M59 215l35 1098h324q-12 -199 -12 -400q0 -176 6 -348.5t12 -349.5h-365zM370 1526h-244l322 327l376 -4z" />
    <glyph glyph-name="igrave" unicode="&#xec;" horiz-adv-x="483" 
d="M59 215l35 1098h324q-12 -199 -12 -400q0 -176 6 -348.5t12 -349.5h-365zM128 1526l-454 323l376 4l322 -327h-244z" />
    <glyph glyph-name="icircumflex" unicode="&#xee;" horiz-adv-x="483" 
d="M59 215l35 1098h324q-12 -199 -12 -400q0 -176 6 -348.5t12 -349.5h-365zM460 1458l-195 105l-213 -105l-106 173q45 23 86 43t80.5 39.5t77.5 39t77 41.5l305 -166z" />
    <glyph glyph-name="idieresis" unicode="&#xef;" horiz-adv-x="483" 
d="M59 215l35 1098h324q-12 -199 -12 -400q0 -176 6 -348.5t12 -349.5h-365zM632 1560q0 -30 -13.5 -54.5t-36 -42t-51.5 -27t-61 -9.5q-34 0 -65.5 10.5t-55 29.5t-37.5 45.5t-14 58.5q0 38 19.5 63t48 40t62 21.5t60.5 6.5q36 0 63 -13t45 -34t27 -46t9 -49zM232 1566
q0 -29 -12 -54.5t-34 -45t-51 -30.5t-64 -11q-30 0 -62 8t-58.5 24t-43.5 41.5t-17 59.5q0 38 18.5 65t47 44.5t62.5 26t65 8.5q77 0 113 -38t36 -98z" />
    <glyph glyph-name="ntilde" unicode="&#xf1;" horiz-adv-x="1307" 
d="M1249 1384q-7 -88 -11.5 -169.5t-8 -159t-6 -151t-4.5 -146.5q-4 -102 -7.5 -205t-6 -208.5t-5 -215t-4.5 -225.5l-303 -6q-126 257 -254.5 497t-271.5 467l-17 -749l-291 8q8 127 15.5 247t13.5 235.5t10 228.5t4 225q0 30 -0.5 60t-3.5 63t-8.5 70.5t-15.5 82.5l340 -6
l495 -831l-14 888h354v0zM851 1462q-44 -9 -71 -12.5t-52 -3.5q-32 0 -63 6t-61.5 13.5t-61 13.5t-62.5 6q-15 0 -44 -8t-77 -35l-4 223q50 12 85 17t67 5q30 0 59 -5t57.5 -11t57.5 -11t59 -5q10 0 20.5 1t24.5 4t32.5 10t43.5 19z" />
    <glyph glyph-name="oacute" unicode="&#xf3;" horiz-adv-x="1391" 
d="M1350 729q0 -135 -55 -243t-146.5 -184t-208.5 -116.5t-242 -40.5q-83 0 -164 15t-154 45.5t-135 76.5t-107.5 108.5t-71 141t-25.5 173.5q0 87 25 168t69.5 151.5t106.5 129t135 100t154.5 64.5t166.5 23q141 0 260.5 -40.5t206.5 -118.5t136 -192t49 -261zM1016 725
q0 79 -20 145.5t-60 114.5t-100 75t-140 27q-72 0 -132.5 -33.5t-105 -87.5t-69 -123t-24.5 -141q0 -65 27 -125t72.5 -105.5t105 -73t124.5 -27.5q73 0 132.5 28t101.5 76.5t65 113t23 136.5zM657 1485h-244l322 327l376 -4z" />
    <glyph glyph-name="ograve" unicode="&#xf2;" horiz-adv-x="1391" 
d="M1350 729q0 -135 -55 -243t-146.5 -184t-208.5 -116.5t-242 -40.5q-83 0 -164 15t-154 45.5t-135 76.5t-107.5 108.5t-71 141t-25.5 173.5q0 87 25 168t69.5 151.5t106.5 129t135 100t154.5 64.5t166.5 23q141 0 260.5 -40.5t206.5 -118.5t136 -192t49 -261zM1016 725
q0 79 -20 145.5t-60 114.5t-100 75t-140 27q-72 0 -132.5 -33.5t-105 -87.5t-69 -123t-24.5 -141q0 -65 27 -125t72.5 -105.5t105 -73t124.5 -27.5q73 0 132.5 28t101.5 76.5t65 113t23 136.5zM742 1485l-454 323l376 4l322 -327h-244z" />
    <glyph glyph-name="ocircumflex" unicode="&#xf4;" horiz-adv-x="1391" 
d="M1350 729q0 -135 -55 -243t-146.5 -184t-208.5 -116.5t-242 -40.5q-83 0 -164 15t-154 45.5t-135 76.5t-107.5 108.5t-71 141t-25.5 173.5q0 87 25 168t69.5 151.5t106.5 129t135 100t154.5 64.5t166.5 23q141 0 260.5 -40.5t206.5 -118.5t136 -192t49 -261zM1016 725
q0 79 -20 145.5t-60 114.5t-100 75t-140 27q-72 0 -132.5 -33.5t-105 -87.5t-69 -123t-24.5 -141q0 -65 27 -125t72.5 -105.5t105 -73t124.5 -27.5q73 0 132.5 28t101.5 76.5t65 113t23 136.5zM890 1458l-195 105l-213 -105l-106 173q45 23 86 43t80.5 39.5t77.5 39t77 41.5
l305 -166z" />
    <glyph glyph-name="odieresis" unicode="&#xf6;" horiz-adv-x="1391" 
d="M1350 729q0 -135 -55 -243t-146.5 -184t-208.5 -116.5t-242 -40.5q-83 0 -164 15t-154 45.5t-135 76.5t-107.5 108.5t-71 141t-25.5 173.5q0 87 25 168t69.5 151.5t106.5 129t135 100t154.5 64.5t166.5 23q141 0 260.5 -40.5t206.5 -118.5t136 -192t49 -261zM1016 725
q0 79 -20 145.5t-60 114.5t-100 75t-140 27q-72 0 -132.5 -33.5t-105 -87.5t-69 -123t-24.5 -141q0 -65 27 -125t72.5 -105.5t105 -73t124.5 -27.5q73 0 132.5 28t101.5 76.5t65 113t23 136.5zM1060 1560q0 -30 -13.5 -54.5t-36 -42t-51.5 -27t-61 -9.5q-34 0 -65.5 10.5
t-55 29.5t-37.5 45.5t-14 58.5q0 38 19.5 63t48 40t62 21.5t60.5 6.5q36 0 63 -13t45 -34t27 -46t9 -49zM660 1566q0 -29 -12 -54.5t-34 -45t-51 -30.5t-64 -11q-30 0 -62 8t-58.5 24t-43.5 41.5t-17 59.5q0 38 18.5 65t47 44.5t62.5 26t65 8.5q77 0 113 -38t36 -98z" />
    <glyph glyph-name="otilde" unicode="&#xf5;" horiz-adv-x="1391" 
d="M1350 729q0 -135 -55 -243t-146.5 -184t-208.5 -116.5t-242 -40.5q-83 0 -164 15t-154 45.5t-135 76.5t-107.5 108.5t-71 141t-25.5 173.5q0 87 25 168t69.5 151.5t106.5 129t135 100t154.5 64.5t166.5 23q141 0 260.5 -40.5t206.5 -118.5t136 -192t49 -261zM1016 725
q0 79 -20 145.5t-60 114.5t-100 75t-140 27q-72 0 -132.5 -33.5t-105 -87.5t-69 -123t-24.5 -141q0 -65 27 -125t72.5 -105.5t105 -73t124.5 -27.5q73 0 132.5 28t101.5 76.5t65 113t23 136.5zM974 1503q-44 -9 -71 -12.5t-52 -3.5q-32 0 -63 6t-61.5 13.5t-61 13.5t-62.5 6
q-15 0 -44 -8t-77 -35l-4 223q50 12 85 17t67 5q30 0 59 -5t57.5 -11t57.5 -11t59 -5q10 0 20.5 1t24.5 4t32.5 10t43.5 19z" />
    <glyph glyph-name="uacute" unicode="&#xfa;" horiz-adv-x="1389" 
d="M1348 965q0 -104 -13.5 -204t-44 -190t-80 -165.5t-122 -130.5t-170 -86t-224.5 -31q-121 0 -214.5 29t-164 81t-119 124t-78.5 157t-43.5 181t-13.5 196q0 96 11 198.5t39 223.5l360 -29q-38 -128 -55 -234.5t-17 -203.5q0 -91 17.5 -171t57 -139.5t103.5 -94t158 -34.5
q57 0 99.5 19.5t73 53.5t50.5 79.5t31.5 97t16 107.5t4.5 110q0 94 -11.5 196t-37.5 228l346 25q24 -113 32.5 -208.5t8.5 -184.5zM717 1485h-244l322 327l376 -4z" />
    <glyph glyph-name="ugrave" unicode="&#xf9;" horiz-adv-x="1389" 
d="M1348 965q0 -104 -13.5 -204t-44 -190t-80 -165.5t-122 -130.5t-170 -86t-224.5 -31q-121 0 -214.5 29t-164 81t-119 124t-78.5 157t-43.5 181t-13.5 196q0 96 11 198.5t39 223.5l360 -29q-38 -128 -55 -234.5t-17 -203.5q0 -91 17.5 -171t57 -139.5t103.5 -94t158 -34.5
q57 0 99.5 19.5t73 53.5t50.5 79.5t31.5 97t16 107.5t4.5 110q0 94 -11.5 196t-37.5 228l346 25q24 -113 32.5 -208.5t8.5 -184.5zM681 1403l-454 323l376 4l322 -327h-244z" />
    <glyph glyph-name="ucircumflex" unicode="&#xfb;" horiz-adv-x="1389" 
d="M1348 965q0 -104 -13.5 -204t-44 -190t-80 -165.5t-122 -130.5t-170 -86t-224.5 -31q-121 0 -214.5 29t-164 81t-119 124t-78.5 157t-43.5 181t-13.5 196q0 96 11 198.5t39 223.5l360 -29q-38 -128 -55 -234.5t-17 -203.5q0 -91 17.5 -171t57 -139.5t103.5 -94t158 -34.5
q57 0 99.5 19.5t73 53.5t50.5 79.5t31.5 97t16 107.5t4.5 110q0 94 -11.5 196t-37.5 228l346 25q24 -113 32.5 -208.5t8.5 -184.5zM911 1478l-195 105l-213 -105l-106 173q45 23 86 43t80.5 39.5t77.5 39t77 41.5l305 -166z" />
    <glyph glyph-name="udieresis" unicode="&#xfc;" horiz-adv-x="1389" 
d="M1348 965q0 -104 -13.5 -204t-44 -190t-80 -165.5t-122 -130.5t-170 -86t-224.5 -31q-121 0 -214.5 29t-164 81t-119 124t-78.5 157t-43.5 181t-13.5 196q0 96 11 198.5t39 223.5l360 -29q-38 -128 -55 -234.5t-17 -203.5q0 -91 17.5 -171t57 -139.5t103.5 -94t158 -34.5
q57 0 99.5 19.5t73 53.5t50.5 79.5t31.5 97t16 107.5t4.5 110q0 94 -11.5 196t-37.5 228l346 25q24 -113 32.5 -208.5t8.5 -184.5zM1081 1581q0 -30 -13.5 -54.5t-36 -42t-51.5 -27t-61 -9.5q-34 0 -65.5 10.5t-55 29.5t-37.5 45.5t-14 58.5q0 38 19.5 63t48 40t62 21.5
t60.5 6.5q36 0 63 -13t45 -34t27 -46t9 -49zM681 1587q0 -29 -12 -54.5t-34 -45t-51 -30.5t-64 -11q-30 0 -62 8t-58.5 24t-43.5 41.5t-17 59.5q0 38 18.5 65t47 44.5t62.5 26t65 8.5q77 0 113 -38t36 -98z" />
    <glyph glyph-name="dagger" unicode="&#x2020;" horiz-adv-x="457" 
d="M711 780q-52 2 -97.5 3t-86 2t-78 1.5t-74.5 1.5q-2 -45 -3 -89t-1 -89q0 -70 0.5 -141.5t2 -146t3.5 -153.5t4 -165l-344 16q8 106 16 205.5t14.5 194.5t10.5 187.5t4 183.5q-65 0 -135 -2t-160 -5l6 324q90 -6 159 -10.5t132 -7.5q2 69 4.5 144t3.5 173l332 -14
q-7 -92 -13.5 -164.5t-13.5 -138.5q66 3 136.5 7.5t164.5 12.5l13 -330v0z" />
    <glyph glyph-name="degree" unicode="&#xb0;" horiz-adv-x="723" 
d="M662 1290q0 -56 -26 -98.5t-67 -71.5t-91.5 -44t-100.5 -15q-54 0 -110 16.5t-102 48t-75 78t-29 107.5q0 56 26 98.5t67.5 71.5t92 44t99.5 15q54 0 110 -16.5t101.5 -48t75 -78t29.5 -107.5zM479 1288q0 22 -14 38t-34.5 26.5t-43 16t-39.5 5.5q-13 0 -31 -3t-34 -10.5
t-27.5 -19t-11.5 -28.5q0 -22 15.5 -38.5t37 -27t45.5 -15.5t41 -5q13 0 29.5 3.5t31.5 11t25 19t10 27.5z" />
    <glyph glyph-name="cent" unicode="&#xa2;" horiz-adv-x="1329" 
d="M940 831q-14 63 -55 102t-92 56q0 -56 -1 -111t-1 -112q0 -75 1 -151.5t3 -153.5q49 20 90.5 58.5t62.5 101.5l326 6q-30 -94 -79.5 -170t-112 -131.5t-134.5 -91t-147 -50.5l2 -194l-316 4l9 196q-93 20 -172.5 64t-138 109t-91.5 150.5t-33 188.5q0 99 35 191t95 168.5
t141 132.5t172 84l-2 172q43 -1 79.5 -2t71.5 -1.5t71.5 -1t78.5 -1.5l-2 -152q78 -14 155 -48.5t141.5 -91.5t111.5 -137t67 -184h-336zM506 975q-66 -40 -101.5 -114t-35.5 -159q0 -74 36.5 -136t98.5 -97q0 57 1 112t1 111v283v0z" />
    <glyph glyph-name="sterling" unicode="&#xa3;" horiz-adv-x="1458" 
d="M1425 -37q-87 12 -168 23t-157.5 19.5t-150 13t-146.5 4.5q-91 0 -182 -1t-188 -3t-201.5 -4.5t-221.5 -4.5q39 65 70.5 123t57 112.5t47 106t40.5 101.5q-10 -1 -20.5 -1.5t-24.5 -0.5t-32 -0.5t-44 -1.5l11 290q66 -3 114.5 -5.5t92.5 -4.5q18 68 35 136.5t34 138.5
q20 89 48 168t76.5 138.5t124 94.5t189.5 35q122 0 215.5 -54t158.5 -142t102.5 -200t48.5 -229l-389 -14q5 31 8.5 53.5t5 40t2 31t0.5 26.5q0 48 -7 90.5t-24.5 74.5t-45.5 50.5t-70 18.5q-45 0 -72 -18t-42.5 -47t-23 -64t-14.5 -70q-27 -132 -57 -264q50 1 100.5 2.5
t104 3.5t111.5 4.5t122 5.5l12 -295q-75 3 -144 4.5t-133.5 2.5t-126 1.5t-122.5 0.5q-13 -38 -28.5 -82t-35.5 -86q112 9 220.5 17.5t220.5 8.5h514z" />
    <glyph glyph-name="section" unicode="&#xa7;" horiz-adv-x="1296" 
d="M1235 248q0 -77 -24 -135t-64 -101t-93 -71.5t-111.5 -46t-118 -24.5t-113.5 -7q-72 0 -148 10.5t-148 35t-136 64.5t-111.5 100t-75 141t-26.5 187l313 -8q2 -68 21.5 -124.5t53 -97t79 -63t98.5 -22.5q22 0 50.5 1.5t58.5 6t59 13.5t51.5 23.5t36.5 35.5t14 51
q0 42 -22 69.5t-54 46t-69.5 29t-69.5 17.5q-46 11 -105.5 21t-122 24t-122 35.5t-106 54.5t-75 81t-28.5 116t26.5 125t69.5 102q-75 42 -118.5 108.5t-43.5 165.5q0 77 24 135.5t64.5 101t94 70.5t112 45t118 24t112.5 7q72 0 148 -10.5t148 -35t135.5 -64.5t111 -100
t75.5 -141t27 -187l-313 10q-2 69 -21.5 125.5t-53.5 96t-79 61.5t-98 22q-33 0 -79.5 -3.5t-89 -16.5t-72.5 -39.5t-30 -71.5q0 -42 22 -69.5t54 -45t70 -28t69 -17.5q47 -11 106.5 -21t121.5 -24t121.5 -35.5t106 -54.5t75 -80.5t28.5 -115.5q0 -69 -26.5 -127t-71.5 -103
q75 -40 119.5 -106t44.5 -166zM862 719q0 28 -18 49t-47 36.5t-65 25t-71.5 15.5t-67 8.5t-52.5 2.5q-22 0 -41.5 -9t-34 -25t-23 -36t-8.5 -43q0 -29 18 -50.5t47 -37t64.5 -25.5t71.5 -16t68 -8t53 -2t40.5 9.5t34 25t23 36.5t8.5 44z" />
    <glyph glyph-name="bullet" unicode="&#x2022;" horiz-adv-x="559" 
d="M498 741q0 -42 -16 -79t-43.5 -64t-65 -43t-80.5 -16q-39 0 -80.5 11.5t-75 35.5t-55 60.5t-21.5 86.5q0 52 24 90.5t60.5 63.5t80 37t83.5 12q98 0 143.5 -53t45.5 -142z" />
    <glyph glyph-name="paragraph" unicode="&#xb6;" horiz-adv-x="1360" 
d="M1008 39q2 143 3.5 265t2.5 239q-25 0 -50.5 1t-50.5 1q1 -61 2.5 -122t3.5 -125.5t6 -133.5t9 -144l-303 -4q5 152 8 282t4 253q-56 5 -122 17t-133 32.5t-129.5 52t-111 77t-77.5 106t-29 139.5q0 85 31 150t82 111.5t117 77.5t136.5 49.5t140.5 26t128 7.5
q144 0 293 -13.5t319 -37.5q-9 -143 -12.5 -263.5t-3.5 -236.5q0 -190 8 -387t20 -418zM1016 756q0 80 -2.5 160.5t-5.5 160.5q-23 5 -47.5 9.5t-47.5 9.5v-342q26 0 52 1t51 1zM645 768q-2 90 -3.5 178t-4.5 176q-41 -1 -87.5 -5t-86.5 -19t-66 -43.5t-26 -77.5
q0 -48 26 -83.5t66.5 -60.5t88.5 -40.5t93 -24.5z" />
    <glyph glyph-name="germandbls" unicode="&#xdf;" horiz-adv-x="2949" 
d="M1083 946q1 51 -15 87.5t-42 62t-60 41t-71 23.5t-74 11t-69 3h-63t-67 -3t-64 -11t-55 -25t-38 -43.5t-14 -67.5q0 -28 14.5 -49.5t37.5 -37t52.5 -26.5t59.5 -18.5t58.5 -12t49.5 -8.5q65 -10 141.5 -20t153 -27t148 -44.5t126.5 -72t88 -110t33 -158.5
q0 -88 -28.5 -155.5t-76 -117t-110.5 -82.5t-132 -52.5t-140 -28t-135 -8.5q-87 0 -178 12t-177 40.5t-161.5 75.5t-132 116t-89.5 162t-33 214l363 -10q2 -80 26.5 -146t66 -113.5t98 -74t122.5 -26.5q27 0 62.5 1.5t72 7.5t72 16.5t63.5 28.5t45 44.5t17 63.5
q0 50 -27 83.5t-67 55.5t-86 35t-84 22q-55 12 -126 23.5t-145 28t-145 41t-126.5 62.5t-89.5 93t-34 133q0 90 33 157.5t87.5 116t125 80t145.5 50t148.5 25.5t134.5 7q57 0 131 -8.5t152 -29.5t153.5 -56t134.5 -87.5t95.5 -125t36.5 -168.5h-392zM2558 946q1 51 -15 87.5
t-42 62t-60 41t-71 23.5t-74 11t-69 3h-63t-67 -3t-64 -11t-55 -25t-38 -43.5t-14 -67.5q0 -28 14.5 -49.5t37.5 -37t52.5 -26.5t59.5 -18.5t58.5 -12t49.5 -8.5q65 -10 141.5 -20t153 -27t148 -44.5t126.5 -72t88 -110t33 -158.5q0 -88 -28.5 -155.5t-76 -117t-110.5 -82.5
t-132 -52.5t-140 -28t-135 -8.5q-87 0 -178 12t-177 40.5t-161.5 75.5t-132 116t-89.5 162t-33 214l363 -10q2 -80 26.5 -146t66 -113.5t98 -74t122.5 -26.5q27 0 62.5 1.5t72 7.5t72 16.5t63.5 28.5t45 44.5t17 63.5q0 50 -27 83.5t-67 55.5t-86 35t-84 22
q-55 12 -126 23.5t-145 28t-145 41t-126.5 62.5t-89.5 93t-34 133q0 90 33 157.5t87.5 116t125 80t145.5 50t148.5 25.5t134.5 7q57 0 131 -8.5t152 -29.5t153.5 -56t134.5 -87.5t95.5 -125t36.5 -168.5h-392z" />
    <glyph glyph-name="registered" unicode="&#xae;" horiz-adv-x="1368" 
d="M1307 819q0 -85 -26.5 -155t-72.5 -126t-108 -97.5t-133 -69t-147.5 -41t-151.5 -13.5q-77 0 -152 16t-142.5 46.5t-124.5 75.5t-99 103.5t-65.5 130.5t-23.5 155q0 82 25.5 153t70.5 129.5t105.5 104t130 77t145 48t150.5 16.5q123 0 235 -37t197.5 -108t136 -174
t50.5 -234zM834 977q0 27 -14 43t-35 25t-45 11.5t-44 2.5q-35 0 -69 -4.5t-68 -12.5q-2 -23 -2 -47v-47v-104h16q22 0 50 1.5t57 6t57 13.5t49.5 24t34.5 36.5t13 51.5zM1108 829q0 95 -30.5 167.5t-85 122t-130.5 75t-168 25.5q-66 0 -131.5 -14t-124.5 -48q54 8 108 11
t109 3q30 0 68.5 -2t78 -9t77.5 -19.5t67.5 -33.5t47.5 -50.5t18 -71.5q0 -51 -18.5 -89.5t-49.5 -66.5t-72 -47t-86 -30q7 -15 13.5 -38.5t15 -46t21.5 -39t34 -16.5q32 0 45 19.5t13 44.5q0 45 -13 90h144q0 -51 -14.5 -93.5t-41.5 -72.5t-65 -46.5t-84 -16.5t-74.5 10
t-45.5 26t-27.5 36.5t-21 41.5t-25.5 41t-42 35l-57 -4l6 -166l-174 -4q59 -45 130.5 -65.5t144.5 -20.5q117 0 200 23t136.5 69t78.5 113.5t25 156.5zM403 926q0 49 -4.5 98t-9.5 98q-68 -57 -97.5 -134.5t-29.5 -164.5q0 -77 30.5 -145.5t90.5 -118.5q6 93 13 183.5
t7 183.5z" />
    <glyph glyph-name="copyright" unicode="&#xa9;" horiz-adv-x="1368" 
d="M1307 819q0 -85 -26.5 -155t-72.5 -126t-108 -97.5t-133 -69t-147.5 -41t-151.5 -13.5q-77 0 -152 16t-142.5 46.5t-124.5 75.5t-99 103.5t-65.5 130.5t-23.5 155q0 82 25.5 153t70.5 129.5t105.5 104t130 77t145 48t150.5 16.5q123 0 235 -37t197.5 -108t136 -174
t50.5 -234zM1108 829q0 95 -30.5 167.5t-85 122t-130.5 75t-168 25.5q-94 0 -173 -25t-136.5 -74.5t-90 -124t-32.5 -172.5q0 -86 33 -152.5t89 -111.5t129.5 -68.5t154.5 -23.5q100 0 181 25.5t138.5 72.5t89 114t31.5 150zM844 893q-6 30 -23 51t-40.5 34.5t-50.5 19.5
t-54 6q-39 0 -74 -14.5t-61.5 -39.5t-42 -58.5t-15.5 -72.5q0 -35 17.5 -65t45 -51.5t61 -33.5t65.5 -12q27 0 55 7t52 21t42 35.5t27 49.5l188 4q-18 -57 -53 -103.5t-81.5 -79t-102 -50t-115.5 -17.5q-67 0 -131.5 17.5t-115 54t-81 92t-30.5 131.5q0 70 30.5 131t81 106
t115 71t131.5 26q62 0 120.5 -16.5t106.5 -49.5t81.5 -81.5t45.5 -112.5h-194z" />
    <glyph glyph-name="trademark" unicode="&#x2122;" horiz-adv-x="1280" 
d="M1239 1116q-6 -60 -10 -121t-4 -121q0 -137 6 -278h-158q5 62 7.5 122t2.5 122v49q-40 -51 -76.5 -103t-70.5 -106l-107 2q-32 56 -66.5 109t-72.5 106v-61q0 -50 2.5 -100t5.5 -99h-153q6 108 6 215q0 124 -6 250h162l180 -246q51 66 102.5 132t104.5 132l145 -4v0z
M477 1112v-496h-174l21 506l-295 -12l-9 150q82 -10 162.5 -13.5t161.5 -3.5q99 0 196.5 4t196.5 10v-145h-260z" />
    <glyph glyph-name="acute" unicode="&#xb4;" horiz-adv-x="1622" 
d="M717 1137h-244l322 327l376 -4z" />
    <glyph glyph-name="dieresis" unicode="&#xa8;" horiz-adv-x="1622" 
d="M1182 1294q0 -30 -13.5 -54.5t-36 -42t-51.5 -27t-61 -9.5q-34 0 -65.5 10.5t-55 29.5t-37.5 45.5t-14 58.5q0 38 19.5 63t48 40t62 21.5t60.5 6.5q36 0 63 -13t45 -34t27 -46t9 -49zM782 1300q0 -29 -12 -54.5t-34 -45t-51 -30.5t-64 -11q-30 0 -62 8t-58.5 24
t-43.5 41.5t-17 59.5q0 38 18.5 65t47 44.5t62.5 26t65 8.5q77 0 113 -38t36 -98z" />
    <glyph glyph-name="notequal" unicode="&#x2260;" 
 />
    <glyph glyph-name="AE" unicode="&#xc6;" horiz-adv-x="2544" 
d="M2513 -25q-114 4 -222 7.5t-211.5 6t-204 4t-200.5 1.5q-127 0 -262 -5t-299 -16q6 55 10.5 103.5t7.5 92.5t5.5 85.5t3.5 81.5l-537 20l-248 -311l-444 4q136 150 261 292t241 279.5t225 273t213 271.5q-139 -3 -284.5 -9t-315.5 -15v342q413 -6 801 -9.5t770 -3.5
q155 0 315 2.5t344 6.5v-342q-93 7 -179 12t-167 8.5t-159 5.5t-156 2q-87 0 -172 0.5t-170 -2.5q2 -81 3 -161.5t1 -161.5q226 15 463 17.5t495 2.5l-18 -338q-218 8 -412 12.5t-383 4.5h-141q2 -62 3 -124t3 -124q102 -6 203.5 -10.5t204.5 -4.5q73 0 146.5 1.5t150 4.5
t158 7t169.5 8zM1149 1034l-324 -403l324 -13v416z" />
    <glyph glyph-name="Oslash" unicode="&#xd8;" horiz-adv-x="1647" 
d="M1606 692q0 -110 -34 -200.5t-93 -161.5t-138 -123t-168 -86.5t-184 -51t-186 -16.5q-54 0 -107 6l-43 -94l-360 8l94 179q-79 44 -143 103t-109 131.5t-69.5 156.5t-24.5 178q0 105 32.5 196t88.5 165.5t132.5 133t163.5 98t181.5 60.5t187.5 21q42 0 83 -3.5t83 -11.5
l33 70q42 -1 80 -2t78.5 -1.5t85.5 -1t100 -1.5l-86 -170q158 -97 240 -245t82 -337zM1249 723q0 84 -21 162t-71 141q-91 -177 -175.5 -356.5t-168.5 -360.5q114 1 196 22t135.5 69.5t79 127.5t25.5 195zM891 1165q-14 2 -28 2h-29q-104 0 -185 -31.5t-136.5 -90
t-84.5 -141.5t-29 -187q0 -90 30 -169t93 -136q97 189 187.5 376t181.5 377z" />
    <glyph glyph-name="infinity" unicode="&#x221e;" 
 />
    <glyph glyph-name="plusminus" unicode="&#xb1;" 
 />
    <glyph glyph-name="lessequal" unicode="&#x2264;" 
 />
    <glyph glyph-name="greaterequal" unicode="&#x2265;" 
 />
    <glyph glyph-name="yen" unicode="&#xa5;" horiz-adv-x="1520" 
d="M1581 1419q-128 -148 -248.5 -301t-232.5 -315l264 10l16 -262l-450 6v-84q108 3 216.5 6t217.5 8l16 -251l-444 4l6 -222h-379l10 226q-103 -2 -205.5 -2.5t-205.5 -3.5l14 249q102 -5 204 -8.5t204 -5.5l2 86h-90q-84 0 -166.5 -1t-165.5 -3l12 258l130 -6l130 -6
q-106 162 -214.5 319.5t-221.5 315.5l432 -19q82 -131 163.5 -261t174.5 -257q91 136 183.5 269t185.5 268l442 -17v0z" />
    <glyph glyph-name="mu" unicode="&#xb5;" 
 />
    <glyph glyph-name="partialdiff" unicode="&#x2202;" 
 />
    <glyph glyph-name="summation" unicode="&#x2211;" 
 />
    <glyph glyph-name="product" unicode="&#x220f;" 
 />
    <glyph glyph-name="pi" unicode="&#x3c0;" 
 />
    <glyph glyph-name="integral" unicode="&#x222b;" 
 />
    <glyph glyph-name="ordfeminine" unicode="&#xaa;" horiz-adv-x="1098" 
d="M766 430q-26 79 -45 137t-35 109l-278 10l-84 -168l-314 2q93 150 179 299.5t161 306.5h-24.5h-29.5t-39 -0.5t-52 -1.5l8 250q62 -3 113.5 -5t95.5 -3.5t83.5 -2.5t78.5 -1q46 0 93 1t98.5 2.5t109.5 3.5t127 5l16 -252l-215 2l250 -698zM623 870q-5 14 -11 35t-13 43
t-13 42.5t-11 33.5l-69 -150l117 -4v0z" />
    <glyph glyph-name="ordmasculine" unicode="&#xba;" horiz-adv-x="907" 
d="M846 940q0 -83 -34 -148t-88.5 -110t-124.5 -68.5t-142 -23.5t-142.5 19.5t-127 61t-91.5 105.5t-35 152q0 78 33 147t88 120.5t126.5 81.5t148.5 30q82 0 153 -24t123.5 -71t82.5 -115t30 -157zM586 938q0 74 -33 114t-98 40q-28 0 -53 -13.5t-44.5 -36.5t-31 -53
t-11.5 -63q0 -26 11.5 -51t31 -44.5t44.5 -31t51 -11.5q29 0 53.5 11.5t42 31.5t27.5 47.5t10 59.5z" />
    <glyph glyph-name="Omega" unicode="&#x2126;" 
 />
    <glyph glyph-name="ae" unicode="&#xe6;" horiz-adv-x="2544" 
d="M2513 -25q-114 4 -222 7.5t-211.5 6t-204 4t-200.5 1.5q-127 0 -262 -5t-299 -16q6 55 10.5 103.5t7.5 92.5t5.5 85.5t3.5 81.5l-537 20l-248 -311l-444 4q136 150 261 292t241 279.5t225 273t213 271.5q-139 -3 -284.5 -9t-315.5 -15v342q413 -6 801 -9.5t770 -3.5
q155 0 315 2.5t344 6.5v-342q-93 7 -179 12t-167 8.5t-159 5.5t-156 2q-87 0 -172 0.5t-170 -2.5q2 -81 3 -161.5t1 -161.5q226 15 463 17.5t495 2.5l-18 -338q-218 8 -412 12.5t-383 4.5h-141q2 -62 3 -124t3 -124q102 -6 203.5 -10.5t204.5 -4.5q73 0 146.5 1.5t150 4.5
t158 7t169.5 8zM1149 1034l-324 -403l324 -13v416z" />
    <glyph glyph-name="oslash" unicode="&#xf8;" horiz-adv-x="1391" 
d="M1350 729q0 -91 -25 -170t-70 -144.5t-106.5 -117t-134 -86.5t-153 -53.5t-163.5 -18.5q-31 0 -61 2.5t-59 5.5q-7 -14 -15.5 -31.5t-23.5 -49.5l-359 6q35 66 58.5 108t40.5 74q-53 35 -97 80.5t-75.5 102t-48.5 123.5t-17 145q0 87 25 169t69.5 153t106.5 130t135 101
t154.5 65t166.5 23q29 0 57 -2t54 -5l33 70q41 -1 79 -1.5t78 -1.5t85 -1.5t100 -1.5q-32 -62 -52 -100t-34 -66q118 -78 185 -206.5t67 -301.5zM1016 725q0 71 -15.5 131t-46.5 107q-75 -147 -143.5 -295t-134.5 -299q5 0 9 -1t9 -1q73 0 132.5 28.5t101.5 77.5t65 114
t23 138zM692 1090q-71 -1 -131 -35t-103.5 -88.5t-68 -124.5t-24.5 -142q0 -46 14.5 -90.5t40.5 -85.5q71 142 137 280t135 286z" />
    <glyph glyph-name="questiondown" unicode="&#xbf;" horiz-adv-x="1364" 
d="M-20 393q0 81 20.5 141.5t59.5 104.5t96.5 74t132.5 51q35 10 76.5 18.5t75.5 25t54.5 45t14.5 79.5l399 -6q0 -95 -25 -155t-66.5 -95.5t-95 -53t-109 -28t-108.5 -19.5t-95 -28.5t-67.5 -54.5t-25.5 -97q0 -41 16.5 -72.5t44.5 -55t64 -39.5t74.5 -26t77 -14t70.5 -4
q68 0 123 18t94 53.5t60 88.5t20 123l362 6q1 -96 -24 -171t-70 -132.5t-106.5 -97.5t-134.5 -65t-153.5 -36.5t-164.5 -11.5q-64 0 -140 10t-152.5 31.5t-148.5 55.5t-127 82.5t-88.5 111.5t-33.5 143zM520 1137q0 38 15 70.5t40.5 56.5t59.5 37.5t72 13.5q37 0 73.5 -11
t66 -32t48 -53t18.5 -74q0 -43 -20 -76t-52 -55t-71 -33.5t-78 -11.5q-81 0 -126.5 43t-45.5 125z" />
    <glyph glyph-name="exclamdown" unicode="&#xa1;" horiz-adv-x="502" 
d="M61 -45q13 158 20 314.5t7 314.5q0 213 -6 426l348 -9q-3 -170 -6.5 -336.5t-3.5 -334.5q0 -191 6 -385l-365 10v0zM66 1217q0 37 15.5 67.5t41 52t58.5 33.5t67 12q38 0 72.5 -12.5t61 -36t42.5 -56t16 -71.5q0 -42 -19.5 -72.5t-50 -50.5t-68.5 -29.5t-75 -9.5
q-35 0 -64.5 14t-51 38t-33.5 55.5t-12 65.5z" />
    <glyph glyph-name="logicalnot" unicode="&#xac;" 
 />
    <glyph glyph-name="radical" unicode="&#x221a;" 
 />
    <glyph glyph-name="florin" unicode="&#x192;" horiz-adv-x="1182" 
d="M1014 1059q-7 63 -18 105.5t-27 69t-37.5 37.5t-50.5 11q-36 0 -59.5 -31t-38 -79t-21 -106.5t-9 -114.5t-2 -102t0.5 -69q27 1 55 2t59 3t66.5 5t77.5 7l12 -322l-274 6q-3 -79 -11 -167.5t-26 -175.5t-49.5 -166t-82.5 -139t-124 -96t-174 -36q-104 0 -190.5 47
t-162.5 148l213 260q10 -62 22.5 -103.5t28.5 -66.5t36 -35t46 -10q31 0 53.5 18.5t38 48.5t25 67.5t15 75t8.5 71.5t4 57q3 52 4.5 103t3.5 103l-231 -4l6 316q74 -7 129 -11.5t104 -7.5q4 74 12 157.5t26.5 166.5t48.5 159t77.5 134t115.5 92.5t160 34.5
q121 0 213.5 -58.5t167.5 -179.5z" />
    <glyph glyph-name="approxequal" unicode="&#x2248;" 
 />
    <glyph glyph-name="Delta" unicode="&#x2206;" 
 />
    <glyph glyph-name="guillemotleft" unicode="&#xab;" horiz-adv-x="1184" 
d="M893 168l-373 539l375 499l225 -168l-254 -340l258 -372zM432 168l-371 539l375 499l226 -168l-254 -340l256 -372z" />
    <glyph glyph-name="guillemotright" unicode="&#xbb;" horiz-adv-x="1184" 
d="M748 168l-224 168l254 340l-258 371l232 159l372 -538zM289 168l-223 168l253 340l-258 371l232 159l371 -538z" />
    <glyph glyph-name="ellipsis" unicode="&#x2026;" horiz-adv-x="1417" 
d="M1356 86q0 -31 -13.5 -57.5t-37 -46t-55 -30.5t-68.5 -11q-31 0 -65.5 8t-62.5 25t-46.5 43t-18.5 61q0 38 20.5 66t51 46t67 26.5t68.5 8.5q83 0 121.5 -38.5t38.5 -100.5zM893 86q0 -31 -13.5 -57.5t-37 -46t-55 -30.5t-68.5 -11q-32 0 -66.5 8t-63 25t-47 43t-18.5 61
q0 38 20.5 66t51 46t67.5 26.5t70 8.5q83 0 121.5 -38.5t38.5 -100.5zM430 86q0 -31 -13.5 -57.5t-37.5 -46t-55.5 -30.5t-67.5 -11q-32 0 -66.5 8t-63 25t-47 43t-18.5 61q0 38 20.5 66t51 46t67.5 26.5t70 8.5q83 0 121.5 -38.5t38.5 -100.5z" />
    <glyph glyph-name="nonbreakingspace" unicode="&#xa0;" horiz-adv-x="670" 
 />
    <glyph glyph-name="Agrave" unicode="&#xc0;" horiz-adv-x="1604" 
d="M1239 -88q-40 125 -74.5 233.5t-68.5 214.5l-604 23l-152 -309l-391 4q166 270 316.5 544.5t283.5 561.5h-66.5t-70.5 -0.5t-78.5 -1t-89.5 -2.5l12 303q84 -4 162.5 -7.5t152.5 -6t144.5 -4t140.5 -1.5q167 0 339.5 6t367.5 13l20 -305l-418 4l455 -1276zM1008 645
q-35 119 -74 235t-82 234l-225 -455l381 -14v0zM783 1629l-454 323l376 4l322 -327h-244z" />
    <glyph glyph-name="Atilde" unicode="&#xc3;" horiz-adv-x="1604" 
d="M1239 -88q-40 125 -74.5 233.5t-68.5 214.5l-604 23l-152 -309l-391 4q166 270 316.5 544.5t283.5 561.5h-66.5t-70.5 -0.5t-78.5 -1t-89.5 -2.5l12 303q84 -4 162.5 -7.5t152.5 -6t144.5 -4t140.5 -1.5q167 0 339.5 6t367.5 13l20 -305l-418 4l455 -1276zM1008 645
q-35 119 -74 235t-82 234l-225 -455l381 -14v0zM1137 1647q-44 -9 -71 -12.5t-52 -3.5q-32 0 -63 6t-61.5 13.5t-61 13.5t-62.5 6q-15 0 -44 -8t-77 -35l-4 223q50 12 85 17t67 5q30 0 59 -5t57.5 -11t57.5 -11t59 -5q10 0 20.5 1t24.5 4t32.5 10t43.5 19z" />
    <glyph glyph-name="Otilde" unicode="&#xd5;" horiz-adv-x="1624" 
d="M1583 705q0 -108 -33.5 -197t-91.5 -158.5t-135 -121t-165 -85.5t-181.5 -50.5t-183.5 -16.5q-95 0 -187.5 19.5t-176 57t-154.5 93.5t-123 128.5t-81.5 162t-29.5 194.5q0 103 32 192t87.5 162.5t130.5 131t161 96.5t179 59.5t184 20.5q152 0 290.5 -46t245 -134.5
t169.5 -216t63 -291.5zM1233 733q0 97 -27 177t-79 137.5t-128.5 89.5t-175.5 32q-102 0 -181.5 -31.5t-134.5 -89t-83.5 -139t-28.5 -182.5q0 -88 29 -161t81.5 -125.5t126.5 -81.5t163 -29q114 0 197 20t136.5 67t79 124.5t25.5 191.5zM1075 1565q-44 -9 -71 -12.5
t-52 -3.5q-32 0 -63 6t-61.5 13.5t-61 13.5t-62.5 6q-15 0 -44 -8t-77 -35l-4 223q50 12 85 17t67 5q30 0 59 -5t57.5 -11t57.5 -11t59 -5q10 0 20.5 1t24.5 4t32.5 10t43.5 19z" />
    <glyph glyph-name="OE" unicode="&#x152;" horiz-adv-x="2744" 
d="M2691 -14q-114 4 -222 7t-211.5 5.5t-204.5 4t-202 1.5q-64 0 -128.5 -1t-133 -3t-142.5 -6t-155 -10q3 40 6 69t5 53q-107 -54 -227.5 -79t-237.5 -25q-98 0 -193.5 20t-182 58.5t-160 95t-127 131t-84 165.5t-30.5 198q0 105 33 195.5t90.5 165.5t135 133t167 98
t186 60.5t191.5 20.5q119 0 237.5 -29t223.5 -91v52.5v56.5t-0.5 64.5t-1.5 76.5q95 -3 183.5 -5.5t172 -3.5t163.5 -1.5t159 -0.5q78 0 156 0.5t159 1.5t166.5 3.5t177.5 5.5v-340q-185 14 -346.5 21t-316.5 7q-85 0 -170.5 0.5t-171.5 -2.5q2 -80 3 -158.5t1 -158.5
q114 7 229.5 10.5t234 5t241.5 2t253 0.5l-16 -334q-218 8 -413 12.5t-384 4.5h-70.5t-70.5 -2q2 -60 3.5 -121t4.5 -121q102 -8 204 -11t204 -3q73 0 146.5 1.5t150 4t158 5.5t169.5 7zM1294 670q0 100 -27.5 182t-81.5 140.5t-133 91t-182 32.5q-106 0 -188.5 -32
t-139.5 -90.5t-86.5 -141.5t-29.5 -186q0 -91 30.5 -166t85.5 -129t131.5 -83.5t168.5 -29.5q103 0 186.5 26.5t142.5 78.5t91 129t32 178z" />
    <glyph glyph-name="oe" unicode="&#x153;" horiz-adv-x="2744" 
d="M2691 -14q-114 4 -222 7t-211.5 5.5t-204.5 4t-202 1.5q-64 0 -128.5 -1t-133 -3t-142.5 -6t-155 -10q3 40 6 69t5 53q-107 -54 -227.5 -79t-237.5 -25q-98 0 -193.5 20t-182 58.5t-160 95t-127 131t-84 165.5t-30.5 198q0 105 33 195.5t90.5 165.5t135 133t167 98
t186 60.5t191.5 20.5q119 0 237.5 -29t223.5 -91v52.5v56.5t-0.5 64.5t-1.5 76.5q95 -3 183.5 -5.5t172 -3.5t163.5 -1.5t159 -0.5q78 0 156 0.5t159 1.5t166.5 3.5t177.5 5.5v-340q-185 14 -346.5 21t-316.5 7q-85 0 -170.5 0.5t-171.5 -2.5q2 -80 3 -158.5t1 -158.5
q114 7 229.5 10.5t234 5t241.5 2t253 0.5l-16 -334q-218 8 -413 12.5t-384 4.5h-70.5t-70.5 -2q2 -60 3.5 -121t4.5 -121q102 -8 204 -11t204 -3q73 0 146.5 1.5t150 4t158 5.5t169.5 7zM1294 670q0 100 -27.5 182t-81.5 140.5t-133 91t-182 32.5q-106 0 -188.5 -32
t-139.5 -90.5t-86.5 -141.5t-29.5 -186q0 -91 30.5 -166t85.5 -129t131.5 -83.5t168.5 -29.5q103 0 186.5 26.5t142.5 78.5t91 129t32 178z" />
    <glyph glyph-name="endash" unicode="&#x2013;" horiz-adv-x="1147" 
d="M1087 532q-173 4 -321 7.5t-291 3.5q-47 0 -94.5 -0.5t-98 -1t-106 -1.5t-117.5 -3l11 288q73 -4 139 -7t128 -5.5t120.5 -4t115.5 -1.5q117 0 236.5 5.5t263.5 14.5l14 -295v0z" />
    <glyph glyph-name="emdash" unicode="&#x2014;" horiz-adv-x="2171" 
d="M2111 532q-192 4 -376.5 6.5t-364.5 3.5t-357 1h-354h-140t-143.5 -0.5t-152 -2t-164.5 -3.5l11 288q236 -12 448.5 -15t419.5 -3h258q215 0 435 3.5t466 16.5l14 -295v0z" />
    <glyph glyph-name="quotedblleft" unicode="&#x201c;" horiz-adv-x="786" 
d="M807 1516q-19 -9 -42 -21.5t-45.5 -27.5t-41.5 -32t-31 -36q54 -14 87.5 -56.5t33.5 -99.5q0 -38 -16 -65.5t-42 -45t-59 -26t-67 -8.5q-31 0 -58.5 14t-48 36.5t-32 51.5t-11.5 60q0 74 36 123t90.5 78.5t120.5 42t126 12.5zM434 1516q-19 -9 -42 -21.5t-45.5 -27.5
t-41.5 -32t-31 -36q54 -14 87.5 -56.5t33.5 -99.5q0 -38 -16 -65.5t-42 -45t-59 -26t-67 -8.5q-31 0 -58.5 14t-48 36.5t-32 51.5t-11.5 60q0 74 36 123t90.5 78.5t120.5 42t126 12.5z" />
    <glyph glyph-name="quotedblright" unicode="&#x201d;" horiz-adv-x="776" 
d="M715 1354q0 -49 -16.5 -87t-44.5 -66.5t-65.5 -48t-79 -31.5t-84.5 -17.5t-83 -5.5q19 9 42 21t45.5 27t42.5 32t32 36q-54 14 -87.5 56.5t-33.5 99.5q0 39 16 66.5t41.5 45t58 26t66.5 8.5q32 0 59.5 -14t47.5 -36.5t31.5 -51.5t11.5 -60zM342 1354q0 -49 -16.5 -87
t-44.5 -66.5t-65.5 -48t-79 -31.5t-84.5 -17.5t-83 -5.5q19 9 42 21t45.5 27t42.5 32t32 36q-54 14 -87.5 56.5t-33.5 99.5q0 39 16 66.5t41.5 45t58.5 26t67 8.5q32 0 59.5 -14t47.5 -36.5t31 -51.5t11 -60z" />
    <glyph glyph-name="quoteleft" unicode="&#x2018;" horiz-adv-x="414" 
d="M434 1516q-19 -9 -42 -21.5t-45.5 -27.5t-41.5 -32t-31 -36q54 -14 87.5 -56.5t33.5 -99.5q0 -38 -16 -65.5t-42 -45t-59 -26t-67 -8.5q-31 0 -58.5 14t-48 36.5t-32 51.5t-11.5 60q0 74 36 123t90.5 78.5t120.5 42t126 12.5z" />
    <glyph glyph-name="quoteright" unicode="&#x2019;" horiz-adv-x="414" 
d="M352 1354q0 -49 -16.5 -87t-44.5 -66.5t-65.5 -48t-78.5 -31.5t-84 -17.5t-83 -5.5q19 9 42 21t45.5 27t42 32t31.5 36q-54 14 -87.5 56.5t-33.5 99.5q0 39 16 66.5t42 45t58.5 26t66.5 8.5q32 0 59.5 -14t47.5 -36.5t31 -51.5t11 -60z" />
    <glyph glyph-name="divide" unicode="&#xf7;" horiz-adv-x="1217" 
d="M760 1036q0 -36 -13.5 -67.5t-36.5 -54.5t-54.5 -36.5t-67.5 -13.5q-32 0 -66.5 9.5t-62.5 29.5t-46 51t-18 74q0 46 20 79t50.5 54t67 31t69.5 10q82 0 120 -45.5t38 -120.5zM1157 524q-95 2 -183.5 4.5t-172 4.5t-164 3t-160.5 1q-47 0 -95 -0.5t-99 -1t-106.5 -2
t-117.5 -3.5l11 301q73 -4 139.5 -8t129 -7t122 -5t117.5 -2q131 0 268 7t297 18l14 -310v0zM760 313q0 -35 -13.5 -66.5t-36.5 -55t-54.5 -37t-67.5 -13.5q-32 0 -66.5 9.5t-62.5 29.5t-46 51.5t-18 75.5q0 45 20 78t50.5 54.5t67 31.5t69.5 10q82 0 120 -46t38 -122z" />
    <glyph glyph-name="lozenge" unicode="&#x25ca;" 
 />
    <glyph glyph-name="ydieresis" unicode="&#xff;" horiz-adv-x="1221" 
d="M1481 1511q-69 -98 -130.5 -186.5t-118.5 -170.5t-111 -159.5t-107 -154.5q-60 -88 -120.5 -174.5t-119.5 -176.5q0 -62 1 -124.5t3.5 -128t5.5 -135.5t7 -148h-363l23 555q-68 113 -138 226t-145 230.5t-156 241t-172 256.5q61 -3 114 -4t101.5 -2.5t96.5 -4.5t100 -9
q96 -161 185.5 -310t185.5 -292l421 653l23 35l414 -17v0zM999 1663q0 -30 -13.5 -54.5t-36 -42t-51.5 -27t-61 -9.5q-34 0 -65.5 10.5t-55 29.5t-37.5 45.5t-14 58.5q0 38 19.5 63t48 40t62 21.5t60.5 6.5q36 0 63 -13t45 -34t27 -46t9 -49zM599 1669q0 -29 -12 -54.5
t-34 -45t-51 -30.5t-64 -11q-30 0 -62 8t-58.5 24t-43.5 41.5t-17 59.5q0 38 18.5 65t47 44.5t62.5 26t65 8.5q77 0 113 -38t36 -98z" />
    <glyph glyph-name="Ydieresis" unicode="&#x178;" horiz-adv-x="1303" 
d="M1565 1511q-102 -140 -196 -271t-181.5 -257t-170 -248.5t-161.5 -245.5q0 -62 1.5 -124.5t3.5 -128t5 -135.5t6 -148h-362l22 555q-67 113 -137 226t-145 230t-156 240t-172 256q68 -2 123.5 -3.5t104 -3t93 -4t91.5 -7.5q96 -161 185.5 -310t185.5 -292l444 688
l416 -17v0zM1081 1663q0 -30 -13.5 -54.5t-36 -42t-51.5 -27t-61 -9.5q-34 0 -65.5 10.5t-55 29.5t-37.5 45.5t-14 58.5q0 38 19.5 63t48 40t62 21.5t60.5 6.5q36 0 63 -13t45 -34t27 -46t9 -49zM681 1669q0 -29 -12 -54.5t-34 -45t-51 -30.5t-64 -11q-30 0 -62 8t-58.5 24
t-43.5 41.5t-17 59.5q0 38 18.5 65t47 44.5t62.5 26t65 8.5q77 0 113 -38t36 -98z" />
    <glyph glyph-name="fraction" unicode="&#x2044;" horiz-adv-x="1026" 
d="M342 39l-311 4q105 165 197 325t173.5 319.5t154 321t138.5 328.5h295z" />
    <glyph glyph-name="currency" unicode="&#xa4;" horiz-adv-x="1919" 
d="M1858 602q-48 -127 -129.5 -230.5t-188 -176.5t-232 -112.5t-261.5 -39.5q-106 0 -214.5 24t-206 72.5t-176.5 123t-126 175.5q-66 0 -131 -1.5t-132 -4.5l11 238q52 0 104 1t105 1l4 88q-56 2 -112 3.5t-112 4.5l11 240q74 -5 148 -8.5t149 -6.5q51 95 126.5 172
t167.5 131t196 83.5t212 29.5q90 0 180.5 -15t175 -45.5t158.5 -77.5t131 -111.5t92.5 -146t42.5 -182.5l-383 3q-15 71 -49.5 132t-84 105.5t-114 70t-139.5 25.5q-49 0 -97.5 -14t-93 -38t-84 -56t-71.5 -68q121 2 239 6t236 11l-75 -244q-127 -5 -253 -7.5t-253 -2.5v-35
v-25t2 -26l499 6l-77 -244l-324 6q56 -65 134 -105t165 -40q72 0 139 21t124 59t100 93t67 122l400 16v0z" />
    <glyph glyph-name="guilsinglleft" unicode="&#x2039;" horiz-adv-x="670" 
d="M403 168l-350 539l355 499l210 -168l-239 -340l244 -372z" />
    <glyph glyph-name="guilsinglright" unicode="&#x203a;" horiz-adv-x="670" 
d="M262 166l-211 170l240 338l-244 373l219 159l350 -538z" />
    <glyph glyph-name="fi" unicode="&#xfb01;" horiz-adv-x="1550" 
d="M1133 1053q-134 5 -244.5 7.5t-214.5 2.5q-79 0 -156 -1t-156 -3q-2 -31 -2 -62.5t-2 -62.5q59 -2 117 -3t115 -1q120 0 245 1.5t273 2.5v-287q-133 5 -242.5 7.5t-214.5 2.5q-72 0 -144 -3t-145 -11q3 -51 7 -102.5t8.5 -106.5t9.5 -114.5t10 -126.5l-338 -9
q6 85 10.5 162.5t7.5 150.5t4 142.5t1 138.5q0 67 -1 134.5t-2.5 138t-4 145.5t-6.5 156q73 -1 139 -1.5t128 -1t120.5 -1t115.5 -0.5q65 0 131.5 1t136 2.5t143.5 4t155 6.5zM1206 215l35 1098h324q-12 -199 -12 -400q0 -176 6 -348.5t12 -349.5h-365z" />
    <glyph glyph-name="fl" unicode="&#xfb02;" horiz-adv-x="2603" 
d="M1133 1053q-134 5 -244.5 7.5t-214.5 2.5q-79 0 -156 -1t-156 -3q-2 -31 -2 -62.5t-2 -62.5q59 -2 117 -3t115 -1q120 0 245 1.5t273 2.5v-287q-133 5 -242.5 7.5t-214.5 2.5q-72 0 -144 -3t-145 -11q3 -51 7 -102.5t8.5 -106.5t9.5 -114.5t10 -126.5l-338 -9
q6 85 10.5 162.5t7.5 150.5t4 142.5t1 138.5q0 67 -1 134.5t-2.5 138t-4 145.5t-6.5 156q73 -1 139 -1.5t128 -1t120.5 -1t115.5 -0.5q65 0 131.5 1t136 2.5t143.5 4t155 6.5zM2591 68q-88 12 -169 23t-157.5 19.5t-150 13.5t-146.5 5q-88 0 -177.5 -1t-181.5 -2.5t-189 -4
t-202 -4.5q10 122 20 237t17.5 226t12 218.5t4.5 215.5q0 45 -1 91t-3.5 95.5t-6.5 104t-10 116.5l395 -16l-108 -1020q139 11 276 21t277 10h514z" />
    <glyph glyph-name="daggerdbl" unicode="&#x2021;" horiz-adv-x="457" 
d="M711 336q-52 2 -98 3t-87 2t-78.5 1.5t-74.5 1.5q1 -37 1.5 -75t1.5 -79.5t2.5 -87t2.5 -98.5l-344 16q8 98 13.5 176t10.5 150q-29 0 -58.5 -0.5t-62.5 -1t-70.5 -1.5t-82.5 -3l6 324q88 -8 156 -12.5t131 -6.5q0 37 1 73.5t1 72.5q-65 0 -135 -2t-160 -5l6 324
q90 -6 159 -10.5t132 -7.5q2 69 4.5 144t3.5 173l332 -14q-7 -92 -13.5 -164.5t-13.5 -138.5q66 3 136.5 7.5t164.5 12.5l13 -330q-102 3 -182 5t-154 3q-2 -35 -3 -71.5t-1 -71.5q72 2 150.5 6.5t176.5 12.5l13 -328v0z" />
    <glyph glyph-name="periodcentered" unicode="&#xb7;" horiz-adv-x="434" 
d="M373 741q0 -31 -11.5 -57.5t-31 -46t-46.5 -30.5t-59 -11q-27 0 -56 8t-53 25t-39.5 43t-15.5 61q0 39 17.5 67t43.5 46t57 26.5t59 8.5q71 0 103 -39t32 -101z" />
    <glyph glyph-name="quotesinglbase" unicode="&#x201a;" horiz-adv-x="442" 
d="M381 72q0 -73 -35 -122.5t-89.5 -79.5t-119.5 -43t-125 -13q19 10 41 23t43.5 27.5t40.5 31t31 34.5q-53 16 -87 58.5t-34 99.5q0 38 16 65.5t41.5 45t59 26t67.5 8.5q32 0 59 -13.5t47.5 -36t32 -51.5t11.5 -60z" />
    <glyph glyph-name="quotedblbase" unicode="&#x201e;" horiz-adv-x="811" 
d="M750 72q0 -73 -35 -122.5t-89.5 -79.5t-119.5 -43t-125 -13q19 10 41 23t43.5 27.5t40.5 31t31 34.5q-53 16 -87 58.5t-34 99.5q0 38 16 65.5t41.5 45t59 26t67.5 8.5q32 0 59 -13.5t47.5 -36t32 -51.5t11.5 -60zM381 72q0 -73 -35 -122.5t-89.5 -79.5t-119.5 -43
t-125 -13q19 10 41 23t43.5 27.5t40.5 31t31 34.5q-53 16 -87 58.5t-34 99.5q0 38 16 65.5t41.5 45t59 26t67.5 8.5q32 0 59 -13.5t47.5 -36t32 -51.5t11.5 -60z" />
    <glyph glyph-name="perthousand" unicode="&#x2030;" horiz-adv-x="2464" 
d="M2402 354q0 -81 -33.5 -144.5t-88 -108t-124.5 -68t-143 -23.5t-143.5 19.5t-126 60t-89.5 103t-34 147.5q0 77 33 145t87.5 118.5t125.5 80t147 29.5q83 0 154 -23.5t123.5 -69t82 -112.5t29.5 -154zM1669 354q0 -81 -33 -144.5t-87.5 -108t-124 -68t-142.5 -23.5
t-143.5 19.5t-126 60t-89.5 103t-34 147.5q0 77 33 145t87.5 118.5t125.5 80t147 29.5q82 0 153 -23.5t123 -69t81.5 -112.5t29.5 -154zM670 68l-328 6q111 165 208.5 325.5t183 320.5t161.5 322t145 330h316zM842 1034q0 -80 -33 -143.5t-87.5 -108t-124 -68.5t-142.5 -24
t-144 20t-126.5 60.5t-89.5 103t-34 146.5q0 78 32.5 146t87.5 119t126 80.5t148 29.5q82 0 153 -24t123 -70t81.5 -113.5t29.5 -153.5zM2140 352q0 63 -36 99t-101 36q-30 0 -56.5 -11.5t-46 -31.5t-31 -46.5t-11.5 -55.5q0 -24 12 -45.5t32 -38.5t45.5 -27t53.5 -10
q29 0 54.5 10t44.5 28t29.5 42t10.5 51zM1409 352q0 63 -36.5 99t-102.5 36q-29 0 -55.5 -11.5t-46 -31.5t-31 -46.5t-11.5 -55.5q0 -24 12 -45.5t32 -38.5t45.5 -27t52.5 -10q30 0 56 10t44.5 28t29.5 42t11 51zM573 1032q0 62 -35 96.5t-98 34.5q-27 0 -52.5 -11.5
t-44.5 -30.5t-30.5 -44.5t-11.5 -54.5q0 -22 12 -43t31.5 -37t44.5 -25.5t51 -9.5q59 0 96 34.5t37 90.5z" />
    <glyph glyph-name="Acircumflex" unicode="&#xc2;" horiz-adv-x="1604" 
d="M1239 -88q-40 125 -74.5 233.5t-68.5 214.5l-604 23l-152 -309l-391 4q166 270 316.5 544.5t283.5 561.5h-66.5t-70.5 -0.5t-78.5 -1t-89.5 -2.5l12 303q84 -4 162.5 -7.5t152.5 -6t144.5 -4t140.5 -1.5q167 0 339.5 6t367.5 13l20 -305l-418 4l455 -1276zM1008 645
q-35 119 -74 235t-82 234l-225 -455l381 -14v0zM1073 1622l-195 105l-213 -105l-106 173q45 23 86 43t80.5 39.5t77.5 39t77 41.5l305 -166z" />
    <glyph glyph-name="Ecircumflex" unicode="&#xca;" horiz-adv-x="1452" 
d="M1401 -29q-223 8 -422 13.5t-393 5.5q-61 0 -122 -1t-125.5 -3t-134 -6.5t-147.5 -10.5q10 105 17 201.5t11 188.5t5.5 180t1.5 176v171t-0.5 175.5t-2 183.5t-3.5 195q91 -3 174.5 -5t163 -3t156 -1.5t151.5 -0.5t151 0.5t155 1.5t162 3t173 5v-324q-100 9 -193.5 14.5
t-183 9.5t-176 5.5t-172.5 1.5q-63 0 -127 -0.5t-127 -3.5l4 -334q107 7 215 10.5t219 5t226.5 2t238.5 0.5l-18 -299q-205 8 -387 12.5t-359 4.5h-133q2 -66 3.5 -130.5t5.5 -129.5q100 -8 198.5 -12.5t198.5 -4.5q141 0 288 5.5t320 15.5zM952 1581l-195 105l-213 -105
l-106 173q45 23 86 43t80.5 39.5t77.5 39t77 41.5l305 -166z" />
    <glyph glyph-name="Aacute" unicode="&#xc1;" horiz-adv-x="1604" 
d="M1239 -88q-40 125 -74.5 233.5t-68.5 214.5l-604 23l-152 -309l-391 4q166 270 316.5 544.5t283.5 561.5h-66.5t-70.5 -0.5t-78.5 -1t-89.5 -2.5l12 303q84 -4 162.5 -7.5t152.5 -6t144.5 -4t140.5 -1.5q167 0 339.5 6t367.5 13l20 -305l-418 4l455 -1276zM1008 645
q-35 119 -74 235t-82 234l-225 -455l381 -14v0zM942 1608h-244l322 327l376 -4z" />
    <glyph glyph-name="Edieresis" unicode="&#xcb;" horiz-adv-x="1452" 
d="M1401 -29q-223 8 -422 13.5t-393 5.5q-61 0 -122 -1t-125.5 -3t-134 -6.5t-147.5 -10.5q10 105 17 201.5t11 188.5t5.5 180t1.5 176v171t-0.5 175.5t-2 183.5t-3.5 195q91 -3 174.5 -5t163 -3t156 -1.5t151.5 -0.5t151 0.5t155 1.5t162 3t173 5v-324q-100 9 -193.5 14.5
t-183 9.5t-176 5.5t-172.5 1.5q-63 0 -127 -0.5t-127 -3.5l4 -334q107 7 215 10.5t219 5t226.5 2t238.5 0.5l-18 -299q-205 8 -387 12.5t-359 4.5h-133q2 -66 3.5 -130.5t5.5 -129.5q100 -8 198.5 -12.5t198.5 -4.5q141 0 288 5.5t320 15.5zM1101 1724q0 -30 -13.5 -54.5
t-36 -42t-51.5 -27t-61 -9.5q-34 0 -65.5 10.5t-55 29.5t-37.5 45.5t-14 58.5q0 38 19.5 63t48 40t62 21.5t60.5 6.5q36 0 63 -13t45 -34t27 -46t9 -49zM701 1730q0 -29 -12 -54.5t-34 -45t-51 -30.5t-64 -11q-30 0 -62 8t-58.5 24t-43.5 41.5t-17 59.5q0 38 18.5 65
t47 44.5t62.5 26t65 8.5q77 0 113 -38t36 -98z" />
    <glyph glyph-name="Egrave" unicode="&#xc8;" horiz-adv-x="1452" 
d="M1401 -29q-223 8 -422 13.5t-393 5.5q-61 0 -122 -1t-125.5 -3t-134 -6.5t-147.5 -10.5q10 105 17 201.5t11 188.5t5.5 180t1.5 176v171t-0.5 175.5t-2 183.5t-3.5 195q91 -3 174.5 -5t163 -3t156 -1.5t151.5 -0.5t151 0.5t155 1.5t162 3t173 5v-324q-100 9 -193.5 14.5
t-183 9.5t-176 5.5t-172.5 1.5q-63 0 -127 -0.5t-127 -3.5l4 -334q107 7 215 10.5t219 5t226.5 2t238.5 0.5l-18 -299q-205 8 -387 12.5t-359 4.5h-133q2 -66 3.5 -130.5t5.5 -129.5q100 -8 198.5 -12.5t198.5 -4.5q141 0 288 5.5t320 15.5zM742 1567l-454 323l376 4
l322 -327h-244z" />
    <glyph glyph-name="Iacute" unicode="&#xcd;" horiz-adv-x="457" 
d="M481 1307q-9 -85 -19.5 -169t-19 -168t-14.5 -168.5t-6 -168.5q0 -131 3.5 -261t8.5 -261l-377 12q17 166 34.5 333t17.5 335q0 133 3.5 264t8.5 264l360 -12v0zM370 1506h-244l322 327l376 -4z" />
    <glyph glyph-name="Icircumflex" unicode="&#xce;" horiz-adv-x="457" 
d="M481 1307q-9 -85 -19.5 -169t-19 -168t-14.5 -168.5t-6 -168.5q0 -131 3.5 -261t8.5 -261l-377 12q17 166 34.5 333t17.5 335q0 133 3.5 264t8.5 264l360 -12v0zM481 1499l-195 105l-213 -105l-106 173q45 23 86 43t80.5 39.5t77.5 39t77 41.5l305 -166z" />
    <glyph glyph-name="Idieresis" unicode="&#xcf;" horiz-adv-x="457" 
d="M481 1307q-9 -85 -19.5 -169t-19 -168t-14.5 -168.5t-6 -168.5q0 -131 3.5 -261t8.5 -261l-377 12q17 166 34.5 333t17.5 335q0 133 3.5 264t8.5 264l360 -12v0zM651 1601q0 -30 -13.5 -54.5t-36 -42t-51.5 -27t-61 -9.5q-34 0 -65.5 10.5t-55 29.5t-37.5 45.5t-14 58.5
q0 38 19.5 63t48 40t62 21.5t60.5 6.5q36 0 63 -13t45 -34t27 -46t9 -49zM251 1607q0 -29 -12 -54.5t-34 -45t-51 -30.5t-64 -11q-30 0 -62 8t-58.5 24t-43.5 41.5t-17 59.5q0 38 18.5 65t47 44.5t62.5 26t65 8.5q77 0 113 -38t36 -98z" />
    <glyph glyph-name="Igrave" unicode="&#xcc;" horiz-adv-x="457" 
d="M481 1307q-9 -85 -19.5 -169t-19 -168t-14.5 -168.5t-6 -168.5q0 -131 3.5 -261t8.5 -261l-377 12q17 166 34.5 333t17.5 335q0 133 3.5 264t8.5 264l360 -12v0zM169 1526l-454 323l376 4l322 -327h-244z" />
    <glyph glyph-name="Oacute" unicode="&#xd3;" horiz-adv-x="1624" 
d="M1583 705q0 -108 -33.5 -197t-91.5 -158.5t-135 -121t-165 -85.5t-181.5 -50.5t-183.5 -16.5q-95 0 -187.5 19.5t-176 57t-154.5 93.5t-123 128.5t-81.5 162t-29.5 194.5q0 103 32 192t87.5 162.5t130.5 131t161 96.5t179 59.5t184 20.5q152 0 290.5 -46t245 -134.5
t169.5 -216t63 -291.5zM1233 733q0 97 -27 177t-79 137.5t-128.5 89.5t-175.5 32q-102 0 -181.5 -31.5t-134.5 -89t-83.5 -139t-28.5 -182.5q0 -88 29 -161t81.5 -125.5t126.5 -81.5t163 -29q114 0 197 20t136.5 67t79 124.5t25.5 191.5zM799 1526h-244l322 327l376 -4z" />
    <glyph glyph-name="Ocircumflex" unicode="&#xd4;" horiz-adv-x="1624" 
d="M1583 705q0 -108 -33.5 -197t-91.5 -158.5t-135 -121t-165 -85.5t-181.5 -50.5t-183.5 -16.5q-95 0 -187.5 19.5t-176 57t-154.5 93.5t-123 128.5t-81.5 162t-29.5 194.5q0 103 32 192t87.5 162.5t130.5 131t161 96.5t179 59.5t184 20.5q152 0 290.5 -46t245 -134.5
t169.5 -216t63 -291.5zM1233 733q0 97 -27 177t-79 137.5t-128.5 89.5t-175.5 32q-102 0 -181.5 -31.5t-134.5 -89t-83.5 -139t-28.5 -182.5q0 -88 29 -161t81.5 -125.5t126.5 -81.5t163 -29q114 0 197 20t136.5 67t79 124.5t25.5 191.5zM1032 1499l-195 105l-213 -105
l-106 173q45 23 86 43t80.5 39.5t77.5 39t77 41.5l305 -166z" />
    <glyph glyph-name="apple" unicode="&#xf8ff;" 
 />
    <glyph glyph-name="Ograve" unicode="&#xd2;" horiz-adv-x="1624" 
d="M1583 705q0 -108 -33.5 -197t-91.5 -158.5t-135 -121t-165 -85.5t-181.5 -50.5t-183.5 -16.5q-95 0 -187.5 19.5t-176 57t-154.5 93.5t-123 128.5t-81.5 162t-29.5 194.5q0 103 32 192t87.5 162.5t130.5 131t161 96.5t179 59.5t184 20.5q152 0 290.5 -46t245 -134.5
t169.5 -216t63 -291.5zM1233 733q0 97 -27 177t-79 137.5t-128.5 89.5t-175.5 32q-102 0 -181.5 -31.5t-134.5 -89t-83.5 -139t-28.5 -182.5q0 -88 29 -161t81.5 -125.5t126.5 -81.5t163 -29q114 0 197 20t136.5 67t79 124.5t25.5 191.5zM905 1547l-454 323l376 4l322 -327
h-244z" />
    <glyph glyph-name="Uacute" unicode="&#xda;" horiz-adv-x="1393" 
d="M1352 969q0 -104 -11 -212.5t-38.5 -210t-75 -191.5t-120 -157t-174 -106t-237.5 -39q-125 0 -221 32.5t-166.5 90t-118 136t-76.5 169.5t-41 191.5t-12 201.5q0 121 14.5 249t49.5 272l358 -33q-46 -153 -67 -285t-21 -256q0 -94 16.5 -180.5t56.5 -152.5t106 -105
t165 -39q66 0 112.5 24.5t78.5 65.5t51 94t29 110.5t13 115.5t3 108q0 119 -13.5 244t-45.5 272l344 29q24 -125 32.5 -231.5t8.5 -206.5zM758 1485h-244l322 327l376 -4z" />
    <glyph glyph-name="Ucircumflex" unicode="&#xdb;" horiz-adv-x="1393" 
d="M1352 969q0 -104 -11 -212.5t-38.5 -210t-75 -191.5t-120 -157t-174 -106t-237.5 -39q-125 0 -221 32.5t-166.5 90t-118 136t-76.5 169.5t-41 191.5t-12 201.5q0 121 14.5 249t49.5 272l358 -33q-46 -153 -67 -285t-21 -256q0 -94 16.5 -180.5t56.5 -152.5t106 -105
t165 -39q66 0 112.5 24.5t78.5 65.5t51 94t29 110.5t13 115.5t3 108q0 119 -13.5 244t-45.5 272l344 29q24 -125 32.5 -231.5t8.5 -206.5zM911 1519l-195 105l-213 -105l-106 173q45 23 86 43t80.5 39.5t77.5 39t77 41.5l305 -166z" />
    <glyph glyph-name="Ugrave" unicode="&#xd9;" horiz-adv-x="1393" 
d="M1352 969q0 -104 -11 -212.5t-38.5 -210t-75 -191.5t-120 -157t-174 -106t-237.5 -39q-125 0 -221 32.5t-166.5 90t-118 136t-76.5 169.5t-41 191.5t-12 201.5q0 121 14.5 249t49.5 272l358 -33q-46 -153 -67 -285t-21 -256q0 -94 16.5 -180.5t56.5 -152.5t106 -105
t165 -39q66 0 112.5 24.5t78.5 65.5t51 94t29 110.5t13 115.5t3 108q0 119 -13.5 244t-45.5 272l344 29q24 -125 32.5 -231.5t8.5 -206.5zM660 1506l-454 323l376 4l322 -327h-244z" />
    <glyph glyph-name="dotlessi" unicode="&#x131;" horiz-adv-x="483" 
d="M59 215l35 1098h324q-12 -199 -12 -400q0 -176 6 -348.5t12 -349.5h-365z" />
    <glyph glyph-name="circumflex" unicode="&#x2c6;" horiz-adv-x="1622" 
d="M1012 1130l-195 105l-213 -105l-106 173q45 23 86 43t80.5 39.5t77.5 39t77 41.5l305 -166z" />
    <glyph glyph-name="tilde" unicode="&#x2dc;" horiz-adv-x="1622" 
d="M1055 1196q-44 -9 -71 -12.5t-52 -3.5q-32 0 -63 6t-61.5 13.5t-61 13.5t-62.5 6q-15 0 -44 -8t-77 -35l-4 223q50 12 85 17t67 5q30 0 59 -5t57.5 -11t57.5 -11t59 -5q10 0 20.5 1t24.5 4t32.5 10t43.5 19z" />
    <glyph glyph-name="macron" unicode="&#xaf;" horiz-adv-x="1622" 
d="M1073 1178q-49 2 -92 3t-81.5 1.5t-74.5 1t-71 0.5q-42 0 -88 -0.5t-115 -3.5l4 237q78 -6 134.5 -9t107.5 -3q58 0 121 3t149 9l6 -239v0z" />
    <glyph glyph-name="breve" unicode="&#x2d8;" horiz-adv-x="1622" 
d="M1124 1382q-15 -56 -50 -96t-80 -65.5t-94.5 -37.5t-94.5 -12q-48 0 -97.5 12.5t-92 39.5t-73.5 69t-42 101l217 32q9 -37 31.5 -50t56.5 -13q35 0 64 15t46 57l209 -52v0z" />
    <glyph glyph-name="dotaccent" unicode="&#x2d9;" horiz-adv-x="1622" 
d="M963 1300q0 -29 -11 -54.5t-30.5 -45t-45.5 -30.5t-57 -11q-26 0 -54 8t-51.5 24t-39 41.5t-15.5 59.5q0 38 16.5 65t42 44t56 25t57.5 8q67 0 99.5 -37t32.5 -97z" />
    <glyph glyph-name="ring" unicode="&#x2da;" horiz-adv-x="1622" 
d="M1112 1290q0 -56 -25.5 -98.5t-66.5 -71.5t-92 -44t-101 -15q-54 0 -110 16.5t-102 48t-75.5 78t-29.5 107.5q0 56 26 98.5t67.5 71.5t92.5 44t101 15q54 0 109.5 -16.5t101.5 -48t75 -78t29 -107.5zM928 1288q0 22 -14 38t-34 26.5t-42.5 16t-40.5 5.5q-13 0 -31 -3
t-34 -10.5t-27 -19t-11 -28.5q0 -22 15 -38.5t37 -27t46 -15.5t42 -5q13 0 29 3.5t30.5 11t24.5 19t10 27.5z" />
    <glyph glyph-name="cedilla" unicode="&#xb8;" horiz-adv-x="1622" 
d="M1200 -311q0 -47 -16.5 -84t-45 -66t-65.5 -49.5t-78 -33.5t-83 -19t-81 -6q-109 0 -212 34t-197 86l43 160q105 -34 210.5 -53.5t215.5 -19.5q13 0 30.5 1t33 6t26 15.5t10.5 28.5q0 13 -14.5 21.5t-37.5 14t-51 8t-54 4t-47 1.5h-31q-48 0 -95 -2l-94 -4l191 362
l168 -22l-49 -133q54 -6 111.5 -21t104.5 -44.5t77 -74.5t30 -110z" />
    <glyph glyph-name="hungarumlaut" unicode="&#x2dd;" horiz-adv-x="1622" 
d="M922 1137h-256l338 327l395 -4zM479 1137h-256l338 327l395 -4z" />
    <glyph glyph-name="ogonek" unicode="&#x2db;" horiz-adv-x="1622" 
d="M1180 -285q-104 -58 -202 -90.5t-198 -32.5q-64 0 -123.5 14.5t-104.5 46t-72 82.5t-27 124q0 48 10.5 99t30.5 114l184 -2q-9 -27 -14 -46t-8 -33.5t-4 -25t-1 -20.5q0 -59 28.5 -86t90.5 -27q66 0 140 26.5t161 75.5l109 -219v0z" />
    <glyph glyph-name="caron" unicode="&#x2c7;" horiz-adv-x="1622" 
d="M1124 1298q-90 -44 -166.5 -80.5t-154.5 -80.5l-305 166l112 170l195 -107l213 107l106 -175v0z" />
    <glyph glyph-name="lslash" unicode="&#x142;" horiz-adv-x="1442" 
d="M1430 68q-88 12 -170 23t-159.5 19.5t-151.5 13.5t-148 5q-89 0 -179 -1t-183 -2.5t-191 -4t-203 -4.5q8 112 15.5 205.5t13.5 181.5q-15 -11 -30.5 -21.5t-33.5 -23.5t-40 -28.5t-50 -35.5l-174 271q104 59 188 109t160 99q2 36 2 70.5v69.5q0 45 -1 91t-3 95.5
t-5.5 104t-8.5 116.5l399 -16l-31 -283q23 19 51 40t74 57l197 -265q-107 -67 -195.5 -122.5t-171.5 -108.5l-36 -338q140 11 279 21t280 10h520z" />
    <glyph glyph-name="Scaron" unicode="&#x160;" horiz-adv-x="1352" 
d="M989 954q0 77 -21 133.5t-58.5 93t-89 54.5t-113.5 18q-60 0 -121.5 -16t-111 -46.5t-81 -76t-31.5 -104.5q0 -53 26.5 -84.5t66.5 -48t85.5 -23t84.5 -10.5q62 -7 136.5 -10.5t149.5 -13.5t145 -30t124.5 -59.5t87 -102.5t32.5 -159q0 -84 -24.5 -152t-66.5 -120.5
t-99 -91t-122 -63t-134 -36.5t-137 -12q-67 0 -141.5 10.5t-147.5 34.5t-139.5 63.5t-117 97.5t-80.5 135.5t-30 178.5h345q0 -68 20.5 -121t56.5 -89.5t83.5 -55.5t101.5 -19q56 0 108 13t92.5 39t65 66.5t24.5 94.5q0 27 -21 45.5t-54.5 30.5t-74.5 18.5t-80 10t-71.5 4.5
t-50.5 2q-61 5 -127 16t-129 31t-119 51.5t-98 78.5t-67 112t-25 151q0 92 30.5 164t82.5 127t120 93.5t142.5 63t151 35.5t145.5 11q75 0 149.5 -11t143.5 -36.5t128 -66.5t103 -101t69 -140t25 -184zM1043 1749q-90 -44 -166.5 -80.5t-154.5 -80.5l-305 166l112 170
l195 -107l213 107l106 -175v0z" />
    <glyph glyph-name="scaron" unicode="&#x161;" horiz-adv-x="1475" 
d="M1083 946q1 51 -15 87.5t-42 62t-60 41t-71 23.5t-74 11t-69 3h-63t-67 -3t-64 -11t-55 -25t-38 -43.5t-14 -67.5q0 -28 14.5 -49.5t37.5 -37t52.5 -26.5t59.5 -18.5t58.5 -12t49.5 -8.5q65 -10 141.5 -20t153 -27t148 -44.5t126.5 -72t88 -110t33 -158.5
q0 -88 -28.5 -155.5t-76 -117t-110.5 -82.5t-132 -52.5t-140 -28t-135 -8.5q-87 0 -178 12t-177 40.5t-161.5 75.5t-132 116t-89.5 162t-33 214l363 -10q2 -80 26.5 -146t66 -113.5t98 -74t122.5 -26.5q27 0 62.5 1.5t72 7.5t72 16.5t63.5 28.5t45 44.5t17 63.5
q0 50 -27 83.5t-67 55.5t-86 35t-84 22q-55 12 -126 23.5t-145 28t-145 41t-126.5 62.5t-89.5 93t-34 133q0 90 33 157.5t87.5 116t125 80t145.5 50t148.5 25.5t134.5 7q57 0 131 -8.5t152 -29.5t153.5 -56t134.5 -87.5t95.5 -125t36.5 -168.5h-392zM1105 1708
q-90 -44 -166.5 -80.5t-154.5 -80.5l-305 166l112 170l195 -107l213 107l106 -175v0z" />
    <glyph glyph-name="Yacute" unicode="&#xdd;" horiz-adv-x="1303" 
d="M1565 1511q-102 -140 -196 -271t-181.5 -257t-170 -248.5t-161.5 -245.5q0 -62 1.5 -124.5t3.5 -128t5 -135.5t6 -148h-362l22 555q-67 113 -137 226t-145 230t-156 240t-172 256q68 -2 123.5 -3.5t104 -3t93 -4t91.5 -7.5q96 -161 185.5 -310t185.5 -292l444 688
l416 -17v0zM717 1526h-244l322 327l376 -4z" />
    <glyph glyph-name="yacute" unicode="&#xfd;" horiz-adv-x="1221" 
d="M1481 1511q-69 -98 -130.5 -186.5t-118.5 -170.5t-111 -159.5t-107 -154.5q-60 -88 -120.5 -174.5t-119.5 -176.5q0 -62 1 -124.5t3.5 -128t5.5 -135.5t7 -148h-363l23 555q-68 113 -138 226t-145 230.5t-156 241t-172 256.5q61 -3 114 -4t101.5 -2.5t96.5 -4.5t100 -9
q96 -161 185.5 -310t185.5 -292l421 653l23 35l414 -17v0zM657 1526h-244l322 327l376 -4z" />
    <glyph glyph-name="HT" horiz-adv-x="2048" 
 />
    <glyph glyph-name="LF" 
 />
    <glyph glyph-name="Thorn" unicode="&#xde;" horiz-adv-x="1372" 
d="M1352 918q0 -89 -40 -156t-105.5 -115.5t-149.5 -80t-171 -50t-170.5 -26t-148.5 -7.5h-86.5t-87.5 -2q1 -58 1.5 -117.5t1.5 -122t1.5 -129.5t1.5 -141l-340 4q5 123 11 239.5t11.5 228t9 220t3.5 216.5q0 100 -1 200t-2.5 203.5t-3 210.5t-3.5 221q45 5 84.5 9t79 8.5
t81 9.5t89.5 10q-2 -62 -4.5 -117.5t-4 -106.5t-2.5 -99t-1 -95q74 6 146 9.5t146 3.5q57 0 127.5 -7.5t143.5 -26.5t141.5 -50.5t122.5 -79t86.5 -112.5t32.5 -152zM1004 940q0 53 -31 80t-76 38.5t-94.5 12t-87.5 0.5q-79 0 -157.5 -8t-156.5 -25q-3 -80 -5.5 -161
t-4.5 -162q25 -2 49 -2h47q39 0 92.5 1.5t111 9t113.5 21.5t100.5 39.5t72 63.5t27.5 92z" />
    <glyph glyph-name="thorn" unicode="&#xfe;" horiz-adv-x="1370" 
d="M1350 709q0 -88 -40 -154.5t-105.5 -114t-149 -79t-170.5 -49.5t-170.5 -25.5t-149.5 -7.5q-43 0 -86.5 -0.5t-87.5 -2.5q0 -26 0.5 -52.5t1.5 -56t3 -63.5t5 -75h-342q7 132 13 257t10.5 246t7 238.5t2.5 235.5q0 72 -1 149.5t-7 177.5q48 6 90 10.5t83.5 8.5t85 8
t93.5 8q-3 -80 -6 -139t-8 -113q141 12 280 12q57 0 127 -8t142 -26.5t140.5 -49.5t121.5 -77.5t85 -110t32 -147.5zM1004 729q0 52 -31.5 78.5t-76.5 37t-94.5 11t-86.5 0.5q-81 0 -159 -8.5t-157 -22.5q-3 -80 -5.5 -158.5t-4.5 -158.5q29 -2 58.5 -3t58.5 -1q38 0 90 2
t107 9.5t109 22.5t96.5 40t69 62t26.5 89z" />
    <glyph glyph-name="eth" unicode="&#xf0;" horiz-adv-x="1473" 
d="M1452 748q0 -115 -33.5 -207t-91 -162t-136 -120t-168 -82t-186.5 -47t-192 -15q-70 0 -140 1t-143.5 3t-151 4.5t-161.5 5.5q8 143 15 264.5t10 237.5q-23 0 -47 -0.5t-51 -1t-59 -1.5t-71 -3l7 331q72 -6 126.5 -10.5t102.5 -7.5q0 31 1 61.5t1 61.5q0 81 -1.5 169
t-6.5 202q95 -3 182 -4t170 -3t162.5 -6.5t157.5 -13.5q88 -11 174.5 -35.5t164.5 -63.5t145 -93t116 -123.5t76.5 -154.5t27.5 -187zM1118 807q0 72 -23.5 125.5t-64 91t-95.5 61t-118.5 37t-131.5 18.5t-136 5h-67.5t-67.5 -2q-8 -51 -13 -101.5t-8 -103.5q24 2 49 3.5
t53 4t60.5 5.5t71.5 7l8 -337q-78 2 -135.5 4t-110.5 4q0 -68 1 -135t3 -136q38 -2 76 -2h76q125 0 230.5 21.5t181.5 73t118.5 138.5t42.5 218z" />
    <glyph glyph-name="Zcaron" unicode="&#x17d;" horiz-adv-x="1411" 
d="M1391 1358q-1 -47 -2 -87t-2.5 -77.5t-3 -74t-3.5 -75.5q-62 -36 -132.5 -82.5t-144 -99.5t-147.5 -111.5t-144.5 -117.5t-135.5 -117.5t-119 -112.5h90q78 0 156 1.5t159 5t166.5 8.5t178.5 12v-90t-0.5 -83t-1 -83t-2.5 -90q-93 6 -178.5 10t-166.5 6t-159 3t-156 1
q-138 0 -280.5 -2t-309.5 -8v320q116 64 223.5 139t209.5 157t200 169.5t195 175.5q-126 6 -250 6q-69 0 -138.5 -1.5t-142.5 -4t-150 -6.5t-161 -9l12 316q218 -7 413 -13t384 -6q63 0 126.5 1t130 3t137.5 6.5t149 10.5zM1064 1646q-90 -44 -166.5 -80.5t-154.5 -80.5
l-305 166l112 170l195 -107l213 107l106 -175v0z" />
    <glyph glyph-name="zcaron" unicode="&#x17e;" horiz-adv-x="1276" 
d="M1276 991q-224 -118 -421.5 -243.5t-383.5 -268.5l694 -18l-6 -293q-202 19 -382 33t-353 14q-39 0 -79.5 -1t-85 -4t-93.5 -8t-105 -14l5 336l729 502h-142q-130 0 -276 -3t-307 -28v361q156 -12 305 -20.5t297 -15.5t297 -12.5t303 -11.5l4 -305v0zM1043 1605
q-90 -44 -166.5 -80.5t-154.5 -80.5l-305 166l112 170l195 -107l213 107l106 -175v0z" />
    <glyph glyph-name="DLE" 
 />
    <glyph glyph-name="DC1" 
 />
    <glyph glyph-name="DC2" 
 />
    <glyph glyph-name="DC3" 
 />
    <glyph glyph-name="DC4" 
 />
    <glyph glyph-name="onehalf" unicode="&#xbd;" horiz-adv-x="1538" 
d="M1479 549q0 -71 -26.5 -112.5t-69 -65t-96.5 -34t-108.5 -19t-104.5 -20.5t-85 -38l451 8q-2 -55 -4 -111l-4 -112q-183 5 -362 4.5t-359 -2.5q0 37 -1 73.5t-1 74.5q0 81 38.5 133.5t97.5 85t129 48.5t134 23q16 3 39 6.5t44 11t35.5 21t14.5 35.5q0 24 -18.5 41t-44 28
t-53.5 16t-46 5q-40 0 -63 -11t-35 -31t-15 -48t-3 -63l-263 -7q0 94 25 161t73 110t117.5 63.5t159.5 20.5q42 0 88 -8.5t90.5 -25t85.5 -41.5t72 -57.5t49.5 -73t18.5 -89.5zM422 1331q-2 -51 -7 -102.5t-10.5 -103t-9.5 -103t-4 -102.5q0 -78 1.5 -154t6.5 -154l-286 13
q11 99 20.5 196.5t9.5 196.5q0 81 2 161.5t7 161.5l270 -10v0zM350 39l-289 4q208 308 382.5 630.5t318.5 663.5h274z" />
    <glyph glyph-name="onequarter" unicode="&#xbc;" horiz-adv-x="1556" 
d="M1495 412q-2 -57 -4 -113.5t-8 -112.5h-101v-239q-51 -2 -100 -2h-100h-45l16 243l-451 -2q39 107 54.5 211.5t15.5 218.5q0 38 -2.5 74.5t-5.5 71.5h250q0 -91 -1.5 -182.5t-11.5 -182.5l162 4q0 97 -3.5 192.5t-14.5 192.5h260q-9 -96 -11.5 -189t-4.5 -189l106 4v0z
M422 1331q-2 -51 -7 -102.5t-10.5 -103t-9.5 -103t-4 -102.5q0 -78 1.5 -154t6.5 -154l-286 11q11 99 20.5 197t9.5 198q0 80 2 161t7 162l270 -10v0zM350 37l-289 4q206 308 382 632t319 664h274z" />
    <glyph glyph-name="onesuperior" unicode="&#xb9;" horiz-adv-x="432" 
d="M371 1333q-7 -102 -20 -201.5t-13 -201.5q0 -75 2.5 -149.5t5.5 -149.5l-285 10q10 97 20.5 192.5t10.5 192.5q0 78 1.5 156.5t6.5 158.5l271 -8v0z" />
    <glyph glyph-name="threequarters" unicode="&#xbe;" horiz-adv-x="1985" 
d="M1923 412q-3 -57 -4.5 -113.5t-7.5 -112.5l-101 2l-2 -241l-243 -2l16 243q-114 0 -226 -1t-227 -1q39 109 55.5 213.5t16.5 218.5q0 36 -2.5 72.5t-5.5 73.5h250q0 -93 -2 -184.5t-10 -182.5l159 4q0 97 -3.5 193t-12.5 192h260q-9 -94 -12.5 -188t-5.5 -188l108 2v0z
M778 37l-291 4q211 308 385 631.5t318 666.5h276zM868 811q0 -55 -20.5 -97.5t-55.5 -74.5t-80.5 -54.5t-95 -36.5t-99.5 -20t-95 -6q-46 0 -93.5 4t-94 14.5t-90.5 27.5t-83 44l58 213q32 -18 66.5 -35t71.5 -30.5t75 -22t76 -8.5q21 0 53.5 3t63 12t53 26.5t22.5 46.5
q0 25 -25 39t-58 21.5t-66.5 9.5t-51.5 2q-49 0 -98 -2l-98 -4l-6 192q48 0 94 -1t94 -1q22 0 53.5 1t60.5 8.5t49.5 24.5t20.5 48q0 19 -13.5 29t-32 14.5t-38 5t-32.5 0.5q-68 0 -132.5 -24t-125.5 -52l-113 197q77 34 158 56t166 22q35 0 80.5 -3t92.5 -11.5t92.5 -23.5
t81 -39.5t57 -59t21.5 -82.5q0 -54 -19.5 -100t-61.5 -80q55 -31 86.5 -79.5t31.5 -113.5z" />
    <glyph glyph-name="threesuperior" unicode="&#xb3;" horiz-adv-x="930" 
d="M868 823q0 -55 -21 -97.5t-56 -74t-80.5 -53.5t-95.5 -35.5t-99.5 -19.5t-93.5 -6q-45 0 -93 4t-94.5 14.5t-90.5 28t-83 43.5l58 209q32 -18 66.5 -35t71.5 -30.5t75 -21.5t76 -8q20 0 52.5 3t63.5 12t53.5 26t22.5 45q0 25 -25 39t-58.5 21.5t-67 9.5t-50.5 2
q-49 0 -98 -2l-98 -4l-6 188q48 -2 94 -2h94q21 0 52.5 1t61 8.5t50 24.5t20.5 48q0 18 -13.5 28t-32 14t-38 4.5t-32.5 0.5q-69 0 -133 -24t-125 -51l-113 194q77 34 158 55t166 21q35 0 80 -3t92 -11t92.5 -23t81 -39t57.5 -58t22 -81q0 -53 -19.5 -98.5t-61.5 -77.5
q55 -31 86.5 -78.5t31.5 -110.5z" />
    <glyph glyph-name="twosuperior" unicode="&#xb2;" horiz-adv-x="899" 
d="M838 1051q0 -69 -26.5 -110t-68.5 -64t-96 -33.5t-108 -19t-104.5 -20.5t-86.5 -38l453 8q-3 -54 -5 -107.5t-5 -109.5q-181 5 -360 4.5t-359 -2.5q-2 37 -2 72.5v73.5q0 79 38.5 130.5t98 83.5t129.5 47.5t133 22.5l37.5 5t43.5 11t35.5 21.5t14.5 34.5q0 24 -18.5 40.5
t-44 27t-52.5 15.5t-45 5q-40 0 -63 -10.5t-35 -30t-15.5 -47t-2.5 -62.5l-263 -6q0 93 25.5 158.5t74 107.5t118 61t157.5 19q41 0 86.5 -8t90.5 -24t85.5 -40t71.5 -56t49.5 -72t18.5 -88z" />
    <glyph glyph-name="brokenbar" unicode="&#xa6;" horiz-adv-x="498" 
d="M436 1446q-6 -165 -9 -329.5t-5 -332.5h-336q0 336 -6 670q90 -2 178 -3.5t178 -4.5zM61 -25q11 169 16 334t7 332h340q3 -334 12 -670z" />
    <glyph glyph-name="minus" unicode="&#x2212;" horiz-adv-x="1217" 
d="M1157 532q-95 3 -183.5 5t-172 3.5t-164 2t-160.5 0.5q-47 0 -95 -0.5t-99 -1t-106.5 -1.5t-117.5 -3l11 288q73 -4 139.5 -7t129 -5.5t122 -4t117.5 -1.5q131 0 268 5.5t297 14.5l14 -295v0z" />
    <glyph glyph-name="multiply" unicode="&#xd7;" horiz-adv-x="1157" 
d="M1116 946q-78 -71 -156.5 -140t-156.5 -140q77 -66 155 -132t158 -131l-231 -227q-76 72 -152 144.5t-153 144.5q-78 -72 -154 -144.5t-152 -144.5l-233 227q80 65 158 129.5t155 133.5q-78 71 -156.5 140t-156.5 140l254 215q71 -72 141.5 -143.5t143.5 -143.5
q71 72 141 143.5t139 143.5l256 -215v0z" />
    <glyph glyph-name="RS" 
 />
    <glyph glyph-name="US" 
 />
    <glyph glyph-name="Lslash" unicode="&#x141;" horiz-adv-x="522" 
d="M1741 -379q-89 4 -154 5t-125 1q-171 0 -343 -0.5t-347.5 -1t-356 -2t-368.5 -2.5q16 152 28 283.5t19 257.5q-18 -14 -42 -31t-68 -49l-177 274q92 53 166 96t140 85q6 138 6 278q0 35 -0.5 70t-1.5 73.5t-2.5 81.5t-3.5 93h356l-6 -357q18 14 37 28t40.5 30.5t46 35
t54.5 41.5l197 -266q-56 -35 -106.5 -67t-97.5 -61.5t-91 -57.5l-88 -56l-9 -485l1309 25z" />
    <glyph glyph-name="DEL" 
 />
    <glyph glyph-name="Euro" unicode="&#x20ac;" horiz-adv-x="1919" 
d="M1858 602q-48 -127 -129.5 -230.5t-188 -176.5t-232 -112.5t-261.5 -39.5q-106 0 -214.5 24t-206 72.5t-176.5 123t-126 175.5q-66 0 -131 -1.5t-132 -4.5l11 238q52 0 104 1t105 1l4 88q-56 2 -112 3.5t-112 4.5l11 240q74 -5 148 -8.5t149 -6.5q51 95 126.5 172
t167.5 131t196 83.5t212 29.5q90 0 180.5 -15t175 -45.5t158.5 -77.5t131 -111.5t92.5 -146t42.5 -182.5l-383 3q-15 71 -49.5 132t-84 105.5t-114 70t-139.5 25.5q-49 0 -97.5 -14t-93 -38t-84 -56t-71.5 -68q121 2 239 6t236 11l-75 -244q-127 -5 -253 -7.5t-253 -2.5v-35
v-25t2 -26l499 6l-77 -244l-324 6q56 -65 134 -105t165 -40q72 0 139 21t124 59t100 93t67 122l400 16v0z" />
    <glyph glyph-name="Eth" unicode="&#xd0;" horiz-adv-x="1473" 
d="M1452 782q0 -115 -30 -213.5t-84 -178.5t-128.5 -142t-164 -104t-191 -63.5t-209.5 -21.5q-138 0 -283 3.5t-315 11.5q16 141 25.5 261.5t13.5 235.5q-25 -1 -50 -1.5t-53.5 -1t-62 -2t-74.5 -3.5l7 332q75 -6 132.5 -10.5t108.5 -7.5v6q0 112 -4 230.5t-16 262.5
q79 -2 180 -2.5t212.5 -5t228 -16t226 -36.5t206 -66t169 -105t114.5 -153t42 -210zM1106 756q0 68 -21 119.5t-58.5 89t-88 62.5t-109.5 40t-124 21t-130 6q-40 0 -79.5 -1.5t-79.5 -5.5l-6 -104t-7 -104q45 3 96 7t128 11l8 -338q-75 3 -133 4.5t-109 3.5v-118t2 -117
q47 -10 92.5 -13.5t92.5 -3.5q114 0 210.5 25t166.5 78.5t109.5 137t39.5 200.5z" />
    </font>
</defs>
</svg>
