<?xml version="1.0" standalone="no"?>
<!DOCTYPE svg PUBLIC "-//W3C//DTD SVG 1.1//EN" "http://www.w3.org/Graphics/SVG/1.1/DTD/svg11.dtd">
<svg xmlns="http://www.w3.org/2000/svg">
<defs >
<font id="Questrial" horiz-adv-x="544" ><font-face
    font-family="Questrial"
    units-per-em="1000"
    panose-1="0 0 0 0 0 0 0 0 0 0"
    ascent="820"
    descent="-210"
    alphabetic="0" />
<glyph unicode=" " glyph-name="space" horiz-adv-x="213" />
<glyph unicode="!" glyph-name="exclam" horiz-adv-x="221" d="M83 183L64 662H157L138 183H83ZM62 0V102H159V0H62Z" />
<glyph unicode="&quot;" glyph-name="quotedbl" horiz-adv-x="317" d="M66 443L47 662H136L117 443H66ZM200 443L181 662H270L251 443H200Z" />
<glyph unicode="#" glyph-name="numbersign" horiz-adv-x="581" d="M128 25L148 168H45V233H157L177 377H75V442H186L207 585H272L251 442H367L388 585H453L432 442H536V377H423L403 233H506V168H394L374 25H309L329 168H213L193 25H128ZM222 233H338L358 377H242L222
233Z" />
<glyph unicode="$" glyph-name="dollar" horiz-adv-x="615" d="M279 746H345V668Q418 661 465 634T536 566T563 481H486Q481 524 447 556T345 597V366Q389 356 430 342T506 308T560 258T580 183Q580 96 518 47T345 -7V-87H279V-7Q195 -1 142 26T63 98T32 198H110Q113
135 161 104T279 65V309Q236 320 196 333T123 366T71 415T52 487Q52 564 108 614T279 670V746ZM125 488Q125 458 146 439T202 406T279 382V599Q214 596 181 577T137 534T125 488ZM505 180Q505 212 483 233T425 268T345 293V64Q419 67 462 96T505 180Z" />
<glyph unicode="%" glyph-name="percent" horiz-adv-x="845" d="M161 -12L620 670H683L224 -12H161ZM192 288Q122 288 82 336T42 477Q42 570 82 618T192 667Q246 666 279 639T327 569T342 477Q342 385 302 337T192 288ZM192 345Q226 346 245 366T272 416T280 477Q280
543 257 576T192 609Q150 609 127 576T103 477Q103 411 126 378T192 345ZM653 -8Q583 -8 543 40T503 181Q503 274 543 322T653 371Q707 370 740 343T788 273T803 181Q803 89 763 41T653 -8ZM653 49Q687 50 706 70T733 120T741 181Q741 247 718 280T653 313Q611
313 588 280T564 181Q564 115 587 82T653 49Z" />
<glyph unicode="&amp;" glyph-name="ampersand" horiz-adv-x="580" d="M269 -8Q207 -8 154 17T69 86T37 190Q37 243 69 285T159 350Q137 357 114 377T75 427T59 489Q59 566 115 618T279 670Q347 670 391 650T458 598T489 532H410Q403 556 370 579T277 602Q203
602 169 569T134 488Q134 432 173 405T264 378H425V422H495V378H560V311H495V184Q495 99 435 46T269 -8ZM269 59Q348 59 386 95T425 178V311H255Q213 311 181 294T130 250T112 188Q112 154 131 125T186 77T269 59Z" />
<glyph unicode="&apos;" glyph-name="quotesingle" horiz-adv-x="183" d="M66 443L47 662H136L117 443H66Z" />
<glyph unicode="(" glyph-name="parenleft" horiz-adv-x="245" d="M163 -138Q100 -40 68 64T35 281Q35 392 67 497T163 700H231Q174 609 143 503T111 281Q111 166 142 60T231 -138H163Z" />
<glyph unicode=")" glyph-name="parenright" horiz-adv-x="245" d="M14 -138Q71 -47 102 59T134 281Q134 396 103 502T14 700H82Q145 603 177 498T210 281Q210 169 178 65T82 -138H14Z" />
<glyph unicode="*" glyph-name="asterisk" horiz-adv-x="373" d="M132 397L81 434L155 515L48 538L67 598L167 553L155 662H218L206 553L306 598L325 538L218 516L292 434L241 397L187 492L132 397Z" />
<glyph unicode="+" glyph-name="plus" horiz-adv-x="550" d="M242 0V203H50V268H242V471H307V268H500V203H307V0H242Z" />
<glyph unicode="," glyph-name="comma" horiz-adv-x="220" d="M11 -111L69 102H167L79 -111H11Z" />
<glyph unicode="-" glyph-name="hyphen" horiz-adv-x="360" d="M55 259V332H305V259H55Z" />
<glyph unicode="." glyph-name="period" horiz-adv-x="203" d="M53 0V102H150V0H53Z" />
<glyph unicode="/" glyph-name="slash" horiz-adv-x="371" d="M36 -32L265 680H335L106 -32H36Z" />
<glyph unicode="0" glyph-name="zero" horiz-adv-x="550" d="M275 -8Q158 -8 101 78T43 331Q43 497 100 583T275 670Q343 669 388 641T459 564T496 456T507 331Q507 165 450 79T275 -8ZM275 65Q326 66 357 90T404 153T426 238T432 331Q432 464 395 530T275 597Q193
597 156 531T118 331Q118 198 155 132T275 65Z" />
<glyph unicode="1" glyph-name="one" horiz-adv-x="550" d="M275 0V590H135V662H350V0H275Z" />
<glyph unicode="2" glyph-name="two" horiz-adv-x="550" d="M52 0V41Q52 90 79 130T148 206T238 273T328 337T397 401T424 473Q424 531 386 564T275 597Q209 597 168 568T118 482H43Q49 539 80 581T162 647T273 670Q345 670 395 644T472 574T499 475Q499 429 474
389T409 314T325 248T239 188T171 130T141 72H497V0H52Z" />
<glyph unicode="3" glyph-name="three" horiz-adv-x="550" d="M277 -8Q215 -8 164 16T79 82T41 175H117Q122 144 145 119T202 80T277 65Q348 65 387 101T427 188Q427 222 409 250T358 296T284 314H208V383H275Q310 383 339 396T387 434T405 491Q405 538 372 567T273
597Q212 597 176 569T132 503H59Q64 544 89 582T161 645T271 670Q369 670 424 621T480 494Q480 461 465 432T426 381T380 353Q438 331 470 287T502 190Q502 131 472 87T391 17T277 -8Z" />
<glyph unicode="4" glyph-name="four" horiz-adv-x="550" d="M347 0V169H31V242L309 662H422V236H511V169H422V0H347ZM101 236H347V598L101 236Z" />
<glyph unicode="5" glyph-name="five" horiz-adv-x="550" d="M280 -8Q216 -8 173 9T103 54T62 111T42 166H119Q127 142 145 119T195 80T277 65Q322 65 355 84T408 137T427 212Q427 278 386 318T279 359Q235 359 200 343T148 306L79 348L124 662H469V590H192L162
398Q185 412 217 420T279 429Q346 429 396 401T474 325T502 212Q502 151 473 101T393 22T280 -8Z" />
<glyph unicode="6" glyph-name="six" horiz-adv-x="550" d="M288 -8Q167 -8 105 80T43 331Q43 488 106 579T294 670Q358 670 399 646T465 585T497 508H413Q406 530 393 550T356 583T294 597Q233 597 194 561T137 464T118 328Q142 369 189 395T291 422Q354 422
405 395T486 319T516 207Q516 145 485 97T403 20T288 -8ZM288 65Q330 65 365 83T420 133T441 207Q441 248 421 280T365 332T288 351Q246 351 212 334T156 285T135 212Q135 168 155 135T210 84T288 65Z" />
<glyph unicode="7" glyph-name="seven" horiz-adv-x="550" d="M143 0L429 590H47V662H506V577L230 0H143Z" />
<glyph unicode="8" glyph-name="eight" horiz-adv-x="550" d="M275 -8Q162 -8 100 47T38 190Q38 247 72 294T165 364Q143 372 120 389T80 435T64 503Q64 577 118 623T275 670Q377 670 431 624T486 503Q486 464 470 436T431 390T385 364Q444 342 478 295T512 190Q512
102 450 47T275 -8ZM275 396Q306 396 337 406T390 440T411 499Q411 546 373 572T275 598Q215 598 177 572T139 499Q139 463 160 440T212 407T275 396ZM275 64Q349 64 393 98T437 191Q437 234 415 264T357 311T275 327Q231 327 194 311T135 265T113 191Q113 133
157 99T275 64Z" />
<glyph unicode="9" glyph-name="nine" horiz-adv-x="550" d="M256 -8Q193 -8 151 16T86 77T53 154H137Q144 133 157 113T195 79T256 65Q318 65 356 101T413 198T432 334Q408 293 362 267T259 240Q197 240 146 267T64 343T34 455Q34 517 65 565T148 642T262 670Q383
670 445 582T507 331Q507 174 444 83T256 -8ZM262 311Q304 311 339 328T394 377T415 450Q415 494 395 527T340 578T262 597Q220 597 186 579T130 529T109 455Q109 414 130 382T185 330T262 311Z" />
<glyph unicode=":" glyph-name="colon" horiz-adv-x="203" d="M53 398V500H150V398H53ZM53 0V102H150V0H53Z" />
<glyph unicode=";" glyph-name="semicolon" horiz-adv-x="245" d="M80 398V500H177V398H80ZM25 -133L83 80H181L93 -133H25Z" />
<glyph unicode="&lt;" glyph-name="less" horiz-adv-x="550" d="M507 8L26 220V283L507 496V418L102 252L507 86V8Z" />
<glyph unicode="=" glyph-name="equal" horiz-adv-x="550" d="M57 301V368H493V301H57ZM57 103V170H493V103H57Z" />
<glyph unicode="&gt;" glyph-name="greater" horiz-adv-x="550" d="M42 8V86L447 252L42 418V496L523 283V220L42 8Z" />
<glyph unicode="?" glyph-name="question" horiz-adv-x="510" d="M227 183Q227 232 244 266T286 326T335 375T377 425T394 489Q394 514 383 540T343 583T266 601Q217 601 184 582T132 532T110 466H39Q42 521 69 567T145 642T260 670Q332 670 377 644T444 576T465
489Q465 442 449 411T408 355T358 307T317 255T300 183H227ZM215 0V102H312V0H215Z" />
<glyph unicode="@" glyph-name="at" horiz-adv-x="852" d="M392 -100Q317 -100 255 -73T146 0T75 108T50 239Q50 321 83 396T175 529T308 622T468 656Q536 656 597 631T707 559T782 452T810 318Q810 233 783 179T714 99T624 73Q590 73 571 83T544 108T533 132T531
143Q505 111 470 92T386 73Q301 73 259 121T216 239Q216 312 246 366T328 451T443 482Q493 482 525 463T574 412L584 476H644L597 184Q597 184 597 181T596 171Q596 162 599 150T614 128T649 118Q705 118 739 165T773 314Q773 379 750 434T684 531T587 596T468
619Q393 619 325 589T203 506T118 385T87 239Q87 175 110 120T176 24T273 -40T392 -63Q461 -63 513 -45T612 11L634 -19Q582 -61 519 -80T392 -100ZM402 127Q451 127 486 152T539 219T558 308Q558 358 529 393T443 429Q370 429 323 379T276 245Q276 194 307 161T402
127Z" />
<glyph unicode="A" glyph-name="A" horiz-adv-x="662" d="M3 0L284 662H378L659 0H576L495 192H167L86 0H3ZM196 261H466L331 584L196 261Z" />
<glyph unicode="B" glyph-name="B" horiz-adv-x="662" d="M81 0V662H378Q456 662 501 635T567 568T587 487Q587 423 560 389T498 338Q526 329 554 310T602 257T621 174Q621 100 565 50T395 0H81ZM156 366H378Q413 366 443 378T493 415T512 481Q512 509 500 534T460
575T386 591H156V366ZM156 71H403Q471 71 508 99T546 180Q546 227 510 262T395 298H156V71Z" />
<glyph unicode="C" glyph-name="C" horiz-adv-x="690" d="M359 -8Q260 -8 188 37T78 160T39 331Q39 425 77 502T188 624T359 670Q434 670 494 644T596 571T659 464H580Q555 525 501 561T365 597Q285 597 229 562T143 466T114 331Q114 257 143 197T228 101T365
65Q447 65 501 101T580 198H659Q638 138 596 92T494 19T359 -8Z" />
<glyph unicode="D" glyph-name="D" horiz-adv-x="703" d="M81 0V662H360Q419 662 473 640T571 574T639 470T664 331Q664 253 639 192T571 88T474 23T360 0H81ZM156 71H357Q428 71 480 107T560 202T589 331Q589 402 561 461T480 555T357 591H156V71Z" />
<glyph unicode="E" glyph-name="E" horiz-adv-x="608" d="M81 0V662H568V590H156V368H524V295H156V72H568V0H81Z" />
<glyph unicode="F" glyph-name="F" horiz-adv-x="583" d="M81 0V662H559V590H156V360H515V287H156V0H81Z" />
<glyph unicode="G" glyph-name="G" horiz-adv-x="723" d="M363 -8Q262 -8 190 37T78 160T39 331Q39 425 79 502T192 624T365 670Q472 670 550 618T666 482H584Q554 535 501 566T371 597Q291 597 233 562T145 466T114 331Q114 257 144 197T231 101T369 65Q429 65
482 91T569 166T603 284H361V352H672V0H603V117Q582 85 549 57T470 10T363 -8Z" />
<glyph unicode="H" glyph-name="H" horiz-adv-x="697" d="M81 0V662H156V368H541V662H616V0H541V295H156V0H81Z" />
<glyph unicode="I" glyph-name="I" horiz-adv-x="237" d="M81 0V662H156V0H81Z" />
<glyph unicode="J" glyph-name="J" horiz-adv-x="527" d="M236 -8Q165 -8 118 19T45 89T15 177H93Q97 151 114 125T162 82T240 65Q285 65 312 79T353 118T372 169T377 222V662H452V219Q452 161 432 109T364 25T236 -8Z" />
<glyph unicode="K" glyph-name="K" horiz-adv-x="641" d="M81 0V662H156V317L524 662H630L348 396L646 0H552L293 345L156 217V0H81Z" />
<glyph unicode="L" glyph-name="L" horiz-adv-x="533" d="M81 0V662H156V72H517V0H81Z" />
<glyph unicode="M" glyph-name="M" horiz-adv-x="806" d="M81 0V662H168L405 348L638 662H725V0H650V548L405 233L156 548V0H81Z" />
<glyph unicode="N" glyph-name="N" horiz-adv-x="733" d="M81 0V662H168L577 105V662H652V0H565L156 559V0H81Z" />
<glyph unicode="O" glyph-name="O" horiz-adv-x="750" d="M375 -8Q300 -8 238 18T132 91T63 199T39 331Q39 402 63 463T131 571T238 644T375 670Q450 670 512 644T618 571T687 463T711 331Q711 261 687 200T619 91T512 18T375 -8ZM375 65Q456 65 514 100T604 196T636
331Q636 406 605 466T515 561T375 597Q295 597 236 562T146 466T114 331Q114 257 145 197T236 101T375 65Z" />
<glyph unicode="P" glyph-name="P" horiz-adv-x="628" d="M81 0V662H379Q485 662 546 605T607 449Q607 351 546 294T379 236H156V0H81ZM156 306H374Q452 306 492 344T532 449Q532 515 492 553T374 591H156V306Z" />
<glyph unicode="Q" glyph-name="Q" horiz-adv-x="750" d="M596 -157Q547 -157 501 -138T419 -85T361 -7Q265 -4 193 42T80 163T39 331Q39 402 63 463T131 571T238 644T375 670Q450 670 512 644T618 571T687 463T711 331Q711 247 677 177T581 59T437 -2Q447 -20
467 -41T519 -78T597 -93Q633 -93 662 -81T718 -48L758 -102Q723 -130 684 -143T596 -157ZM375 65Q456 65 514 100T604 196T636 331Q636 406 605 466T515 561T375 597Q295 597 236 562T146 466T114 331Q114 257 145 197T236 101T375 65Z" />
<glyph unicode="R" glyph-name="R" horiz-adv-x="669" d="M81 0V662H398Q500 662 560 606T621 455Q621 391 597 353T535 296T461 267L635 0H546L386 254H156V0H81ZM156 325H385Q421 325 458 336T520 375T546 455Q546 518 503 554T389 591H156V325Z" />
<glyph unicode="S" glyph-name="S" horiz-adv-x="615" d="M318 -8Q220 -8 159 18T68 92T32 198H110Q113 150 142 121T218 77T323 63Q407 63 456 92T505 180Q505 215 481 236T416 272T327 297T231 322T142 355T77 406T52 487Q52 568 114 619T301 670Q389 670 446
644T531 574T563 481H486Q480 531 436 565T301 600Q245 600 210 589T157 561T132 524T125 488Q125 455 149 435T214 401T304 376T401 352T490 318T555 265T580 183Q580 91 510 42T318 -8Z" />
<glyph unicode="T" glyph-name="T" horiz-adv-x="565" d="M245 0V591H14V662H551V591H320V0H245Z" />
<glyph unicode="U" glyph-name="U" horiz-adv-x="709" d="M354 -8Q272 -8 209 28T109 131T73 285V662H148V283Q148 206 177 158T254 88T354 65Q407 65 454 87T531 158T561 283V662H636V285Q636 198 600 132T501 29T354 -8Z" />
<glyph unicode="V" glyph-name="V" horiz-adv-x="628" d="M271 0L3 662H85L314 85L543 662H625L357 0H271Z" />
<glyph unicode="W" glyph-name="W" horiz-adv-x="958" d="M215 0L9 662H88L258 106L436 662H522L700 106L870 662H949L743 0H658L479 556L300 0H215Z" />
<glyph unicode="X" glyph-name="X" horiz-adv-x="613" d="M-3 0L261 342L15 662H110L306 402L503 662H598L352 342L616 0H521L306 284L92 0H-3Z" />
<glyph unicode="Y" glyph-name="Y" horiz-adv-x="636" d="M281 0V262L3 662H94L318 340L542 662H633L356 262V0H281Z" />
<glyph unicode="Z" glyph-name="Z" horiz-adv-x="584" d="M29 0V71L461 592H35V662H553V590L121 70H553V0H29Z" />
<glyph unicode="[" glyph-name="bracketleft" horiz-adv-x="280" d="M66 -133V679H253V617H132V-71H253V-133H66Z" />
<glyph unicode="\" glyph-name="backslash" horiz-adv-x="371" d="M265 -32L36 680H106L335 -32H265Z" />
<glyph unicode="]" glyph-name="bracketright" horiz-adv-x="280" d="M27 -133V-71H148V617H27V679H214V-133H27Z" />
<glyph unicode="^" glyph-name="asciicircum" horiz-adv-x="509" d="M75 355L224 668H285L434 355H364L255 570L145 355H75Z" />
<glyph unicode="_" glyph-name="underscore" horiz-adv-x="600" d="M50 -128V-73H550V-128H50Z" />
<glyph unicode="`" glyph-name="grave" horiz-adv-x="340" d="M200 570L93 675H200L261 570H200Z" />
<glyph unicode="a" glyph-name="a" horiz-adv-x="595" d="M276 -8Q203 -8 149 26T64 120T34 250Q34 322 64 380T148 473T276 508Q338 508 382 484T455 419V500H530V0H455V80Q427 40 383 16T276 -8ZM286 60Q342 60 380 86T439 155T459 250Q459 302 439 345T381
414T286 440Q231 440 191 414T130 345T109 250Q109 199 130 156T191 86T286 60Z" />
<glyph unicode="b" glyph-name="b" horiz-adv-x="595" d="M319 -8Q257 -8 213 16T140 80V0H65V700H140V419Q168 460 212 484T319 508Q392 508 446 474T531 381T561 250Q561 179 531 120T447 27T319 -8ZM309 60Q365 60 404 86T465 155T486 250Q486 302 465 345T405
414T309 440Q254 440 215 414T156 345T136 250Q136 199 156 156T215 86T309 60Z" />
<glyph unicode="c" glyph-name="c" d="M280 -8Q205 -8 150 26T65 120T34 250Q34 322 64 380T150 473T280 508Q369 508 431 462T516 343H435Q418 386 381 413T290 440Q235 440 194 414T131 345T109 250Q109 199 131 156T194 86T290 60Q343 60 380 87T435 157H516Q494
84 432 38T280 -8Z" />
<glyph unicode="d" glyph-name="d" horiz-adv-x="595" d="M276 -8Q203 -8 149 26T64 120T34 250Q34 322 64 380T148 473T276 508Q338 508 382 484T455 419V700H530V0H455V80Q427 40 383 16T276 -8ZM286 60Q342 60 380 86T439 155T459 250Q459 302 439 345T381
414T286 440Q231 440 191 414T130 345T109 250Q109 199 130 156T191 86T286 60Z" />
<glyph unicode="e" glyph-name="e" horiz-adv-x="557" d="M287 -8Q211 -8 154 26T66 120T34 250Q34 322 64 380T150 473T282 508Q359 508 414 474T500 381T530 250V220H111Q117 176 139 140T200 82T288 60Q341 60 377 83T433 144H515Q489 77 433 35T287 -8ZM112
290H452Q442 354 398 397T282 440Q210 440 167 397T112 290Z" />
<glyph unicode="f" glyph-name="f" horiz-adv-x="307" d="M99 0V434H13V500H99V544Q99 626 148 667T284 708H290V637H280Q228 637 201 614T174 538V500H290V434H174V0H99Z" />
<glyph unicode="g" glyph-name="g" horiz-adv-x="595" d="M294 -206Q200 -206 141 -166T61 -60H144Q159 -97 196 -117T290 -138Q376 -138 415 -98T455 20V89Q427 49 383 25T276 0Q203 0 149 33T64 125T34 254Q34 326 64 383T148 474T276 508Q338 508 382 485T455
420V500H530V15Q530 -92 469 -149T294 -206ZM286 68Q341 68 379 93T438 160T459 254Q459 306 439 348T380 415T286 440Q231 440 191 415T130 348T109 254Q109 203 130 161T191 93T286 68Z" />
<glyph unicode="h" glyph-name="h" horiz-adv-x="566" d="M65 0V700H140V422Q167 458 206 483T306 508Q358 508 403 484T477 411T506 291V0H431V289Q431 357 392 398T291 440Q249 440 215 421T161 368T140 288V0H65Z" />
<glyph unicode="i" glyph-name="i" horiz-adv-x="205" d="M62 584V682H143V584H62ZM65 0V500H140V0H65Z" />
<glyph unicode="j" glyph-name="j" horiz-adv-x="205" d="M62 584V682H143V584H62ZM65 -198V500H140V-198H65Z" />
<glyph unicode="k" glyph-name="k" horiz-adv-x="502" d="M65 0V700H140V252L381 500H486L285 303L501 0H409L234 251L140 158V0H65Z" />
<glyph unicode="l" glyph-name="l" horiz-adv-x="205" d="M65 0V700H140V0H65Z" />
<glyph unicode="m" glyph-name="m" horiz-adv-x="868" d="M65 0V500H140V424Q157 454 194 481T292 508Q342 508 384 482T451 407Q461 424 482 448T539 490T623 508Q671 508 713 483T781 412T808 302V0H733V300Q733 363 698 401T609 440Q554 440 514 403T474 299V0H399V300Q399
363 364 401T275 440Q220 440 180 403T140 299V0H65Z" />
<glyph unicode="n" glyph-name="n" horiz-adv-x="566" d="M65 0V500H140V422Q167 458 206 483T306 508Q358 508 403 484T477 411T506 291V0H431V289Q431 357 392 398T291 440Q249 440 215 421T161 368T140 288V0H65Z" />
<glyph unicode="o" glyph-name="o" horiz-adv-x="564" d="M282 -8Q206 -8 150 26T64 120T34 250Q34 322 64 380T150 473T282 508Q359 508 414 474T500 381T530 250Q530 179 500 120T415 27T282 -8ZM282 60Q338 60 376 86T435 155T455 250Q455 302 435 345T377
414T282 440Q227 440 188 414T129 345T109 250Q109 199 129 156T188 86T282 60Z" />
<glyph unicode="p" glyph-name="p" horiz-adv-x="595" d="M65 -198V500H140V420Q168 461 212 484T319 508Q392 508 446 474T531 381T561 250Q561 179 531 120T447 27T319 -8Q257 -8 213 16T140 81V-198H65ZM309 60Q365 60 404 86T465 155T486 250Q486 302 465
345T405 414T309 440Q254 440 215 414T156 345T136 250Q136 199 156 156T215 86T309 60Z" />
<glyph unicode="q" glyph-name="q" horiz-adv-x="595" d="M455 -198V81Q427 41 383 17T276 -8Q203 -8 149 26T64 120T34 250Q34 322 64 380T148 473T276 508Q338 508 382 485T455 420V500H530V-198H455ZM286 60Q342 60 380 86T439 155T459 250Q459 302 439 345T381
414T286 440Q231 440 191 414T130 345T109 250Q109 199 130 156T191 86T286 60Z" />
<glyph unicode="r" glyph-name="r" horiz-adv-x="345" d="M65 0V500H140V377Q144 390 155 411T189 455T244 492T324 508H329V433H320Q264 433 224 403T162 324T140 220V0H65Z" />
<glyph unicode="s" glyph-name="s" horiz-adv-x="482" d="M247 -8Q178 -8 131 15T58 75T30 157H108Q111 132 125 109T170 71T248 56Q263 56 285 59T327 70T362 94T376 135Q376 166 352 183T290 209T210 228T129 251T67 292T43 365Q43 433 92 470T239 508Q305 508
346 488T409 435T435 366H359Q355 398 328 421T237 444Q118 444 118 372Q118 342 142 326T204 301T284 283T365 259T427 217T451 142Q451 69 396 31T247 -8Z" />
<glyph unicode="t" glyph-name="t" horiz-adv-x="326" d="M119 0V434H17V500H119V679H194V500H309V434H194V0H119Z" />
<glyph unicode="u" glyph-name="u" horiz-adv-x="566" d="M260 -8Q209 -8 163 16T89 89T60 209V500H135V211Q135 143 174 102T275 60Q317 60 351 79T405 133T426 212V500H501V0H426V78Q399 42 360 17T260 -8Z" />
<glyph unicode="v" glyph-name="v" horiz-adv-x="489" d="M201 0L5 500H87L245 80L402 500H484L289 0H201Z" />
<glyph unicode="w" glyph-name="w" horiz-adv-x="746" d="M162 0L5 500H85L205 93L332 500H414L541 93L661 500H741L584 0H498L373 399L248 0H162Z" />
<glyph unicode="x" glyph-name="x" horiz-adv-x="482" d="M4 0L197 258L16 500H112L241 311L369 500H465L284 258L478 0H382L241 204L99 0H4Z" />
<glyph unicode="y" glyph-name="y" horiz-adv-x="497" d="M117 -198L208 7L4 500H87L248 90L412 500H494L198 -198H117Z" />
<glyph unicode="z" glyph-name="z" horiz-adv-x="458" d="M31 0V71L330 431H35V500H425V430L125 70H425V0H31Z" />
<glyph unicode="{" glyph-name="braceleft" horiz-adv-x="294" d="M269 -133Q233 -133 203 -129T149 -112T113 -69T100 11V155Q100 188 87 209T55 240T21 250V296Q37 296 55 306T86 337T100 391V535Q100 586 113 615T149 657T202 675T269 679V625Q209 624 188
606T166 534V402Q166 346 145 317T96 273Q124 260 145 230T166 144V12Q166 -40 187 -59T269 -79V-133Z" />
<glyph unicode="|" glyph-name="bar" horiz-adv-x="191" d="M65 -179V748H126V-179H65Z" />
<glyph unicode="}" glyph-name="braceright" horiz-adv-x="294" d="M25 -133V-79Q85 -78 106 -59T128 12V144Q128 200 149 230T198 273Q170 287 149 316T128 402V534Q128 587 107 605T25 625V679Q61 679 91 675T145 658T181 615T194 535V391Q194 358 207 337T239
306T273 296V250Q258 250 240 240T208 209T194 155V11Q194 -40 181 -69T145 -111T92 -129T25 -133Z" />
<glyph unicode="~" glyph-name="asciitilde" horiz-adv-x="524" d="M48 215Q50 233 55 256T73 300T106 335T160 349Q186 349 215 340T274 319T328 297T371 288Q401 288 416 302T437 334T446 360H478Q475 342 470 319T453 275T421 240T367 226Q341 226 311 235T252
256T198 277T155 286Q124 286 109 272T88 241T79 215H48Z" />
<glyph unicode="&#xa0;" glyph-name="uni00A0" horiz-adv-x="213" />
<glyph unicode="&#xa1;" glyph-name="exclamdown" horiz-adv-x="207" d="M76 317L57 -162H150L131 317H76ZM55 500V398H152V500H55Z" />
<glyph unicode="&#xa2;" glyph-name="cent" horiz-adv-x="574" d="M280 -101V-8Q209 -4 157 31T77 123T48 250Q48 319 76 376T157 469T280 508V595H316V507Q396 501 453 456T530 343H449Q433 384 399 410T316 440V60Q365 64 399 90T449 157H530Q510 89 453 44T316
-7V-101H280ZM280 61V439Q232 433 197 406T142 339T123 250Q123 203 142 162T196 94T280 61Z" />
<glyph unicode="&#xa3;" glyph-name="sterling" horiz-adv-x="575" d="M48 0V61L128 70V319H57V377H128V449Q128 507 148 557T213 639T333 670Q396 670 436 649T500 593T531 518H460Q450 550 421 574T336 599Q291 599 264 585T224 548T206 499T201 446V377H349V319H201V70H504V0H48Z"
/>
<glyph unicode="&#xa4;" glyph-name="currency" horiz-adv-x="567" d="M93 88L48 133L112 197Q93 224 82 256T71 324Q71 395 112 450L48 515L93 560L157 495Q184 515 216 525T284 536Q355 536 410 495L475 560L519 515L455 450Q496 395 496 324Q496 288 486 256T455
197L519 133L475 88L410 153Q356 111 284 111Q213 111 157 153L93 88ZM284 172Q326 172 360 192T415 247T436 324Q436 366 416 400T361 455T284 476Q242 476 208 456T153 401T132 324Q132 282 152 248T207 193T284 172Z" />
<glyph unicode="&#xa5;" glyph-name="yen" horiz-adv-x="657" d="M291 0V125H98V190H291V262L274 289H98V354H232L37 662H128L328 340L529 662H620L424 354H559V289H383L366 262V190H559V125H366V0H291Z" />
<glyph unicode="&#xa6;" glyph-name="brokenbar" horiz-adv-x="191" d="M65 393V748H126V393H65ZM126 177V-179H65V177H126Z" />
<glyph unicode="&#xa7;" glyph-name="section" horiz-adv-x="519" d="M250 -178Q195 -178 152 -156T83 -98T53 -19H122Q128 -53 163 -82T253 -111Q299 -111 330 -91T362 -33Q362 -1 339 24T281 73T205 120T128 169T70 226T47 298Q47 343 67 372T124 416Q107 437
97 461T86 516Q86 563 104 593T149 639T208 662T267 669Q322 669 364 647T431 589T460 510H391Q385 545 353 573T264 602Q218 602 189 582T159 524Q159 493 181 467T240 418T316 371T392 322T451 265T474 193Q474 147 454 118T396 74Q414 54 424 30T435 -25Q435
-72 417 -102T370 -148T309 -171T250 -178ZM360 109Q379 118 390 134T401 175Q401 210 377 236T316 285T238 331T161 382Q142 372 131 356T120 316Q120 281 144 255T205 205T283 160T360 109Z" />
<glyph unicode="&#xa8;" glyph-name="dieresis" horiz-adv-x="246" d="M0 579V662H89V579H0ZM157 579V662H246V579H157Z" />
<glyph unicode="&#xa9;" glyph-name="copyright" horiz-adv-x="779" d="M389 -13Q318 -13 256 13T147 87T74 196T47 329Q47 400 73 462T147 572T256 645T389 672Q460 672 522 646T631 572T705 463T732 329Q732 258 706 196T632 87T522 14T389 -13ZM389 36Q450
36 503 59T596 122T660 216T683 329Q683 390 660 443T597 536T503 600T389 623Q328 623 275 600T182 537T119 443T96 329Q96 269 118 216T181 123T275 59T389 36ZM389 133Q331 133 289 158T225 228T202 329Q202 386 224 430T289 499T389 524Q457 524 507 489T569
382H502Q495 419 467 440T394 461Q336 461 303 425T270 329Q270 271 303 234T394 197Q438 197 466 218T502 276H569Q558 203 508 168T389 133Z" />
<glyph unicode="&#xaa;" glyph-name="ordfeminine" horiz-adv-x="371" d="M167 392Q107 392 72 432T37 529Q37 586 72 626T167 666Q200 666 223 653T262 619V662H314V396H262V439Q247 417 224 405T167 392ZM177 440Q217 440 240 465T263 529Q263 567 240 592T177
618Q134 618 112 593T89 529Q89 490 111 465T177 440Z" />
<glyph unicode="&#xab;" glyph-name="guillemotleft" horiz-adv-x="487" d="M169 57L39 259L169 461H258L121 259L258 57H169ZM353 57L223 259L353 461H442L305 259L442 57H353Z" />
<glyph unicode="&#xac;" glyph-name="logicalnot" horiz-adv-x="593" d="M457 186V321H62V389H529V186H457Z" />
<glyph unicode="&#xad;" glyph-name="uni00AD" horiz-adv-x="356" d="M55 259V332H305V259H55Z" />
<glyph unicode="&#xae;" glyph-name="registered" horiz-adv-x="779" d="M389 -13Q318 -13 256 13T147 87T74 196T47 329Q47 400 73 462T147 572T256 645T389 672Q460 672 522 646T631 572T705 463T732 329Q732 258 706 196T632 87T522 14T389 -13ZM389 36Q450
36 503 59T596 122T660 216T683 329Q683 390 660 443T597 536T503 600T389 623Q328 623 275 600T182 537T119 443T96 329Q96 269 118 216T181 123T275 59T389 36ZM240 138V520H402Q483 520 520 489T558 407Q558 373 538 347T483 309Q512 301 527 279T547 231T553
185V138H484V176Q484 195 481 218T461 260T407 278H310V138H240ZM310 338H397Q438 338 463 354T489 400Q489 428 469 444T395 461H310V338Z" />
<glyph unicode="&#xaf;" glyph-name="overscore" horiz-adv-x="382" d="M57 582V642H321V582H57Z" />
<glyph unicode="&#xb0;" glyph-name="degree" horiz-adv-x="333" d="M166 406Q130 406 101 423T54 470T36 536Q36 572 53 602T100 649T166 667Q202 667 232 650T279 602T297 536Q297 500 280 471T232 424T166 406ZM166 463Q197 463 218 484T240 536Q240 567 219
588T166 610Q136 610 115 589T93 536Q93 506 114 485T166 463Z" />
<glyph unicode="&#xb1;" glyph-name="plusminus" horiz-adv-x="550" d="M242 122V276H50V341H242V495H307V341H500V276H307V122H242ZM50 0V62H500V0H50Z" />
<glyph unicode="&#xb2;" glyph-name="uni00B2" horiz-adv-x="357" d="M50 449V482Q50 523 78 555T174 632Q203 654 222 678T241 727Q241 753 225 767T178 782Q150 782 128 763T106 712H43Q43 754 63 782T115 824T178 839Q228 839 266 812T304 728Q304 679 272
644T194 576Q166 558 143 542T112 509H306V449H50Z" />
<glyph unicode="&#xb3;" glyph-name="uni00B3" horiz-adv-x="366" d="M184 443Q144 443 112 459T60 502T41 562H103Q103 533 128 518T183 502Q211 502 234 516T257 561Q257 587 237 604T193 622H139V682H187Q208 682 225 695T243 731Q243 755 227 768T182 781Q151
781 132 767T112 729H52Q52 776 89 807T181 839Q236 839 271 810T306 733Q306 711 293 689T260 654Q318 624 318 562Q318 529 300 502T252 459T184 443Z" />
<glyph unicode="&#xb4;" glyph-name="acute" horiz-adv-x="349" d="M86 570L147 675H254L147 570H86Z" />
<glyph unicode="&#xb5;" glyph-name="uni00B5" horiz-adv-x="564" d="M72 -198V500H147V211Q147 143 186 102T287 60Q329 60 363 79T417 133T438 212V500H513V0H438V78Q411 42 374 17T276 -8Q197 -8 147 46V-198H72Z" />
<glyph unicode="&#xb6;" glyph-name="paragraph" horiz-adv-x="565" d="M276 -141V335H203Q157 335 119 357T59 418T36 502Q36 549 58 587T119 647T203 670H509V616H466V-141H407V616H335V-141H276Z" />
<glyph unicode="&#xb7;" glyph-name="middot" horiz-adv-x="203" d="M53 242V344H150V242H53Z" />
<glyph unicode="&#xb8;" glyph-name="cedilla" horiz-adv-x="300" d="M151 -206Q113 -206 83 -194T33 -165L52 -132Q68 -143 89 -152T137 -162Q160 -162 176 -154T192 -126Q192 -111 176 -102T139 -93Q121 -93 104 -98L83 -81L152 27H195L151 -50Q163 -48 173
-48Q211 -48 238 -68T265 -125Q265 -167 231 -186T151 -206Z" />
<glyph unicode="&#xb9;" glyph-name="uni00B9" horiz-adv-x="319" d="M137 449V775H55V835H199V449H137Z" />
<glyph unicode="&#xba;" glyph-name="ordmasculine" horiz-adv-x="342" d="M171 392Q110 392 74 431T37 529Q37 588 73 627T171 666Q232 666 268 627T305 529Q305 471 269 432T171 392ZM171 452Q204 452 223 474T242 529Q242 560 224 583T171 606Q136 606 118
583T100 529Q100 498 118 475T171 452Z" />
<glyph unicode="&#xbb;" glyph-name="guillemotright" horiz-adv-x="487" d="M45 57L182 259L45 461H134L264 259L134 57H45ZM229 57L366 259L229 461H318L448 259L318 57H229Z" />
<glyph unicode="&#xbc;" glyph-name="onequarter" horiz-adv-x="729" d="M137 276V602H55V662H199V276H137ZM111 -14L531 674H595L175 -14H111ZM633 151H685V93H633V-5H571V93H387V148L553 381H633V151ZM449 151H571V322L449 151Z" />
<glyph unicode="&#xbd;" glyph-name="onehalf" horiz-adv-x="753" d="M457 0V33Q457 74 485 106T581 183Q610 205 629 229T648 278Q648 304 632 318T585 333Q557 333 535 314T513 263H450Q450 305 470 333T522 375T585 390Q635 390 673 363T711 279Q711 230 679
195T601 127Q573 109 550 93T519 60H713V0H457ZM137 276V602H55V662H199V276H137ZM111 -14L531 674H595L175 -14H111Z" />
<glyph unicode="&#xbe;" glyph-name="threequarters" horiz-adv-x="792" d="M185 270Q145 270 113 286T61 329T42 389H104Q104 360 129 345T184 329Q212 329 235 343T258 388Q258 414 238 431T194 449H140V509H188Q209 509 226 522T244 558Q244 582 228 595T183
608Q152 608 133 594T113 556H53Q53 603 90 634T182 666Q237 666 272 637T307 560Q307 538 294 516T261 481Q319 451 319 389Q319 356 301 329T253 286T185 270ZM174 -14L594 674H658L238 -14H174ZM696 156H748V98H696V0H634V98H450V153L616 386H696V156ZM512 156H634V327L512
156Z" />
<glyph unicode="&#xbf;" glyph-name="questiondown" horiz-adv-x="510" d="M283 317Q283 268 266 234T224 174T175 125T133 75T116 11Q116 -14 127 -40T167 -83T244 -101Q293 -101 326 -82T378 -32T400 34H471Q468 -21 441 -67T365 -142T250 -170Q178 -170 133
-144T66 -76T45 11Q45 58 61 89T102 145T152 193T193 245T210 317H283ZM295 500V398H198V500H295Z" />
<glyph unicode="&#xc0;" glyph-name="Agrave" horiz-adv-x="662" d="M3 0L284 662H378L659 0H576L495 192H167L86 0H3ZM196 261H466L331 584L196 261ZM560 725L453 830H560L621 725H560Z" />
<glyph unicode="&#xc1;" glyph-name="Aacute" horiz-adv-x="662" d="M3 0L284 662H378L659 0H576L495 192H167L86 0H3ZM196 261H466L331 584L196 261ZM553 725L614 830H721L614 725H553Z" />
<glyph unicode="&#xc2;" glyph-name="Acircumflex" horiz-adv-x="662" d="M3 0L284 662H378L659 0H576L495 192H167L86 0H3ZM196 261H466L331 584L196 261ZM446 725L544 830H631L728 725H646L587 779L528 725H446Z" />
<glyph unicode="&#xc3;" glyph-name="Atilde" horiz-adv-x="662" d="M3 0L284 662H378L659 0H576L495 192H167L86 0H3ZM196 261H466L331 584L196 261ZM657 723Q624 723 603 733T563 753T521 763Q498 763 487 750T471 724H440Q445 761 466 791T537 822Q569 822
590 812T630 792T672 781Q694 781 705 794T721 821H753Q748 784 727 754T657 723Z" />
<glyph unicode="&#xc4;" glyph-name="Adieresis" horiz-adv-x="662" d="M3 0L284 662H378L659 0H576L495 192H167L86 0H3ZM196 261H466L331 584L196 261ZM208 730V813H297V730H208ZM365 730V813H454V730H365Z" />
<glyph unicode="&#xc5;" glyph-name="Aring" horiz-adv-x="662" d="M3 0L284 662H378L659 0H576L495 192H167L86 0H3ZM196 261H466L331 584L196 261ZM586 635Q549 635 523 661T497 724Q497 762 523 788T586 814Q624 814 650 788T677 724Q677 687 651 661T586 635ZM586
680Q605 680 618 693T631 724Q631 743 618 756T586 769Q569 769 556 756T543 724Q543 706 556 693T586 680Z" />
<glyph unicode="&#xc6;" glyph-name="AE" horiz-adv-x="1022" d="M-3 0L450 662H983V590H596V368H939V295H596V72H983V0H521V185H212L87 0H-3ZM259 254H521V590H487L259 254Z" />
<glyph unicode="&#xc7;" glyph-name="Ccedilla" horiz-adv-x="690" d="M365 65Q447 65 501 101T580 198H659Q628 110 554 53T372 -8L348 -50Q360 -48 370 -48Q408 -48 435 -68T462 -125Q462 -167 428 -186T348 -206Q310 -206 280 -194T230 -165L249 -132Q265 -143
286 -152T334 -162Q357 -162 373 -154T389 -126Q389 -111 373 -102T336 -93Q318 -93 301 -98L280 -81L327 -7Q237 1 173 47T74 168T39 331Q39 425 77 502T188 624T359 670Q434 670 494 644T596 571T659 464H580Q555 525 501 561T365 597Q285 597 229 562T143 466T114
331Q114 257 143 197T228 101T365 65Z" />
<glyph unicode="&#xc8;" glyph-name="Egrave" horiz-adv-x="608" d="M81 0V662H568V590H156V368H524V295H156V72H568V0H81ZM563 725L456 830H563L624 725H563Z" />
<glyph unicode="&#xc9;" glyph-name="Eacute" horiz-adv-x="608" d="M81 0V662H568V590H156V368H524V295H156V72H568V0H81ZM556 725L617 830H724L617 725H556Z" />
<glyph unicode="&#xca;" glyph-name="Ecircumflex" horiz-adv-x="608" d="M81 0V662H568V590H156V368H524V295H156V72H568V0H81ZM449 725L547 830H634L731 725H649L590 779L531 725H449Z" />
<glyph unicode="&#xcb;" glyph-name="Edieresis" horiz-adv-x="608" d="M81 0V662H568V590H156V368H524V295H156V72H568V0H81ZM211 730V813H300V730H211ZM368 730V813H457V730H368Z" />
<glyph unicode="&#xcc;" glyph-name="Igrave" horiz-adv-x="237" d="M81 0V662H156V0H81ZM348 725L241 830H348L409 725H348Z" />
<glyph unicode="&#xcd;" glyph-name="Iacute" horiz-adv-x="237" d="M81 0V662H156V0H81ZM341 725L402 830H509L402 725H341Z" />
<glyph unicode="&#xce;" glyph-name="Icircumflex" horiz-adv-x="237" d="M81 0V662H156V0H81ZM490 725L588 830H675L772 725H690L631 779L572 725H490Z" />
<glyph unicode="&#xcf;" glyph-name="Idieresis" horiz-adv-x="237" d="M81 0V662H156V0H81ZM252 730V813H341V730H252ZM409 730V813H498V730H409Z" />
<glyph unicode="&#xd0;" glyph-name="Eth" horiz-adv-x="703" d="M81 0V298H7V363H81V662H360Q419 662 473 640T571 574T639 470T664 331Q664 253 639 192T571 88T474 23T360 0H81ZM156 71H357Q428 71 480 107T560 202T589 331Q589 402 561 461T480 555T357 591H156V363H355V298H156V71Z"
/>
<glyph unicode="&#xd1;" glyph-name="Ntilde" horiz-adv-x="733" d="M81 0V662H168L577 105V662H652V0H565L156 559V0H81ZM693 723Q660 723 639 733T599 753T557 763Q534 763 523 750T507 724H476Q481 761 502 791T573 822Q605 822 626 812T666 792T708 781Q730
781 741 794T757 821H789Q784 784 763 754T693 723Z" />
<glyph unicode="&#xd2;" glyph-name="Ograve" horiz-adv-x="750" d="M375 -8Q300 -8 238 18T132 91T63 199T39 331Q39 402 63 463T131 571T238 644T375 670Q450 670 512 644T618 571T687 463T711 331Q711 261 687 200T619 91T512 18T375 -8ZM375 65Q456 65 514
100T604 196T636 331Q636 406 605 466T515 561T375 597Q295 597 236 562T146 466T114 331Q114 257 145 197T236 101T375 65ZM604 725L497 830H604L665 725H604Z" />
<glyph unicode="&#xd3;" glyph-name="Oacute" horiz-adv-x="750" d="M375 -8Q300 -8 238 18T132 91T63 199T39 331Q39 402 63 463T131 571T238 644T375 670Q450 670 512 644T618 571T687 463T711 331Q711 261 687 200T619 91T512 18T375 -8ZM375 65Q456 65 514
100T604 196T636 331Q636 406 605 466T515 561T375 597Q295 597 236 562T146 466T114 331Q114 257 145 197T236 101T375 65ZM597 725L658 830H765L658 725H597Z" />
<glyph unicode="&#xd4;" glyph-name="Ocircumflex" horiz-adv-x="750" d="M375 -8Q300 -8 238 18T132 91T63 199T39 331Q39 402 63 463T131 571T238 644T375 670Q450 670 512 644T618 571T687 463T711 331Q711 261 687 200T619 91T512 18T375 -8ZM375 65Q456 65
514 100T604 196T636 331Q636 406 605 466T515 561T375 597Q295 597 236 562T146 466T114 331Q114 257 145 197T236 101T375 65ZM490 725L588 830H675L772 725H690L631 779L572 725H490Z" />
<glyph unicode="&#xd5;" glyph-name="Otilde" horiz-adv-x="750" d="M375 -8Q300 -8 238 18T132 91T63 199T39 331Q39 402 63 463T131 571T238 644T375 670Q450 670 512 644T618 571T687 463T711 331Q711 261 687 200T619 91T512 18T375 -8ZM375 65Q456 65 514
100T604 196T636 331Q636 406 605 466T515 561T375 597Q295 597 236 562T146 466T114 331Q114 257 145 197T236 101T375 65ZM701 723Q668 723 647 733T607 753T565 763Q542 763 531 750T515 724H484Q489 761 510 791T581 822Q613 822 634 812T674 792T716 781Q738
781 749 794T765 821H797Q792 784 771 754T701 723Z" />
<glyph unicode="&#xd6;" glyph-name="Odieresis" horiz-adv-x="750" d="M375 -8Q300 -8 238 18T132 91T63 199T39 331Q39 402 63 463T131 571T238 644T375 670Q450 670 512 644T618 571T687 463T711 331Q711 261 687 200T619 91T512 18T375 -8ZM375 65Q456 65
514 100T604 196T636 331Q636 406 605 466T515 561T375 597Q295 597 236 562T146 466T114 331Q114 257 145 197T236 101T375 65ZM252 730V813H341V730H252ZM409 730V813H498V730H409Z" />
<glyph unicode="&#xd7;" glyph-name="multiply" horiz-adv-x="550" d="M122 54L72 104L226 257L72 411L122 460L275 307L429 460L478 411L325 257L478 104L429 54L275 208L122 54Z" />
<glyph unicode="&#xd8;" glyph-name="Oslash" horiz-adv-x="750" d="M122 -40L176 53Q111 99 75 171T39 331Q39 402 63 463T131 571T238 644T375 670Q413 670 448 663T515 642L548 700H622L571 611Q637 566 674 493T711 331Q711 261 687 200T619 91T512 18T375
-8Q335 -8 299 -1T231 21L196 -40H122ZM114 331Q114 264 139 209T212 117L478 579Q431 597 375 597Q295 597 236 562T146 466T114 331ZM375 65Q456 65 514 100T604 196T636 331Q636 399 610 455T534 548L268 85Q317 65 375 65Z" />
<glyph unicode="&#xd9;" glyph-name="Ugrave" horiz-adv-x="709" d="M354 -8Q272 -8 209 28T109 131T73 285V662H148V283Q148 206 177 158T254 88T354 65Q407 65 454 87T531 158T561 283V662H636V285Q636 198 600 132T501 29T354 -8ZM584 725L477 830H584L645 725H584Z" />
<glyph unicode="&#xda;" glyph-name="Uacute" horiz-adv-x="709" d="M354 -8Q272 -8 209 28T109 131T73 285V662H148V283Q148 206 177 158T254 88T354 65Q407 65 454 87T531 158T561 283V662H636V285Q636 198 600 132T501 29T354 -8ZM577 725L638 830H745L638 725H577Z" />
<glyph unicode="&#xdb;" glyph-name="Ucircumflex" horiz-adv-x="709" d="M354 -8Q272 -8 209 28T109 131T73 285V662H148V283Q148 206 177 158T254 88T354 65Q407 65 454 87T531 158T561 283V662H636V285Q636 198 600 132T501 29T354 -8ZM470 725L568 830H655L752
725H670L611 779L552 725H470Z" />
<glyph unicode="&#xdc;" glyph-name="Udieresis" horiz-adv-x="709" d="M354 -8Q272 -8 209 28T109 131T73 285V662H148V283Q148 206 177 158T254 88T354 65Q407 65 454 87T531 158T561 283V662H636V285Q636 198 600 132T501 29T354 -8ZM232 730V813H321V730H232ZM389
730V813H478V730H389Z" />
<glyph unicode="&#xdd;" glyph-name="Yacute" horiz-adv-x="636" d="M281 0V262L3 662H94L318 340L542 662H633L356 262V0H281ZM541 725L602 830H709L602 725H541Z" />
<glyph unicode="&#xde;" glyph-name="Thorn" horiz-adv-x="628" d="M81 0V662H156V565H379Q485 565 546 508T607 352Q607 254 546 197T379 139H156V0H81ZM156 209H374Q452 209 492 247T532 352Q532 418 492 456T374 494H156V209Z" />
<glyph unicode="&#xdf;" glyph-name="germandbls" horiz-adv-x="557" d="M65 0V514Q65 605 122 656T279 708Q334 708 382 689T459 628T489 518Q489 467 473 435T431 384T381 357Q410 350 443 330T499 273T523 175Q523 91 462 46T293 0H205V66H294Q362 66 404 95T447
186Q447 248 397 286T253 324V379Q321 379 367 413T414 509Q414 571 381 606T278 641Q238 641 207 630T158 590T140 510V0H65Z" />
<glyph unicode="&#xe0;" glyph-name="agrave" horiz-adv-x="595" d="M276 -8Q203 -8 149 26T64 120T34 250Q34 322 64 380T148 473T276 508Q338 508 382 484T455 419V500H530V0H455V80Q427 40 383 16T276 -8ZM286 60Q342 60 380 86T439 155T459 250Q459 302 439
345T381 414T286 440Q231 440 191 414T130 345T109 250Q109 199 130 156T191 86T286 60ZM577 570L470 675H577L638 570H577Z" />
<glyph unicode="&#xe1;" glyph-name="aacute" horiz-adv-x="595" d="M276 -8Q203 -8 149 26T64 120T34 250Q34 322 64 380T148 473T276 508Q338 508 382 484T455 419V500H530V0H455V80Q427 40 383 16T276 -8ZM286 60Q342 60 380 86T439 155T459 250Q459 302 439
345T381 414T286 440Q231 440 191 414T130 345T109 250Q109 199 130 156T191 86T286 60ZM500 570L561 675H668L561 570H500Z" />
<glyph unicode="&#xe2;" glyph-name="acircumflex" horiz-adv-x="595" d="M276 -8Q203 -8 149 26T64 120T34 250Q34 322 64 380T148 473T276 508Q338 508 382 484T455 419V500H530V0H455V80Q427 40 383 16T276 -8ZM286 60Q342 60 380 86T439 155T459 250Q459 302
439 345T381 414T286 440Q231 440 191 414T130 345T109 250Q109 199 130 156T191 86T286 60ZM413 570L511 675H598L695 570H613L554 624L495 570H413Z" />
<glyph unicode="&#xe3;" glyph-name="atilde" horiz-adv-x="595" d="M276 -8Q203 -8 149 26T64 120T34 250Q34 322 64 380T148 473T276 508Q338 508 382 484T455 419V500H530V0H455V80Q427 40 383 16T276 -8ZM286 60Q342 60 380 86T439 155T459 250Q459 302 439
345T381 414T286 440Q231 440 191 414T130 345T109 250Q109 199 130 156T191 86T286 60ZM615 569Q582 569 561 579T521 599T479 609Q456 609 445 596T429 570H398Q403 607 424 637T495 668Q527 668 548 658T588 638T630 627Q652 627 663 640T679 667H711Q706 630
685 600T615 569Z" />
<glyph unicode="&#xe4;" glyph-name="adieresis" horiz-adv-x="595" d="M276 -8Q203 -8 149 26T64 120T34 250Q34 322 64 380T148 473T276 508Q338 508 382 484T455 419V500H530V0H455V80Q427 40 383 16T276 -8ZM286 60Q342 60 380 86T439 155T459 250Q459 302
439 345T381 414T286 440Q231 440 191 414T130 345T109 250Q109 199 130 156T191 86T286 60ZM176 579V662H265V579H176ZM333 579V662H422V579H333Z" />
<glyph unicode="&#xe5;" glyph-name="aring" horiz-adv-x="595" d="M276 -8Q203 -8 149 26T64 120T34 250Q34 322 64 380T148 473T276 508Q338 508 382 484T455 419V500H530V0H455V80Q427 40 383 16T276 -8ZM286 60Q342 60 380 86T439 155T459 250Q459 302 439
345T381 414T286 440Q231 440 191 414T130 345T109 250Q109 199 130 156T191 86T286 60ZM553 556Q516 556 490 582T464 645Q464 683 490 709T553 735Q591 735 617 709T644 645Q644 608 618 582T553 556ZM553 601Q572 601 585 614T598 645Q598 664 585 677T553 690Q536
690 523 677T510 645Q510 627 523 614T553 601Z" />
<glyph unicode="&#xe6;" glyph-name="ae" horiz-adv-x="977" d="M276 -8Q203 -8 149 26T64 120T34 250Q34 322 64 380T148 473T276 508Q338 508 382 484T455 419V500H530V428Q557 465 600 486T702 508Q779 508 834 474T920 381T950 250V220H531Q537 176 559 140T619
82T708 60Q764 60 801 87T857 157H937Q913 84 852 38T702 -8Q643 -8 600 13T530 71V0H455V80Q427 40 383 16T276 -8ZM286 60Q342 60 380 86T439 155T459 250Q459 302 439 345T381 414T286 440Q231 440 191 414T130 345T109 250Q109 199 130 156T191 86T286 60ZM532
290H872Q862 354 818 397T702 440Q630 440 587 397T532 290Z" />
<glyph unicode="&#xe7;" glyph-name="ccedilla" d="M290 60Q343 60 380 87T435 157H516Q496 88 439 43T299 -7L275 -50Q287 -48 297 -48Q335 -48 362 -68T389 -125Q389 -167 355 -186T275 -206Q237 -206 207 -194T157 -165L176 -132Q192 -143 213 -152T261 -162Q284
-162 300 -154T316 -126Q316 -111 300 -102T263 -93Q245 -93 228 -98L207 -81L254 -7Q187 -1 138 34T61 126T34 250Q34 322 64 380T150 473T280 508Q369 508 431 462T516 343H435Q418 386 381 413T290 440Q235 440 194 414T131 345T109 250Q109 199 131 156T194
86T290 60Z" />
<glyph unicode="&#xe8;" glyph-name="egrave" horiz-adv-x="557" d="M287 -8Q211 -8 154 26T66 120T34 250Q34 322 64 380T150 473T282 508Q359 508 414 474T500 381T530 250V220H111Q117 176 139 140T200 82T288 60Q341 60 377 83T433 144H515Q489 77 433 35T287
-8ZM112 290H452Q442 354 398 397T282 440Q210 440 167 397T112 290ZM558 570L451 675H558L619 570H558Z" />
<glyph unicode="&#xe9;" glyph-name="eacute" horiz-adv-x="557" d="M287 -8Q211 -8 154 26T66 120T34 250Q34 322 64 380T150 473T282 508Q359 508 414 474T500 381T530 250V220H111Q117 176 139 140T200 82T288 60Q341 60 377 83T433 144H515Q489 77 433 35T287
-8ZM112 290H452Q442 354 398 397T282 440Q210 440 167 397T112 290ZM481 570L542 675H649L542 570H481Z" />
<glyph unicode="&#xea;" glyph-name="ecircumflex" horiz-adv-x="557" d="M287 -8Q211 -8 154 26T66 120T34 250Q34 322 64 380T150 473T282 508Q359 508 414 474T500 381T530 250V220H111Q117 176 139 140T200 82T288 60Q341 60 377 83T433 144H515Q489 77 433
35T287 -8ZM112 290H452Q442 354 398 397T282 440Q210 440 167 397T112 290ZM394 570L492 675H579L676 570H594L535 624L476 570H394Z" />
<glyph unicode="&#xeb;" glyph-name="edieresis" horiz-adv-x="557" d="M287 -8Q211 -8 154 26T66 120T34 250Q34 322 64 380T150 473T282 508Q359 508 414 474T500 381T530 250V220H111Q117 176 139 140T200 82T288 60Q341 60 377 83T433 144H515Q489 77 433
35T287 -8ZM112 290H452Q442 354 398 397T282 440Q210 440 167 397T112 290ZM157 579V662H246V579H157ZM314 579V662H403V579H314Z" />
<glyph unicode="&#xec;" glyph-name="igrave" horiz-adv-x="205" d="M65 0V500H140V0H65ZM382 570L275 675H382L443 570H382Z" />
<glyph unicode="&#xed;" glyph-name="iacute" horiz-adv-x="205" d="M65 0V500H140V0H65ZM305 570L366 675H473L366 570H305Z" />
<glyph unicode="&#xee;" glyph-name="icircumflex" horiz-adv-x="205" d="M65 0V500H140V0H65ZM474 570L572 675H659L756 570H674L615 624L556 570H474Z" />
<glyph unicode="&#xef;" glyph-name="idieresis" horiz-adv-x="205" d="M65 0V500H140V0H65ZM237 579V662H326V579H237ZM394 579V662H483V579H394Z" />
<glyph unicode="&#xf0;" glyph-name="eth" horiz-adv-x="563" d="M286 -8Q204 -8 148 28T63 123T34 253Q34 325 62 384T141 478T263 514Q310 514 347 499T409 455Q386 501 349 530T278 582L222 545L190 583L233 611Q217 620 202 628T169 644L196 715Q249 690 300
656L375 706L407 668L342 625Q396 583 438 533T505 419T530 269Q530 216 514 167T466 78T389 15T286 -8ZM282 59Q338 59 376 86T435 158T455 253Q455 304 433 348T371 420T274 447Q221 447 184 421T128 350T109 253Q109 202 129 158T188 87T282 59Z" />
<glyph unicode="&#xf1;" glyph-name="ntilde" horiz-adv-x="566" d="M65 0V500H140V422Q167 458 206 483T306 508Q358 508 403 484T477 411T506 291V0H431V289Q431 357 392 398T291 440Q249 440 215 421T161 368T140 288V0H65ZM600 569Q567 569 546 579T506 599T464
609Q441 609 430 596T414 570H383Q388 607 409 637T480 668Q512 668 533 658T573 638T615 627Q637 627 648 640T664 667H696Q691 630 670 600T600 569Z" />
<glyph unicode="&#xf2;" glyph-name="ograve" horiz-adv-x="564" d="M282 -8Q206 -8 150 26T64 120T34 250Q34 322 64 380T150 473T282 508Q359 508 414 474T500 381T530 250Q530 179 500 120T415 27T282 -8ZM282 60Q338 60 376 86T435 155T455 250Q455 302 435
345T377 414T282 440Q227 440 188 414T129 345T109 250Q109 199 129 156T188 86T282 60ZM561 570L454 675H561L622 570H561Z" />
<glyph unicode="&#xf3;" glyph-name="oacute" horiz-adv-x="564" d="M282 -8Q206 -8 150 26T64 120T34 250Q34 322 64 380T150 473T282 508Q359 508 414 474T500 381T530 250Q530 179 500 120T415 27T282 -8ZM282 60Q338 60 376 86T435 155T455 250Q455 302 435
345T377 414T282 440Q227 440 188 414T129 345T109 250Q109 199 129 156T188 86T282 60ZM484 570L545 675H652L545 570H484Z" />
<glyph unicode="&#xf4;" glyph-name="ocircumflex" horiz-adv-x="564" d="M282 -8Q206 -8 150 26T64 120T34 250Q34 322 64 380T150 473T282 508Q359 508 414 474T500 381T530 250Q530 179 500 120T415 27T282 -8ZM282 60Q338 60 376 86T435 155T455 250Q455 302
435 345T377 414T282 440Q227 440 188 414T129 345T109 250Q109 199 129 156T188 86T282 60ZM397 570L495 675H582L679 570H597L538 624L479 570H397Z" />
<glyph unicode="&#xf5;" glyph-name="otilde" horiz-adv-x="564" d="M282 -8Q206 -8 150 26T64 120T34 250Q34 322 64 380T150 473T282 508Q359 508 414 474T500 381T530 250Q530 179 500 120T415 27T282 -8ZM282 60Q338 60 376 86T435 155T455 250Q455 302 435
345T377 414T282 440Q227 440 188 414T129 345T109 250Q109 199 129 156T188 86T282 60ZM599 569Q566 569 545 579T505 599T463 609Q440 609 429 596T413 570H382Q387 607 408 637T479 668Q511 668 532 658T572 638T614 627Q636 627 647 640T663 667H695Q690 630
669 600T599 569Z" />
<glyph unicode="&#xf6;" glyph-name="odieresis" horiz-adv-x="564" d="M282 -8Q206 -8 150 26T64 120T34 250Q34 322 64 380T150 473T282 508Q359 508 414 474T500 381T530 250Q530 179 500 120T415 27T282 -8ZM282 60Q338 60 376 86T435 155T455 250Q455 302
435 345T377 414T282 440Q227 440 188 414T129 345T109 250Q109 199 129 156T188 86T282 60ZM160 579V662H249V579H160ZM317 579V662H406V579H317Z" />
<glyph unicode="&#xf7;" glyph-name="divide" horiz-adv-x="550" d="M231 359V452H319V359H231ZM38 200V269H512V200H38ZM231 17V110H319V17H231Z" />
<glyph unicode="&#xf8;" glyph-name="oslash" horiz-adv-x="564" d="M96 -16L129 41Q83 76 59 131T34 250Q34 322 64 380T150 473T282 508Q338 508 386 488L407 525H481L440 454Q483 419 506 366T530 250Q530 179 500 120T415 27T282 -8Q230 -8 185 10L170 -16H96ZM109
250Q109 207 123 169T165 104L351 427Q319 440 282 440Q227 440 188 414T129 345T109 250ZM282 60Q338 60 376 86T435 155T455 250Q455 291 442 327T404 391L220 70Q248 60 282 60Z" />
<glyph unicode="&#xf9;" glyph-name="ugrave" horiz-adv-x="566" d="M260 -8Q209 -8 163 16T89 89T60 209V500H135V211Q135 143 174 102T275 60Q317 60 351 79T405 133T426 212V500H501V0H426V78Q399 42 360 17T260 -8ZM562 570L455 675H562L623 570H562Z" />
<glyph unicode="&#xfa;" glyph-name="uacute" horiz-adv-x="566" d="M260 -8Q209 -8 163 16T89 89T60 209V500H135V211Q135 143 174 102T275 60Q317 60 351 79T405 133T426 212V500H501V0H426V78Q399 42 360 17T260 -8ZM485 570L546 675H653L546 570H485Z" />
<glyph unicode="&#xfb;" glyph-name="ucircumflex" horiz-adv-x="566" d="M260 -8Q209 -8 163 16T89 89T60 209V500H135V211Q135 143 174 102T275 60Q317 60 351 79T405 133T426 212V500H501V0H426V78Q399 42 360 17T260 -8ZM398 570L496 675H583L680 570H598L539
624L480 570H398Z" />
<glyph unicode="&#xfc;" glyph-name="udieresis" horiz-adv-x="566" d="M260 -8Q209 -8 163 16T89 89T60 209V500H135V211Q135 143 174 102T275 60Q317 60 351 79T405 133T426 212V500H501V0H426V78Q399 42 360 17T260 -8ZM161 579V662H250V579H161ZM318 579V662H407V579H318Z"
/>
<glyph unicode="&#xfd;" glyph-name="yacute" horiz-adv-x="497" d="M117 -198L208 7L4 500H87L248 90L412 500H494L198 -198H117ZM451 570L512 675H619L512 570H451Z" />
<glyph unicode="&#xfe;" glyph-name="thorn" horiz-adv-x="594" d="M65 -198V700H140V419Q168 460 212 484T319 508Q392 508 446 474T531 381T561 250Q561 179 531 120T447 27T319 -8Q257 -8 213 16T140 80V-198H65ZM309 60Q365 60 404 86T465 155T486 250Q486
302 465 345T405 414T309 440Q254 440 215 414T156 345T136 250Q136 199 156 156T215 86T309 60Z" />
<glyph unicode="&#xff;" glyph-name="ydieresis" horiz-adv-x="497" d="M117 -198L208 7L4 500H87L248 90L412 500H494L198 -198H117ZM127 579V662H216V579H127ZM284 579V662H373V579H284Z" />
<glyph unicode="&#x2013;" glyph-name="endash" horiz-adv-x="610" d="M55 262V329H555V262H55Z" />
<glyph unicode="&#x2014;" glyph-name="emdash" horiz-adv-x="1110" d="M55 262V329H1055V262H55Z" />
<glyph unicode="&#x2018;" glyph-name="quoteleft" horiz-adv-x="218" d="M36 475L124 688H192L134 475H36Z" />
<glyph unicode="&#x2019;" glyph-name="quoteright" horiz-adv-x="211" d="M196 688L108 475H40L98 688H196Z" />
<glyph unicode="&#x201a;" glyph-name="quotesinglbase" horiz-adv-x="220" d="M11 -111L69 102H167L79 -111H11Z" />
<glyph unicode="&#x201c;" glyph-name="quotedblleft" horiz-adv-x="369" d="M187 475L275 688H343L285 475H187ZM36 477L124 690H192L134 477H36Z" />
<glyph unicode="&#x201d;" glyph-name="quotedblright" horiz-adv-x="361" d="M346 688L258 475H190L248 688H346ZM196 688L108 475H40L98 688H196Z" />
<glyph unicode="&#x201e;" glyph-name="quotedblbase" horiz-adv-x="370" d="M161 -111L219 102H317L229 -111H161ZM11 -111L69 102H167L79 -111H11Z" />
<glyph unicode="&#x2022;" glyph-name="bullet" horiz-adv-x="340" d="M170 186Q133 186 103 204T54 252T36 320Q36 357 54 387T102 436T170 454Q207 454 237 436T286 388T304 320Q304 283 286 253T238 204T170 186Z" />
<glyph unicode="&#x2039;" glyph-name="guilsinglleft" horiz-adv-x="303" d="M169 57L39 259L169 461H258L121 259L258 57H169Z" />
<glyph unicode="&#x203a;" glyph-name="guilsinglright" horiz-adv-x="303" d="M45 57L182 259L45 461H134L264 259L134 57H45Z" />
</font>
</defs>
</svg>
