<?xml version="1.0" standalone="no"?>
<!DOCTYPE svg PUBLIC "-//W3C//DTD SVG 1.1//EN" "http://www.w3.org/Graphics/SVG/1.1/DTD/svg11.dtd">
<svg xmlns="http://www.w3.org/2000/svg">
<defs >
<font id="Mukta" horiz-adv-x="669" ><font-face
    font-family="Mukta Medium"
    units-per-em="1000"
    panose-1="2 11 0 0 0 0 0 0 0 0"
    ascent="1130"
    descent="-532"
    alphabetic="0" />
<glyph unicode=" " glyph-name="space" horiz-adv-x="226" />
<glyph unicode="!" glyph-name="exclam" horiz-adv-x="252" d="M72 710H181L167 214H84L72 710ZM60 58Q60 87 80 106T126 125Q153 125 172 106T191 58Q191 27 172 9T126 -10Q100 -10 80 8T60 58Z" />
<glyph unicode="&quot;" glyph-name="quotedbl" horiz-adv-x="338" d="M196 645H289L273 423H211L196 645ZM48 645H141L126 423H64L48 645Z" />
<glyph unicode="#" glyph-name="numbersign" horiz-adv-x="619" d="M259 464L231 287H372L400 464H259ZM445 740H517L484 537H586V464H473L444 287H552V214H434L399 0H326L360 214H220L185 0H113L146 214H35V287H159L187 464H70V537H200L232 740H304L271 536H413L445
740Z" />
<glyph unicode="$" glyph-name="dollar" horiz-adv-x="538" d="M235 722H307V618Q337 615 369 606T433 580L404 503Q336 539 271 539Q226 539 198 519T169 459Q169 422 194 405T266 372L312 357Q389 332 428 290T468 183Q468 147 455 118T419 66T363 29T292 11V-97H220V11Q175
13 140 24T67 56L103 133Q143 109 181 100T252 91Q302 91 333 112T364 175Q364 212 338 232T258 270L210 286Q178 296 152 310T106 343T75 389T64 448Q64 523 111 567T235 618V722Z" />
<glyph unicode="%" glyph-name="percent" horiz-adv-x="815" d="M159 0L596 750H666L229 0H159ZM784 179Q784 141 774 107T742 46T690 5T617 -10Q577 -10 546 5T494 46T463 106T452 179Q452 217 463 251T496 310T549 351T620 366Q659 366 689 351T741 311T773
251T784 179ZM702 179Q702 203 698 226T685 267T659 295T620 306Q597 306 581 296T555 268T539 228T534 179Q534 153 538 130T553 89T578 61T617 50Q662 50 682 86T702 179ZM361 563Q361 525 350 491T318 430T266 389T194 374Q154 374 123 389T71 430T40 490T29
563Q29 601 40 635T73 694T126 735T197 750Q236 750 266 735T318 695T350 635T361 563ZM279 563Q279 587 275 609T262 649T236 677T197 688Q174 688 158 678T132 651T116 611T111 563Q111 537 115 514T130 473T155 445T194 434Q238 434 258 470T279 563Z" />
<glyph unicode="&amp;" glyph-name="ampersand" d="M130 189Q130 129 169 99T274 69Q319 69 357 86T418 131L230 322Q189 302 160 270T130 189ZM30 186Q30 256 71 303T182 380Q157 406 138 443T119 523Q119 557 132 584T168 631T223 660T292 670Q328 670 359 660T412
630T446 584T459 526Q459 473 431 438T361 382L313 437Q336 449 350 471T365 522Q365 554 344 575T290 596Q254 596 235 577T215 524Q215 483 238 449T305 369L470 201Q485 226 499 260T525 324L606 292Q590 247 570 208T531 140L669 0H545L473 74Q445 42 392 17T262
-9Q209 -9 167 5T94 44T47 106T30 186Z" />
<glyph unicode="&apos;" glyph-name="quotesingle" horiz-adv-x="190" d="M48 645H141L126 423H64L48 645Z" />
<glyph unicode="(" glyph-name="parenleft" horiz-adv-x="303" d="M208 -153Q178 -112 149 -66T98 33T61 147T47 279Q47 349 61 411T98 528T150 628T210 710L266 673Q212 591 178 494T144 279Q144 221 152 169T176 69T214 -25T266 -119L208 -153Z" />
<glyph unicode=")" glyph-name="parenright" horiz-adv-x="303" d="M94 710Q125 670 154 624T206 525T242 410T256 278Q256 208 242 146T205 29T153 -70T93 -153L37 -115Q91 -30 125 65T159 278Q159 336 151 388T126 490T88 585T37 677L94 710Z" />
<glyph unicode="*" glyph-name="asterisk" horiz-adv-x="352" d="M57 411L97 465L155 516L78 524L14 544L34 605L97 587L168 548L147 623V688H215V623L196 548L265 586L328 605L348 544L284 523L207 516L265 465L304 411L250 371L212 426L181 497L150 425L110
371L57 411Z" />
<glyph unicode="+" glyph-name="plus" horiz-adv-x="559" d="M522 340V269H315V62H244V269H37V340H244V547H315V340H522Z" />
<glyph unicode="," glyph-name="comma" horiz-adv-x="222" d="M103 -10Q75 -5 60 15T45 61Q45 87 63 108T114 129Q127 129 141 125T166 109T184 77T192 26Q192 -34 158 -82T74 -157L42 -113Q70 -98 91 -73T120 -13L103 -10Z" />
<glyph unicode="-" glyph-name="hyphen" horiz-adv-x="280" d="M250 335V249H30V335H250Z" />
<glyph unicode="." glyph-name="period" horiz-adv-x="218" d="M52 60Q52 89 72 108T119 128Q146 128 165 109T185 60Q185 28 166 9T119 -10Q92 -10 72 9T52 60Z" />
<glyph unicode="/" glyph-name="slash" horiz-adv-x="372" d="M-1 -109L293 750H375L81 -109H-1Z" />
<glyph unicode="0" glyph-name="zero" horiz-adv-x="580" d="M291 640Q345 640 390 622T469 564T521 463T540 315Q540 229 520 168T465 67T385 9T290 -10Q236 -10 191 8T112 66T59 167T40 315Q40 397 60 458T115 560T195 620T291 640ZM147 315Q147 240 159 193T191
118T237 80T291 69Q319 69 345 80T390 120T421 195T433 315Q433 390 421 437T390 512T344 550T290 561Q262 561 236 550T191 510T159 435T147 315Z" />
<glyph unicode="1" glyph-name="one" horiz-adv-x="379" d="M212 630H291V0H190V528L76 475L52 556L212 630Z" />
<glyph unicode="2" glyph-name="two" horiz-adv-x="485" d="M223 558Q191 558 162 547T100 509L55 576Q98 611 140 625T229 640Q279 640 317 626T380 586T417 527T430 453Q430 382 376 307T228 141L168 83H442V0H61L42 71L128 157Q181 210 218 251T279 327T314
390T325 448Q325 497 299 527T223 558Z" />
<glyph unicode="3" glyph-name="three" horiz-adv-x="493" d="M52 593Q90 618 131 629T216 640Q259 640 295 628T357 594T397 542T411 477Q411 418 380 380T306 325Q361 313 397 273T433 175Q433 125 414 90T362 33T289 0T203 -10Q158 -10 115 -2T39 24L62 100Q96
87 124 79T196 71Q221 71 244 77T286 96T315 129T326 177Q326 229 290 254T194 280H120V358H176Q233 358 269 384T306 465Q306 507 277 533T203 560Q173 560 146 552T84 523L52 593Z" />
<glyph unicode="4" glyph-name="four" horiz-adv-x="543" d="M310 630H414V238H511V155H414V0H317V155H20V220L310 630ZM269 432L131 238H317V425L323 526H321L269 432Z" />
<glyph unicode="5" glyph-name="five" horiz-adv-x="521" d="M432 632V549L204 547L186 394Q209 398 241 398Q280 398 318 388T387 354T437 295T457 206Q457 161 441 122T394 54T315 7T205 -10Q165 -10 127 -1T60 22L83 101Q108 89 137 81T199 73Q271 73 310 106T350
201Q350 263 308 293T202 324Q175 324 148 321T93 312L124 630L432 632Z" />
<glyph unicode="6" glyph-name="six" horiz-adv-x="531" d="M319 640Q354 640 384 635T442 618L418 537Q398 547 374 553T322 559Q280 559 249 544T197 502T163 438T149 355Q176 387 214 401T294 416Q337 416 374 402T438 362T480 298T496 211Q496 161 480 121T434
51T364 6T274 -10Q231 -10 190 6T115 58T62 151T42 290Q42 386 65 452T127 560T216 621T319 640ZM149 229Q149 195 158 166T183 115T223 81T276 68Q303 68 324 79T361 108T384 152T393 208Q393 274 360 305T272 336Q232 336 204 318T161 276Q154 265 152 254T149
229Z" />
<glyph unicode="7" glyph-name="seven" horiz-adv-x="495" d="M451 630V560L181 -20L93 19L350 549H54V630H451Z" />
<glyph unicode="8" glyph-name="eight" horiz-adv-x="510" d="M258 640Q308 640 345 627T408 591T445 541T458 481Q458 434 429 395T341 333Q405 308 439 271T474 173Q474 129 458 95T412 38T343 3T255 -10Q208 -10 168 2T98 37T52 92T35 164Q35 226 67 262T163
325Q114 348 85 385T56 470Q56 503 68 533T106 588T169 626T258 640ZM154 476Q154 455 162 438T186 408T220 385T260 368Q302 384 330 410T359 476Q359 517 330 540T256 564Q206 564 180 538T154 476ZM248 287Q200 271 170 244T139 167Q139 126 168 97T257 68Q310
68 340 98T371 168Q371 215 336 243T248 287Z" />
<glyph unicode="9" glyph-name="nine" horiz-adv-x="524" d="M212 -10Q165 -10 132 -3T75 17L98 96Q119 86 143 79T206 71Q290 71 330 123T375 272Q352 246 316 231T239 216Q195 216 159 229T95 269T53 334T38 421Q38 470 54 510T99 580T170 624T261 640Q304 640
344 624T414 571T463 478T482 341Q482 246 462 180T405 71T319 10T212 -10ZM375 397Q375 430 367 460T342 512T304 548T254 562Q200 562 171 526T141 428Q141 362 173 329T260 296Q296 296 323 312T364 352Q375 371 375 397Z" />
<glyph unicode=":" glyph-name="colon" horiz-adv-x="230" d="M48 59Q48 88 68 108T116 128Q143 128 162 108T182 59Q182 27 163 9T116 -10Q88 -10 68 8T48 59ZM48 362Q48 391 68 410T116 430Q143 430 162 411T182 362Q182 330 163 312T116 293Q88 293 68 311T48 362Z" />
<glyph unicode=";" glyph-name="semicolon" horiz-adv-x="227" d="M50 362Q50 391 70 410T117 430Q144 430 163 411T183 362Q183 330 164 312T117 293Q90 293 70 311T50 362ZM103 -10Q75 -5 60 15T45 61Q45 87 63 108T114 129Q127 129 141 125T166 109T184 77T192
26Q192 -34 158 -82T74 -157L42 -113Q70 -98 91 -73T120 -13L103 -10Z" />
<glyph unicode="&lt;" glyph-name="less" horiz-adv-x="491" d="M63 222V285L427 493V411L141 254L427 97V15L63 222Z" />
<glyph unicode="=" glyph-name="equal" horiz-adv-x="458" d="M37 245V175H420V245H37ZM420 424V354H37V424H420Z" />
<glyph unicode="&gt;" glyph-name="greater" horiz-adv-x="491" d="M63 15V97L350 254L63 411V493L427 285V222L63 15Z" />
<glyph unicode="?" glyph-name="question" horiz-adv-x="438" d="M202 715Q248 715 284 702T345 667T383 613T396 546Q396 520 388 497T366 452T334 410T297 371Q255 333 234 308T212 249Q212 236 213 227T220 203L134 189Q129 203 126 219T122 253Q122 296 143
329T205 404Q223 422 239 438T266 471T284 505T291 543Q291 576 269 602T193 629Q169 629 145 622T97 598L55 672Q84 693 124 704T202 715ZM120 58Q120 87 140 106T186 125Q213 125 232 106T251 58Q251 27 232 9T186 -10Q160 -10 140 8T120 58Z" />
<glyph unicode="@" glyph-name="at" horiz-adv-x="965" d="M561 60H559Q525 26 490 8T400 -10Q337 -10 302 24T266 112Q266 157 284 189T334 242T408 272T496 282H576L582 317Q583 323 583 328T584 338Q584 373 563 387T505 401Q479 401 443 392T363 360L338 431Q387
455 432 467T525 480Q561 480 590 473T640 451T672 410T684 349Q684 329 681 307L655 147Q650 119 650 105Q650 85 658 77T683 68Q713 68 739 88T786 143T817 226T829 328Q829 390 810 443T754 536T663 597T540 620Q456 620 383 592T254 507T168 368T136 175Q136
85 165 24T242 -74T348 -128T466 -145Q530 -145 575 -134T660 -107L679 -173Q637 -191 578 -205T450 -219Q375 -219 303 -198T175 -131T84 -11T49 169Q49 291 88 388T195 552T350 656T536 692Q629 692 700 665T820 590T894 477T919 334Q919 247 895 184T834 79T750
19T657 -1Q633 -1 613 2T581 11L561 60ZM567 217L502 215Q431 213 401 187T371 122Q371 91 391 77T441 63Q502 63 551 120L567 217Z" />
<glyph unicode="A" glyph-name="A" horiz-adv-x="601" d="M203 247H394L357 349Q340 391 328 427T301 511H299Q284 467 271 430T241 348L203 247ZM251 630H353L598 0H486L423 165H176L114 0H3L251 630Z" />
<glyph unicode="B" glyph-name="B" horiz-adv-x="548" d="M277 630Q374 630 428 589T482 469Q482 440 473 418T448 379T411 351T367 334Q395 329 419 317T462 285T490 238T501 177Q501 138 484 106T437 50T364 13T271 0H76V630H277ZM183 371H255Q279 371 300 375T337
389T362 417T372 461Q372 505 342 525T261 546H183V371ZM183 84H258Q285 84 309 89T351 107T379 138T390 187Q390 215 378 234T346 266T300 283T246 288H183V84Z" />
<glyph unicode="C" glyph-name="C" horiz-adv-x="563" d="M363 76Q412 76 444 84T506 107L529 24Q497 9 455 0T352 -10Q287 -10 231 11T133 74T67 176T43 315Q43 391 66 451T130 554T229 618T356 640Q419 640 459 630T531 602L506 521Q472 536 442 545T369 554Q326
554 288 541T221 499T175 425T158 315Q158 251 174 206T218 132T283 90T363 76Z" />
<glyph unicode="D" glyph-name="D" horiz-adv-x="646" d="M286 630Q355 630 413 611T513 555T578 461T602 329Q602 240 574 178T499 76T388 18T254 0H76V630H286ZM183 86H245Q291 86 334 96T412 134T466 209T487 329Q487 433 428 488T268 544H183V86Z" />
<glyph unicode="E" glyph-name="E" horiz-adv-x="506" d="M76 630H466V544H183V370H440V285H183V86H469V0H76V630Z" />
<glyph unicode="F" glyph-name="F" horiz-adv-x="489" d="M456 630V544H183V352H434V267H183V0H76V630H456Z" />
<glyph unicode="G" glyph-name="G" horiz-adv-x="622" d="M360 640Q470 640 544 603L520 524Q484 541 448 549T372 557Q329 557 291 544T223 502T176 427T158 314Q158 197 211 136T361 74Q395 74 419 77T466 89V255H352V337H567V28Q527 12 477 1T360 -10Q294 -10
236 11T135 73T68 174T43 314Q43 393 67 454T133 556T234 619T360 640Z" />
<glyph unicode="H" glyph-name="H" horiz-adv-x="645" d="M76 0V630H183V370H462V630H569V0H462V282H183V0H76Z" />
<glyph unicode="I" glyph-name="I" horiz-adv-x="259" d="M183 630V0H76V630H183Z" />
<glyph unicode="J" glyph-name="J" horiz-adv-x="276" d="M206 630V115Q206 42 198 -4T163 -86Q131 -128 83 -143T-16 -160V-75Q13 -74 34 -66T70 -41Q88 -23 93 5T99 66V630H206Z" />
<glyph unicode="K" glyph-name="K" horiz-adv-x="588" d="M76 0V630H183V352L432 630H565L313 352L585 0H451L236 282L183 225V0H76Z" />
<glyph unicode="L" glyph-name="L" horiz-adv-x="460" d="M76 630H183V88H447V0H76V630Z" />
<glyph unicode="M" glyph-name="M" horiz-adv-x="818" d="M114 630H252L363 290Q377 247 387 213T409 135H412Q423 171 434 212T457 290L564 630H702L754 0H650Q642 100 635 201T623 405L619 520H617Q600 458 582 394T543 271L454 0H363L273 272Q259 315 249 350T230
414T214 470T201 520H198Q195 435 189 347T178 178L166 0H64L114 630Z" />
<glyph unicode="N" glyph-name="N" horiz-adv-x="672" d="M76 630H171L435 253Q453 227 469 201T496 154H498Q493 228 493 301T493 450V630H596V0H501L244 365Q225 392 207 423T176 480H174Q179 402 179 326T179 172V0H76V630Z" />
<glyph unicode="O" glyph-name="O" horiz-adv-x="692" d="M348 640Q413 640 468 619T563 557T625 455T648 315Q648 237 625 177T561 75T465 12T344 -10Q279 -10 224 11T129 73T67 174T44 315Q44 393 67 453T131 555T227 618T348 640ZM159 315Q159 254 174 209T214
133T274 89T348 74Q387 74 421 88T479 133T518 208T533 315Q533 378 518 423T478 498T418 542T344 556Q305 556 271 542T213 497T174 422T159 315Z" />
<glyph unicode="P" glyph-name="P" horiz-adv-x="535" d="M76 630H282Q333 630 374 617T445 580T491 520T508 438Q508 387 490 350T440 288T365 251T270 239H183V0H76V630ZM183 324H240Q274 324 302 329T352 346T385 380T397 436Q397 466 386 487T356 521T313
540T262 546H183V324Z" />
<glyph unicode="Q" glyph-name="Q" horiz-adv-x="689" d="M348 640Q413 640 468 619T563 557T625 455T648 315Q648 208 603 132T465 5L335 -68Q362 -69 386 -76T435 -91T486 -107T546 -114Q568 -114 591 -107T632 -86L672 -162Q648 -179 614 -189T545 -200Q507
-200 472 -191T403 -170T337 -149T271 -139Q243 -139 219 -146T168 -169L127 -94L284 -4Q230 5 186 30T111 95T62 190T44 315Q44 393 67 453T131 555T227 618T348 640ZM159 315Q159 254 173 208T211 132T268 86T341 70Q380 70 415 86T476 133T518 209T533 315Q533
378 518 423T478 498T418 542T344 556Q305 556 271 542T213 497T174 422T159 315Z" />
<glyph unicode="R" glyph-name="R" horiz-adv-x="548" d="M76 630H293Q343 630 381 616T446 576T485 515T498 439Q498 402 487 373T457 323T417 286T371 261L533 0H412L273 242H180V0H76V630ZM180 327H248Q278 327 303 333T347 352T376 385T387 435Q387 491 355
518T263 546H180V327Z" />
<glyph unicode="S" glyph-name="S" horiz-adv-x="515" d="M262 640Q365 640 442 602L417 517Q375 537 340 546T268 556Q214 556 183 533T152 469Q152 433 176 412T254 374L316 354Q398 328 436 282T474 174Q474 133 458 99T413 41T341 4T248 -10Q197 -10 147 -1T48
32L73 116Q116 95 157 85T243 74Q297 74 331 97T365 165Q365 197 342 222T250 269L191 288Q122 311 83 349T43 457Q43 540 99 590T262 640Z" />
<glyph unicode="T" glyph-name="T" horiz-adv-x="503" d="M494 630V542H304V0H197V542H10V630H494Z" />
<glyph unicode="U" glyph-name="U" horiz-adv-x="647" d="M70 630H177V253Q177 159 212 117T324 75Q400 75 434 120T469 241V630H576V246Q576 115 511 53T324 -10Q205 -10 138 52T70 251V630Z" />
<glyph unicode="V" glyph-name="V" horiz-adv-x="586" d="M113 630L235 285Q241 268 248 247T264 204T279 159T293 117H295Q300 136 307 157T321 201T335 243T348 278L476 630H587L347 0H238L0 630H113Z" />
<glyph unicode="W" glyph-name="W" horiz-adv-x="860" d="M116 630L211 284Q214 271 219 251T228 208T237 163T244 122H246Q249 140 253 162T262 207T272 250T281 284L380 630H482L582 286Q586 274 591 253T601 209T610 163T618 122H620Q623 140 627 162T636 206T646
250T655 286L745 630H853L676 0H564L471 337Q460 379 451 417T430 500H428Q417 455 408 418T388 339L298 0H188L7 630H116Z" />
<glyph unicode="X" glyph-name="X" horiz-adv-x="572" d="M141 630L285 393L435 630H554L349 320L564 0H440L283 247L128 0H8L217 320L17 630H141Z" />
<glyph unicode="Y" glyph-name="Y" horiz-adv-x="544" d="M128 630L278 360L428 630H543L327 263V0H220V263L10 630H128Z" />
<glyph unicode="Z" glyph-name="Z" horiz-adv-x="519" d="M487 630V567L155 84H493V0H26V72L352 546H39V630H487Z" />
<glyph unicode="[" glyph-name="bracketleft" horiz-adv-x="299" d="M76 -157V722H271V651H169V-85H271V-157H76Z" />
<glyph unicode="\" glyph-name="backslash" horiz-adv-x="325" d="M243 -88L0 720H81L325 -88H243Z" />
<glyph unicode="]" glyph-name="bracketright" horiz-adv-x="299" d="M29 -157V-85H130V651H29V722H224V-157H29Z" />
<glyph unicode="^" glyph-name="asciicircum" horiz-adv-x="513" d="M457 413H376L256 654L139 413H57L224 720H288L457 413Z" />
<glyph unicode="_" glyph-name="underscore" horiz-adv-x="368" d="M360 -185V-250H9V-185H360Z" />
<glyph unicode="`" glyph-name="grave" horiz-adv-x="212" d="M20 720H116L193 555H126L20 720Z" />
<glyph unicode="a" glyph-name="a" horiz-adv-x="495" d="M71 430Q117 455 159 467T254 480Q294 480 327 471T385 442T422 389T436 307V0H353L342 51H339Q311 19 274 5T192 -10Q121 -10 78 28T34 129Q34 168 50 196T95 244T164 272T252 282H332V318Q332 363 308
380T242 398Q216 398 184 390T109 358L71 430ZM333 214L270 213Q199 211 170 188T141 134Q141 114 147 101T165 80T190 69T220 65Q251 65 281 80T333 125V214Z" />
<glyph unicode="b" glyph-name="b" horiz-adv-x="549" d="M512 236Q512 179 495 134T449 56T380 7T295 -10Q249 -10 215 3T152 44H150L141 0H67V711H169V420Q198 450 235 465T313 480Q405 480 458 416T512 236ZM405 234Q405 310 373 354T284 398Q249 398 221 382T169
340V115Q187 94 211 81T267 68Q294 68 319 78T363 108T393 159T405 234Z" />
<glyph unicode="c" glyph-name="c" horiz-adv-x="448" d="M297 68Q329 68 353 75T398 93L419 19Q395 6 361 -2T286 -10Q234 -10 189 5T110 51T57 128T37 235Q37 291 55 336T106 414T185 463T286 480Q317 480 348 475T418 452L395 377Q348 403 297 403Q228 403
185 360T142 238Q142 190 155 158T191 105T240 77T297 68Z" />
<glyph unicode="d" glyph-name="d" horiz-adv-x="545" d="M376 711H479V0H398L386 52H382Q356 22 324 6T241 -10Q201 -10 165 5T100 52T54 129T37 235Q37 291 51 336T93 413T161 462T252 480Q287 480 320 469T376 438V711ZM376 355Q334 403 275 403Q249 403 225
394T182 365T152 314T141 238Q141 193 151 161T179 108T218 78T265 68Q301 68 328 84T376 129V355Z" />
<glyph unicode="e" glyph-name="e" horiz-adv-x="509" d="M474 218H143V214Q143 142 185 105T296 68Q334 68 364 74T426 95L446 20Q417 7 377 -1T289 -10Q238 -10 192 4T112 48T57 124T37 234Q37 289 53 334T100 412T174 462T271 480Q317 480 354 465T418 423T459
356T474 268V218ZM368 290Q368 314 362 335T344 371T313 396T266 406Q216 406 185 374T146 288L368 290Z" />
<glyph unicode="f" glyph-name="f" horiz-adv-x="344" d="M248 715Q279 715 311 707T368 685L347 615Q328 623 311 628T273 633Q229 633 210 609T190 524V472H326V396H190V0H88V396H18V472H88V552Q88 630 130 672T248 715Z" />
<glyph unicode="g" glyph-name="g" horiz-adv-x="550" d="M59 314Q59 353 73 384T114 436T176 469T254 480Q285 480 317 472H520V401H485L411 411Q428 392 438 367T448 315Q448 276 434 246T395 194T333 161T254 150Q240 150 228 151T203 154Q184 146 176 135T168
111Q168 91 182 83T222 75H341Q419 75 462 40T506 -62Q506 -101 489 -132T439 -186T360 -221T257 -233Q152 -233 91 -196T30 -87Q30 -52 53 -27T114 12Q96 24 85 40T74 84Q74 116 93 138T143 174Q107 191 83 225T59 314ZM173 -5Q127 -27 127 -71Q127 -111 159 -132T261
-153Q300 -153 327 -146T371 -126T397 -99T405 -68Q405 -30 380 -18T312 -5H173ZM345 313Q345 361 320 384T254 408Q212 408 188 385T163 316Q163 268 188 245T254 222Q296 222 320 245T345 313Z" />
<glyph unicode="h" glyph-name="h" horiz-adv-x="550" d="M170 0H67V711H170V418Q202 444 240 462T326 480Q366 480 396 468T445 435T474 385T484 322V0H381V299Q381 352 359 375T295 398Q264 398 232 383T170 340V0Z" />
<glyph unicode="i" glyph-name="i" horiz-adv-x="256" d="M76 0V472H179V0H76ZM128 589Q101 589 85 605T69 647Q69 672 85 688T128 705Q154 705 170 689T187 647Q187 621 171 605T128 589Z" />
<glyph unicode="j" glyph-name="j" horiz-adv-x="257" d="M77 472H180V70Q180 13 173 -35T146 -122T94 -192T9 -245L-37 -171Q-6 -155 15 -139T50 -97T70 -35T77 60V472ZM129 589Q102 589 86 605T70 647Q70 672 86 688T129 705Q155 705 171 689T188 647Q188 621
172 605T129 589Z" />
<glyph unicode="k" glyph-name="k" horiz-adv-x="487" d="M169 168V0H67V711H169V275L348 472H474L284 273L483 0H362L213 212L169 168Z" />
<glyph unicode="l" glyph-name="l" horiz-adv-x="240" d="M69 0V711H170V0H69Z" />
<glyph unicode="m" glyph-name="m" horiz-adv-x="834" d="M168 0H65V472H145L159 409Q192 442 230 461T319 480Q370 480 402 460T452 404Q486 440 527 460T619 480Q693 480 730 440T768 325V0H665V309Q665 352 647 375T586 398Q522 398 468 341V0H365V309Q365
352 347 375T286 398Q222 398 168 338V0Z" />
<glyph unicode="n" glyph-name="n" horiz-adv-x="544" d="M168 0H65V472H146L160 409Q195 443 233 461T321 480Q396 480 437 439T478 322V0H375V309Q375 350 354 374T291 398Q259 398 228 383T168 338V0Z" />
<glyph unicode="o" glyph-name="o" horiz-adv-x="545" d="M507 241Q507 182 489 135T438 56T363 7T270 -10Q220 -10 178 6T104 52T55 128T37 231Q37 291 55 337T106 415T181 463T274 480Q324 480 366 465T440 419T489 344T507 241ZM400 236Q400 281 389 312T360
364T319 393T271 402Q247 402 224 394T183 367T155 316T144 236Q144 192 155 160T184 108T225 78T273 68Q297 68 320 76T361 103T389 155T400 236Z" />
<glyph unicode="p" glyph-name="p" horiz-adv-x="541" d="M270 -10Q240 -10 212 -2T164 20V-230H62V478H145L158 419Q186 445 221 462T302 480Q396 480 450 419T504 246Q504 181 485 133T433 53T358 6T270 -10ZM277 399Q239 399 210 381T164 342V99Q205 68 257
68Q283 68 308 77T353 107T385 161T397 243Q397 314 368 356T277 399Z" />
<glyph unicode="q" glyph-name="q" horiz-adv-x="545" d="M376 31Q352 9 321 0T252 -10Q201 -10 162 7T94 57T52 135T37 236Q37 289 51 333T94 410T162 461T255 480Q287 480 325 467T386 427L396 472H479V-230H376V31ZM376 349Q359 371 333 387T274 403Q247 403
223 394T181 365T152 314T141 239Q141 154 177 111T269 68Q304 68 331 81T376 115V349Z" />
<glyph unicode="r" glyph-name="r" horiz-adv-x="378" d="M64 0V472H142L157 381Q174 423 212 451T304 480Q328 480 345 476T377 465L358 379Q346 385 331 389T295 393Q240 393 203 356T166 242V0H64Z" />
<glyph unicode="s" glyph-name="s" horiz-adv-x="416" d="M337 376Q305 391 278 397T223 404Q181 404 160 389T138 347Q138 327 154 313T220 284L250 275Q315 255 348 223T382 137Q382 71 332 31T195 -10Q148 -10 108 -2T35 22L59 100Q88 86 121 77T189 68Q232
68 256 83T280 129Q280 158 259 170T192 197L161 206Q98 227 68 259T37 343Q37 374 50 399T86 442T141 470T213 480Q250 480 288 473T360 451L337 376Z" />
<glyph unicode="t" glyph-name="t" horiz-adv-x="370" d="M325 396H191V141Q191 106 207 94T252 82Q272 82 294 86T334 97L350 21Q330 13 299 7T232 0Q156 0 123 31T89 125V396H17V472H89V621H191V472H325V396Z" />
<glyph unicode="u" glyph-name="u" horiz-adv-x="546" d="M378 472H481V0H402L389 57H385Q360 31 322 11T230 -10Q155 -10 110 32T65 158V472H168V169Q168 114 193 92T255 70Q294 70 324 86T378 130V472Z" />
<glyph unicode="v" glyph-name="v" horiz-adv-x="477" d="M357 472H466L293 0H185L12 472H123L217 178L238 80H242L263 177L357 472Z" />
<glyph unicode="w" glyph-name="w" horiz-adv-x="728" d="M10 472H119L193 191L211 79H215L237 191L310 472H420L496 191L517 79H521L542 191L614 472H719L580 0H461L387 278L365 394L342 278L266 0H151L10 472Z" />
<glyph unicode="x" glyph-name="x" horiz-adv-x="470" d="M295 240L461 0H343L273 103L232 173L194 104L126 0H10L175 240L19 472H134L200 371L239 303L276 371L337 472H449L295 240Z" />
<glyph unicode="y" glyph-name="y" horiz-adv-x="481" d="M8 472H119L214 217L248 104H250L283 218L369 472H474L295 -32Q265 -117 219 -170T97 -250L53 -169Q103 -150 140 -115T195 -22L203 1L8 472Z" />
<glyph unicode="z" glyph-name="z" horiz-adv-x="414" d="M386 411L145 76H391V0H24V64L264 396H39V472H386V411Z" />
<glyph unicode="{" glyph-name="braceleft" horiz-adv-x="326" d="M301 634Q250 634 227 607T204 523V393Q204 304 134 279V276Q204 242 204 135V5Q204 -38 227 -58T301 -81V-155Q218 -153 167 -111T116 7V150Q116 193 95 217T28 243V309Q73 315 94 335T116 400V555Q116
587 128 614T163 662T221 693T301 705V634Z" />
<glyph unicode="|" glyph-name="bar" horiz-adv-x="226" d="M72 -230V750H154V-230H72Z" />
<glyph unicode="}" glyph-name="braceright" horiz-adv-x="326" d="M24 709Q112 708 160 664T209 552V400Q209 356 230 335T297 309V243Q251 239 230 217T209 150V4Q209 -32 196 -61T159 -110T100 -142T24 -155V-82Q75 -80 98 -58T121 11V140Q121 242 192 275V278Q121
304 121 398V529Q121 582 98 606T24 633V709Z" />
<glyph unicode="~" glyph-name="asciitilde" horiz-adv-x="583" d="M46 207Q46 284 86 323T187 362Q217 362 245 350T299 323T349 296T398 283Q431 283 449 303T467 361H536Q536 318 525 289T495 241T452 214T402 206Q372 206 344 218T288 246T236 274T186 287Q152
287 134 264T115 207H46Z" />
<glyph unicode="&#xa0;" glyph-name="uni00A0" horiz-adv-x="226" />
<glyph unicode="&#xa1;" glyph-name="exclamdown" horiz-adv-x="251" d="M84 254H167L181 -242H72L84 254ZM60 410Q60 441 80 459T126 478Q153 478 172 460T191 410Q191 381 172 362T126 343Q100 343 80 362T60 410Z" />
<glyph unicode="&#xa2;" glyph-name="cent" horiz-adv-x="502" d="M318 144Q350 144 374 150T418 168L440 94Q401 74 348 68V-21H263V68Q219 74 182 91T117 138T74 210T58 306Q58 408 114 470T263 545V640H348V545Q391 542 438 520L416 445Q395 457 368 464T312
471Q243 471 203 430T163 310Q163 262 176 230T212 179T261 152T318 144Z" />
<glyph unicode="&#xa3;" glyph-name="sterling" horiz-adv-x="506" d="M76 0L54 67Q114 99 139 149T151 270H60V343H140Q136 365 133 391T129 446Q129 490 144 526T187 587T253 626T337 640Q375 640 407 632T457 613L434 538Q415 546 392 552T339 559Q283 559
255 526T226 442Q226 411 229 389T238 343H397V270H247Q254 210 242 165T188 88L189 84H466V0H76Z" />
<glyph unicode="&#xa4;" glyph-name="currency" horiz-adv-x="516" d="M81 66L34 113L117 196Q87 243 87 306Q87 339 94 366T116 415L34 498L82 545L163 462Q203 489 259 489Q312 489 352 461L435 545L482 498L398 415Q412 392 420 365T429 306Q429 272 421 244T399
194L482 112L435 65L352 148Q332 136 308 129T256 122Q204 122 163 149L81 66ZM352 306Q352 364 329 396T259 429Q214 429 189 399T164 306Q164 247 188 215T257 182Q296 182 324 210T352 306Z" />
<glyph unicode="&#xa5;" glyph-name="yen" horiz-adv-x="533" d="M494 225V158H317V0H213V158H34V225H213V264L184 313H34V380H148L7 630H123L269 348L415 630H527L382 380H494V313H345L317 264V225H494Z" />
<glyph unicode="&#xa6;" glyph-name="brokenbar" horiz-adv-x="242" d="M80 380V750H162V380H80ZM80 -180V188H162V-180H80Z" />
<glyph unicode="&#xa7;" glyph-name="section" horiz-adv-x="518" d="M82 36Q115 19 149 11T225 2Q276 2 299 22T323 71Q323 85 318 95T303 113T275 128T234 145L179 165Q119 187 87 221T54 305Q54 345 72 375T117 425Q94 454 94 497Q94 528 106 554T142 600T200
631T279 642Q364 642 429 611L406 539Q374 555 346 561T290 568Q241 568 217 551T192 503Q192 489 196 479T211 461T240 445T284 428L338 408Q398 386 431 352T464 267Q464 227 445 197T400 148Q422 117 422 77Q422 45 409 18T372 -29T314 -60T237 -72Q181 -72
138 -64T59 -38L82 36ZM372 253Q372 285 352 302T292 333L233 354Q218 359 203 365T175 380Q162 369 154 355T146 321Q146 289 167 272T225 242L283 221Q299 215 314 209T343 195Q355 206 363 220T372 253Z" />
<glyph unicode="&#xa8;" glyph-name="dieresis" horiz-adv-x="352" d="M33 622Q33 643 49 659T88 676Q111 676 127 660T143 622Q143 599 127 583T88 566Q65 566 49 582T33 622ZM210 622Q210 643 226 659T265 676Q288 676 303 660T319 622Q319 599 304 583T265
566Q242 566 226 582T210 622Z" />
<glyph unicode="&#xa9;" glyph-name="copyright" horiz-adv-x="706" d="M379 188Q401 188 419 193T454 206L469 156Q426 136 373 136Q336 136 304 147T248 179T210 234T196 311Q196 393 245 440T373 487Q396 487 417 484T466 468L452 417Q433 427 415 431T379
435Q328 435 297 403T265 313Q265 278 275 254T301 216T337 195T379 188ZM355 638Q419 638 476 618T576 557T644 456T670 314Q670 236 644 176T574 74T473 12T351 -9Q287 -9 230 11T130 72T62 173T36 314Q36 393 62 453T132 555T233 617T355 638ZM355 600Q299 600
250 582T162 527T102 438T80 314Q80 242 101 189T160 100T246 47T351 29Q406 29 456 47T543 102T603 191T625 314Q625 386 604 439T545 528T459 582T355 600Z" />
<glyph unicode="&#xaa;" glyph-name="ordfeminine" horiz-adv-x="340" d="M56 557Q86 573 114 581T177 589Q230 589 263 564T296 476V274H241L234 307H233Q197 268 136 268Q88 268 60 292T32 359Q32 410 72 434T175 459H228V483Q228 513 212 524T168 536Q151 536
130 530T81 509L56 557ZM228 415L186 413Q139 411 121 397T102 362Q102 336 118 327T154 317Q174 317 194 326T228 356V415Z" />
<glyph unicode="&#xab;" glyph-name="guillemotleft" horiz-adv-x="495" d="M374 76L231 236L374 397H460L329 236L460 76H374ZM184 76L41 236L184 397H270L139 236L270 76H184Z" />
<glyph unicode="&#xac;" glyph-name="logicalnot" horiz-adv-x="1087" />
<glyph unicode="&#xad;" glyph-name="uni00AD" horiz-adv-x="280" d="M250 335V249H30V335H250Z" />
<glyph unicode="&#xae;" glyph-name="registered" horiz-adv-x="531" d="M492 467Q492 410 476 367T429 295T358 252T266 237Q216 237 175 251T103 294T56 363T39 459Q39 515 55 557T102 628T173 671T264 686Q314 686 356 672T428 630T475 562T492 467ZM455 463Q455
513 440 549T398 610T338 645T264 657Q225 657 191 646T132 612T91 552T76 463Q76 413 90 376T129 314T189 277T266 265Q305 265 339 276T399 312T440 373T455 463ZM182 589H282Q323 589 344 568T366 513Q366 483 351 465T316 439L381 336H329L272 432H225V336H182V589ZM225
466H265Q289 466 305 476T321 511Q321 534 308 543T271 553H225V466Z" />
<glyph unicode="&#xaf;" glyph-name="overscore" horiz-adv-x="291" d="M263 660V597H28V660H263Z" />
<glyph unicode="&#xb0;" glyph-name="degree" horiz-adv-x="394" d="M362 467Q362 387 319 341T197 294Q123 294 79 340T34 467Q34 506 45 538T79 592T131 627T200 640Q236 640 266 628T317 593T350 538T362 467ZM290 467Q290 518 269 550T200 583Q153 583 130
553T106 467Q106 414 128 383T197 351Q238 351 264 379T290 467Z" />
<glyph unicode="&#xb1;" glyph-name="plusminus" horiz-adv-x="476" d="M406 68V0H62V68H406ZM440 375V306H273V141H203V306H36V375H203V540H273V375H440Z" />
<glyph unicode="&#xb2;" glyph-name="twosuperior" horiz-adv-x="320" d="M140 795Q118 795 97 789T49 766L17 820Q47 840 78 849T144 858Q215 858 253 822T291 731Q291 692 266 649T179 558L113 508H291V445H29L16 500L96 569Q157 620 184 655T211 729Q211 758
192 776T140 795Z" />
<glyph unicode="&#xb3;" glyph-name="threesuperior" horiz-adv-x="299" d="M21 835Q53 849 79 853T131 858Q158 858 182 850T225 828T254 793T265 748Q265 677 186 654V652Q228 644 253 620T279 558Q279 528 266 506T232 469T182 447T123 440Q96 440 64 445T10
458L27 517Q53 508 73 506T119 503Q151 503 173 519T196 565Q196 588 177 603T113 619H56V678H98Q142 678 163 695T184 741Q184 771 163 784T116 797Q98 797 79 793T40 780L21 835Z" />
<glyph unicode="&#xb4;" glyph-name="acute" horiz-adv-x="253" d="M103 553H31L109 715H211L103 553Z" />
<glyph unicode="&#xb5;" glyph-name="uni00B5" horiz-adv-x="545" d="M378 472H481V0H402L389 57H385Q361 31 325 11T234 -10Q192 -10 159 7L168 -73V-161H65V472H168V169Q168 114 193 92T255 70Q294 70 324 86T378 130V472Z" />
<glyph unicode="&#xb6;" glyph-name="paragraph" horiz-adv-x="567" d="M421 -179V565H330V-179H258V254Q146 254 91 305T35 445Q35 494 51 530T98 591T169 628T261 640H492V-179H421Z" />
<glyph unicode="&#xb7;" glyph-name="middot" horiz-adv-x="198" d="M36 331Q36 358 55 378T102 399Q130 399 149 379T168 331Q168 301 149 281T102 261Q75 261 56 281T36 331Z" />
<glyph unicode="&#xb8;" glyph-name="cedilla" horiz-adv-x="286" d="M127 0H186L161 -47Q203 -50 224 -69T246 -117Q246 -138 237 -153T213 -179T177 -195T133 -200Q110 -200 90 -196T57 -187L70 -141Q95 -150 124 -150Q149 -150 163 -142T177 -117Q177 -97 158
-88T91 -78L127 0Z" />
<glyph unicode="&#xb9;" glyph-name="onesuperior" horiz-adv-x="276" d="M146 851H209V445H128V767L40 727L22 794L146 851Z" />
<glyph unicode="&#xba;" glyph-name="ordmasculine" horiz-adv-x="633" />
<glyph unicode="&#xbb;" glyph-name="guillemotright" horiz-adv-x="495" d="M40 76L171 236L40 397H126L269 236L126 76H40ZM230 76L361 236L230 397H316L459 236L316 76H230Z" />
<glyph unicode="&#xbc;" glyph-name="onequarter" horiz-adv-x="826" d="M163 -10L572 640H642L233 -10H163ZM159 630H223V224H141V546L54 506L35 573L159 630ZM634 406H722V160H788V102H722V0H645V102H444V151L634 406ZM613 277L526 160H645V276L649 332H647L613 277Z" />
<glyph unicode="&#xbd;" glyph-name="onehalf" horiz-adv-x="851" d="M155 -10L564 640H634L225 -10H155ZM664 350Q642 350 621 344T573 321L541 375Q571 395 602 404T668 413Q738 413 776 377T814 286Q814 247 789 204T702 113L637 63H814V0H553L539 55L620 124Q681
175 707 210T734 284Q734 313 715 331T664 350ZM159 630H223V224H141V546L54 506L35 573L159 630Z" />
<glyph unicode="&#xbe;" glyph-name="threequarters" horiz-adv-x="865" d="M203 -10L612 640H682L273 -10H203ZM670 406H759V160H824V102H759V0H682V102H481V151L670 406ZM649 277L562 160H682V276L685 332H683L649 277ZM51 613Q83 627 109 631T161 636Q188 636
212 628T255 606T284 571T295 526Q295 455 216 432V430Q258 422 283 398T309 336Q309 306 296 284T262 247T212 225T153 218Q126 218 94 223T40 236L57 295Q83 286 103 284T149 281Q181 281 203 297T226 343Q226 366 207 381T143 397H86V456H128Q172 456 193 473T214
519Q214 549 193 562T146 575Q128 575 109 571T70 558L51 613Z" />
<glyph unicode="&#xbf;" glyph-name="questiondown" horiz-adv-x="437" d="M250 -249Q204 -249 168 -237T108 -202T70 -148T57 -81Q57 -28 86 14T155 94Q197 133 218 158T240 217Q240 229 239 239T232 263L318 277Q323 263 326 247T330 213Q330 191 325 173T309
137T283 101T247 62Q229 43 213 27T186 -5T169 -39T162 -77Q162 -94 167 -109T184 -137T214 -156T259 -163Q283 -163 307 -157T356 -132L397 -206Q368 -227 329 -238T250 -249ZM332 408Q332 379 313 360T266 341Q240 341 221 360T201 408Q201 438 220 456T266 475Q293
475 312 457T332 408Z" />
<glyph unicode="&#xc0;" glyph-name="Agrave" horiz-adv-x="601" d="M150 829H267L347 705H262L150 829ZM203 247H394L357 349Q340 391 328 427T301 511H299Q284 467 271 430T241 348L203 247ZM251 630H353L598 0H486L423 165H176L114 0H3L251 630Z" />
<glyph unicode="&#xc1;" glyph-name="Aacute" horiz-adv-x="601" d="M340 705H255L335 829H452L340 705ZM203 247H394L357 349Q340 391 328 427T301 511H299Q284 467 271 430T241 348L203 247ZM251 630H353L598 0H486L423 165H176L114 0H3L251 630Z" />
<glyph unicode="&#xc2;" glyph-name="Acircumflex" horiz-adv-x="601" d="M261 836H340L462 705H375L300 784L225 705H141L261 836ZM203 247H394L357 349Q340 391 328 427T301 511H299Q284 467 271 430T241 348L203 247ZM251 630H353L598 0H486L423 165H176L114
0H3L251 630Z" />
<glyph unicode="&#xc3;" glyph-name="Atilde" horiz-adv-x="601" d="M146 705Q146 752 167 785T234 818Q254 818 270 812T300 797T328 783T357 776Q376 776 384 790T394 821H449Q449 798 444 778T428 742T402 717T365 708Q344 708 326 714T293 728T264 742T238
749Q218 749 211 736T201 705H146ZM203 247H394L357 349Q340 391 328 427T301 511H299Q284 467 271 430T241 348L203 247ZM251 630H353L598 0H486L423 165H176L114 0H3L251 630Z" />
<glyph unicode="&#xc4;" glyph-name="Adieresis" horiz-adv-x="601" d="M158 758Q158 779 173 795T212 811Q235 811 250 795T266 758Q266 735 251 719T212 702Q189 702 174 718T158 758ZM333 758Q333 779 349 795T388 811Q411 811 426 795T442 758Q442 735 427
719T388 702Q365 702 349 718T333 758ZM203 247H394L357 349Q340 391 328 427T301 511H299Q284 467 271 430T241 348L203 247ZM251 630H353L598 0H486L423 165H176L114 0H3L251 630Z" />
<glyph unicode="&#xc5;" glyph-name="Aring" horiz-adv-x="601" d="M201 761Q201 805 229 825T300 846Q344 846 372 826T400 761Q400 716 370 696T300 675Q260 675 231 696T201 761ZM255 761Q255 738 266 725T300 712Q322 712 334 725T346 761Q346 783 334 796T300
809Q279 809 267 796T255 761ZM203 247H394L357 349Q340 391 328 427T301 511H299Q284 467 271 430T241 348L203 247ZM251 630H353L598 0H486L423 165H176L114 0H3L251 630Z" />
<glyph unicode="&#xc6;" glyph-name="AE" horiz-adv-x="803" d="M327 630H759V544H498V370H733V285H498V86H762V0H394V166H210L129 0H5L327 630ZM394 551L245 247H394V551Z" />
<glyph unicode="&#xc7;" glyph-name="Ccedilla" horiz-adv-x="563" d="M363 76Q412 76 444 84T506 107L529 24Q498 10 458 1T361 -10L345 -47Q396 -49 417 -73T438 -126Q438 -169 404 -191T318 -214Q295 -214 275 -211T241 -202L255 -155Q279 -164 308 -164Q369
-164 369 -125Q369 -116 366 -108T352 -93T324 -82T276 -78L307 -7Q250 0 202 24T118 89T63 187T43 315Q43 391 66 451T130 554T229 618T356 640Q419 640 459 630T531 602L506 521Q472 536 442 545T369 554Q326 554 288 541T221 499T175 425T158 315Q158 251 174
206T218 132T283 90T363 76Z" />
<glyph unicode="&#xc8;" glyph-name="Egrave" horiz-adv-x="511" d="M76 630H466V544H183V370H440V285H183V86H469V0H76V630ZM167 829H284L364 705H280L167 829Z" />
<glyph unicode="&#xc9;" glyph-name="Eacute" horiz-adv-x="506" d="M76 630H466V544H183V370H440V285H183V86H469V0H76V630ZM276 705H191L271 829H388L276 705Z" />
<glyph unicode="&#xca;" glyph-name="Ecircumflex" horiz-adv-x="506" d="M76 630H466V544H183V370H440V285H183V86H469V0H76V630ZM225 836H304L426 705H339L264 784L189 705H105L225 836Z" />
<glyph unicode="&#xcb;" glyph-name="Edieresis" horiz-adv-x="506" d="M76 630H466V544H183V370H440V285H183V86H469V0H76V630ZM130 758Q130 779 146 795T185 811Q207 811 223 795T239 758Q239 735 223 719T185 702Q162 702 146 718T130 758ZM306 758Q306 779
322 795T360 811Q383 811 399 795T415 758Q415 735 399 719T360 702Q338 702 322 718T306 758Z" />
<glyph unicode="&#xcc;" glyph-name="Igrave" horiz-adv-x="260" d="M183 630V0H76V630H183ZM-26 829H91L171 705H86L-26 829Z" />
<glyph unicode="&#xcd;" glyph-name="Iacute" horiz-adv-x="260" d="M183 630V0H76V630H183ZM173 705H88L168 829H285L173 705Z" />
<glyph unicode="&#xce;" glyph-name="Icircumflex" horiz-adv-x="260" d="M183 630V0H76V630H183ZM91 836H170L292 705H205L130 784L55 705H-29L91 836Z" />
<glyph unicode="&#xcf;" glyph-name="Idieresis" horiz-adv-x="260" d="M183 630V0H76V630H183ZM-14 758Q-14 779 2 795T40 811Q63 811 79 795T95 758Q95 735 79 719T40 702Q18 702 2 718T-14 758ZM162 758Q162 779 177 795T216 811Q239 811 254 795T270 758Q270
735 255 719T216 702Q193 702 178 718T162 758Z" />
<glyph unicode="&#xd0;" glyph-name="Eth" horiz-adv-x="678" d="M319 630Q388 630 446 611T546 555T611 461T635 329Q635 240 607 178T532 76T421 18T286 0H109V290H27V362H109V630H319ZM340 362V290H216V86H277Q323 86 367 96T445 134T499 209T520 329Q520 433
461 488T301 544H216V362H340Z" />
<glyph unicode="&#xd1;" glyph-name="Ntilde" d="M76 630H236L428 238L488 96H491L488 258V630H593V0H433L248 375L181 539H178L181 354V0H76V630ZM201 705Q201 752 222 785T289 818Q309 818 325 812T355 797T383 783T412 776Q430 776 438 790T449 821H504Q504
798 499 778T483 742T457 717T420 708Q399 708 381 714T347 728T318 742T293 749Q273 749 266 736T256 705H201Z" />
<glyph unicode="&#xd2;" glyph-name="Ograve" horiz-adv-x="692" d="M348 640Q413 640 468 619T563 557T625 455T648 315Q648 237 625 177T561 75T465 12T344 -10Q279 -10 224 11T129 73T67 174T44 315Q44 393 67 453T131 555T227 618T348 640ZM159 315Q159 254
174 209T214 133T274 89T348 74Q387 74 421 88T479 133T518 208T533 315Q533 378 518 423T478 498T418 542T344 556Q305 556 271 542T213 497T174 422T159 315ZM232 829H349L429 705H344L232 829Z" />
<glyph unicode="&#xd3;" glyph-name="Oacute" horiz-adv-x="692" d="M348 640Q413 640 468 619T563 557T625 455T648 315Q648 237 625 177T561 75T465 12T344 -10Q279 -10 224 11T129 73T67 174T44 315Q44 393 67 453T131 555T227 618T348 640ZM159 315Q159 254
174 209T214 133T274 89T348 74Q387 74 421 88T479 133T518 208T533 315Q533 378 518 423T478 498T418 542T344 556Q305 556 271 542T213 497T174 422T159 315ZM340 705H255L335 829H452L340 705Z" />
<glyph unicode="&#xd4;" glyph-name="Ocircumflex" horiz-adv-x="692" d="M348 640Q413 640 468 619T563 557T625 455T648 315Q648 237 625 177T561 75T465 12T344 -10Q279 -10 224 11T129 73T67 174T44 315Q44 393 67 453T131 555T227 618T348 640ZM159 315Q159
254 174 209T214 133T274 89T348 74Q387 74 421 88T479 133T518 208T533 315Q533 378 518 423T478 498T418 542T344 556Q305 556 271 542T213 497T174 422T159 315ZM308 836H387L509 705H422L347 784L272 705H188L308 836Z" />
<glyph unicode="&#xd5;" glyph-name="Otilde" horiz-adv-x="692" d="M348 640Q413 640 468 619T563 557T625 455T648 315Q648 237 625 177T561 75T465 12T344 -10Q279 -10 224 11T129 73T67 174T44 315Q44 393 67 453T131 555T227 618T348 640ZM159 315Q159 254
174 209T214 133T274 89T348 74Q387 74 421 88T479 133T518 208T533 315Q533 378 518 423T478 498T418 542T344 556Q305 556 271 542T213 497T174 422T159 315ZM190 706Q190 753 211 785T279 818Q299 818 315 812T345 798T373 784T402 777Q420 777 428 790T438
821H493Q493 799 488 779T472 743T446 718T409 709Q388 709 370 715T337 728T308 742T283 749Q263 749 255 737T245 706H190Z" />
<glyph unicode="&#xd6;" glyph-name="Odieresis" horiz-adv-x="692" d="M348 640Q413 640 468 619T563 557T625 455T648 315Q648 237 625 177T561 75T465 12T344 -10Q279 -10 224 11T129 73T67 174T44 315Q44 393 67 453T131 555T227 618T348 640ZM159 315Q159
254 174 209T214 133T274 89T348 74Q387 74 421 88T479 133T518 208T533 315Q533 378 518 423T478 498T418 542T344 556Q305 556 271 542T213 497T174 422T159 315ZM203 758Q203 779 219 795T258 811Q281 811 296 795T312 758Q312 735 297 719T258 702Q235 702
219 718T203 758ZM379 758Q379 779 395 795T434 811Q456 811 472 795T488 758Q488 735 472 719T434 702Q411 702 395 718T379 758Z" />
<glyph unicode="&#xd7;" glyph-name="multiply" horiz-adv-x="415" d="M38 180L160 302L38 424L85 471L207 349L329 471L376 424L254 302L376 180L329 133L207 255L85 133L38 180Z" />
<glyph unicode="&#xd8;" glyph-name="Oslash" horiz-adv-x="692" d="M506 750L553 732L501 604Q567 566 607 495T648 315Q648 237 625 177T561 75T465 12T344 -10Q319 -10 294 -6T245 4L181 -155L133 -134L197 22Q128 60 86 131T44 315Q44 393 67 453T131 555T227
618T348 640Q374 640 401 636T453 623L506 750ZM159 315Q159 237 180 187T238 109L415 543Q398 549 380 552T344 556Q305 556 271 542T213 497T174 422T159 315ZM348 74Q387 74 421 88T479 133T518 208T533 315Q533 390 513 439T459 516L284 84Q299 79 315 77T348
74Z" />
<glyph unicode="&#xd9;" glyph-name="Ugrave" horiz-adv-x="647" d="M70 630H177V253Q177 159 212 117T324 75Q400 75 434 120T469 241V630H576V246Q576 115 511 53T324 -10Q205 -10 138 52T70 251V630ZM198 829H314L394 705H310L198 829Z" />
<glyph unicode="&#xda;" glyph-name="Uacute" horiz-adv-x="647" d="M70 630H177V253Q177 159 212 117T324 75Q400 75 434 120T469 241V630H576V246Q576 115 511 53T324 -10Q205 -10 138 52T70 251V630ZM327 705H243L323 829H439L327 705Z" />
<glyph unicode="&#xdb;" glyph-name="Ucircumflex" horiz-adv-x="647" d="M70 630H177V253Q177 159 212 117T324 75Q400 75 434 120T469 241V630H576V246Q576 115 511 53T324 -10Q205 -10 138 52T70 251V630ZM285 836H364L487 705H399L324 784L249 705H166L285 836Z" />
<glyph unicode="&#xdc;" glyph-name="Udieresis" horiz-adv-x="647" d="M70 630H177V253Q177 159 212 117T324 75Q400 75 434 120T469 241V630H576V246Q576 115 511 53T324 -10Q205 -10 138 52T70 251V630ZM182 758Q182 779 198 795T236 811Q259 811 275 795T291
758Q291 735 275 719T236 702Q214 702 198 718T182 758ZM358 758Q358 779 373 795T412 811Q435 811 450 795T466 758Q466 735 451 719T412 702Q389 702 374 718T358 758Z" />
<glyph unicode="&#xdd;" glyph-name="Yacute" horiz-adv-x="533" d="M119 630L269 360L419 630H534L318 263V0H211V263L1 630H119ZM303 705H218L298 829H415L303 705Z" />
<glyph unicode="&#xde;" glyph-name="Thorn" horiz-adv-x="525" d="M70 630H171V500Q213 512 261 512Q308 512 348 499T418 460T465 400T482 320Q482 266 464 227T413 161T336 121T240 108Q226 108 207 109T171 113V0H70V630ZM171 196Q187 191 202 190T239 188Q302
188 339 220T377 312Q377 373 339 403T247 433Q225 433 205 430T171 422V196Z" />
<glyph unicode="&#xdf;" glyph-name="germandbls" horiz-adv-x="584" d="M72 0V477Q72 530 85 574T126 651T199 702T306 720Q343 720 378 709T440 677T484 625T501 554Q501 528 495 506T481 467Q430 456 408 436T385 384Q385 354 403 334T446 295Q487 266 514
231T541 143Q541 76 494 33T355 -10Q326 -10 292 -4T237 12L260 86Q302 68 348 68Q393 68 415 89T438 143Q438 172 420 192T366 238Q328 267 306 298T283 380Q283 425 311 457T393 507Q397 515 398 525T399 551Q399 596 372 618T302 640Q272 640 249 631T208 601T182
546T173 463V0H72Z" />
<glyph unicode="&#xe0;" glyph-name="agrave" horiz-adv-x="495" d="M71 430Q117 455 159 467T254 480Q294 480 327 471T385 442T422 389T436 307V0H353L342 51H339Q311 19 274 5T192 -10Q121 -10 78 28T34 129Q34 168 50 196T95 244T164 272T252 282H332V318Q332
363 308 380T242 398Q216 398 184 390T109 358L71 430ZM333 214L270 213Q199 211 170 188T141 134Q141 114 147 101T165 80T190 69T220 65Q251 65 281 80T333 125V214ZM138 692H251L321 553H242L138 692Z" />
<glyph unicode="&#xe1;" glyph-name="aacute" horiz-adv-x="495" d="M71 430Q117 455 159 467T254 480Q294 480 327 471T385 442T422 389T436 307V0H353L342 51H339Q311 19 274 5T192 -10Q121 -10 78 28T34 129Q34 168 50 196T95 244T164 272T252 282H332V318Q332
363 308 380T242 398Q216 398 184 390T109 358L71 430ZM333 214L270 213Q199 211 170 188T141 134Q141 114 147 101T165 80T190 69T220 65Q251 65 281 80T333 125V214ZM277 553H198L268 692H381L277 553Z" />
<glyph unicode="&#xe2;" glyph-name="acircumflex" horiz-adv-x="495" d="M71 430Q117 455 159 467T254 480Q294 480 327 471T385 442T422 389T436 307V0H353L342 51H339Q311 19 274 5T192 -10Q121 -10 78 28T34 129Q34 168 50 196T95 244T164 272T252 282H332V318Q332
363 308 380T242 398Q216 398 184 390T109 358L71 430ZM333 214L270 213Q199 211 170 188T141 134Q141 114 147 101T165 80T190 69T220 65Q251 65 281 80T333 125V214ZM406 553H322L255 635L187 553H100L219 690H290L406 553Z" />
<glyph unicode="&#xe3;" glyph-name="atilde" horiz-adv-x="495" d="M71 430Q117 455 159 467T254 480Q294 480 327 471T385 442T422 389T436 307V0H353L342 51H339Q311 19 274 5T192 -10Q121 -10 78 28T34 129Q34 168 50 196T95 244T164 272T252 282H332V318Q332
363 308 380T242 398Q216 398 184 390T109 358L71 430ZM333 214L270 213Q199 211 170 188T141 134Q141 114 147 101T165 80T190 69T220 65Q251 65 281 80T333 125V214ZM94 553Q94 604 116 637T183 670Q204 670 220 663T252 648T281 633T310 626Q330 626 338 641T347
674H402Q403 626 382 592T317 558Q295 558 276 564T242 579T213 594T187 601Q167 601 159 588T149 553H94Z" />
<glyph unicode="&#xe4;" glyph-name="adieresis" horiz-adv-x="495" d="M71 430Q117 455 159 467T254 480Q294 480 327 471T385 442T422 389T436 307V0H353L342 51H339Q311 19 274 5T192 -10Q121 -10 78 28T34 129Q34 168 50 196T95 244T164 272T252 282H332V318Q332
363 308 380T242 398Q216 398 184 390T109 358L71 430ZM333 214L270 213Q199 211 170 188T141 134Q141 114 147 101T165 80T190 69T220 65Q251 65 281 80T333 125V214ZM115 622Q115 643 131 659T170 676Q193 676 209 660T225 622Q225 599 209 583T170 566Q147 566
131 582T115 622ZM292 622Q292 643 308 659T347 676Q370 676 385 660T401 622Q401 599 386 583T347 566Q324 566 308 582T292 622Z" />
<glyph unicode="&#xe5;" glyph-name="aring" horiz-adv-x="495" d="M71 430Q117 455 159 467T254 480Q294 480 327 471T385 442T422 389T436 307V0H353L342 51H339Q311 19 274 5T192 -10Q121 -10 78 28T34 129Q34 168 50 196T95 244T164 272T252 282H332V318Q332
363 308 380T242 398Q216 398 184 390T109 358L71 430ZM333 214L270 213Q199 211 170 188T141 134Q141 114 147 101T165 80T190 69T220 65Q251 65 281 80T333 125V214ZM162 623Q162 645 170 661T191 687T222 703T258 708Q297 708 326 688T355 623Q355 601 347 585T325
559T294 543T258 537Q240 537 223 542T192 559T170 586T162 623ZM212 623Q212 600 224 587T258 574Q280 574 292 587T305 623Q305 646 292 659T258 672Q237 672 225 659T212 623Z" />
<glyph unicode="&#xe6;" glyph-name="ae" horiz-adv-x="788" d="M753 217H430V213Q430 140 470 104T579 68Q617 68 647 74T709 95L730 20Q701 7 662 -1T575 -10Q512 -10 462 9T380 74H377Q347 35 305 13T196 -10Q160 -10 130 0T79 28T46 72T34 129Q34 168 50 196T95
244T164 272T252 282H337V318Q337 363 311 380T242 398Q216 398 184 390T109 358L71 430Q117 455 158 467T253 480Q305 480 340 465T399 414H401Q430 449 469 464T554 480Q648 480 700 422T753 264V217ZM141 134Q141 114 147 101T165 80T190 69T220 65Q258 65 291
82T348 135Q342 152 339 171T334 214L270 213Q199 211 170 188T141 134ZM647 284Q647 308 642 330T625 369T595 396T549 406Q499 406 468 373T432 283L647 284Z" />
<glyph unicode="&#xe7;" glyph-name="ccedilla" horiz-adv-x="450" d="M299 68Q331 68 355 75T400 93L421 19Q396 6 363 -1T290 -10L271 -47Q313 -50 334 -69T356 -117Q356 -138 347 -153T323 -179T287 -195T243 -200Q220 -200 200 -196T167 -187L180 -141Q205
-150 234 -150Q259 -150 273 -142T287 -117Q287 -97 268 -88T201 -78L235 -5Q193 2 157 20T95 68T54 140T39 235Q39 291 57 336T108 414T187 463T288 480Q319 480 350 475T419 452L396 377Q350 403 299 403Q230 403 187 360T144 238Q144 190 157 158T193 105T242
77T299 68Z" />
<glyph unicode="&#xe8;" glyph-name="egrave" horiz-adv-x="509" d="M474 220H143V216Q143 144 185 106T296 68Q334 68 364 74T426 95L446 20Q417 7 377 -1T289 -10Q238 -10 192 4T112 48T57 124T37 234Q37 289 53 334T100 412T174 462T271 480Q317 480 354 465T418
423T459 356T474 268V220ZM368 290Q368 314 362 335T344 371T313 396T266 406Q216 406 185 374T146 288L368 290ZM158 692H271L341 553H262L158 692Z" />
<glyph unicode="&#xe9;" glyph-name="eacute" horiz-adv-x="509" d="M474 220H143V216Q143 144 185 106T296 68Q334 68 364 74T426 95L446 20Q417 7 377 -1T289 -10Q238 -10 192 4T112 48T57 124T37 234Q37 289 53 334T100 412T174 462T271 480Q317 480 354 465T418
423T459 356T474 268V220ZM368 290Q368 314 362 335T344 371T313 396T266 406Q216 406 185 374T146 288L368 290ZM282 553H203L273 692H386L282 553Z" />
<glyph unicode="&#xea;" glyph-name="ecircumflex" horiz-adv-x="509" d="M474 220H143V216Q143 144 185 106T296 68Q334 68 364 74T426 95L446 20Q417 7 377 -1T289 -10Q238 -10 192 4T112 48T57 124T37 234Q37 289 53 334T100 412T174 462T271 480Q317 480 354
465T418 423T459 356T474 268V220ZM368 290Q368 314 362 335T344 371T313 396T266 406Q216 406 185 374T146 288L368 290ZM418 553H334L267 635L199 553H112L231 690H302L418 553Z" />
<glyph unicode="&#xeb;" glyph-name="edieresis" horiz-adv-x="509" d="M474 220H143V216Q143 144 185 106T296 68Q334 68 364 74T426 95L446 20Q417 7 377 -1T289 -10Q238 -10 192 4T112 48T57 124T37 234Q37 289 53 334T100 412T174 462T271 480Q317 480 354
465T418 423T459 356T474 268V220ZM368 290Q368 314 362 335T344 371T313 396T266 406Q216 406 185 374T146 288L368 290ZM125 622Q125 643 141 659T180 676Q203 676 219 660T235 622Q235 599 219 583T180 566Q157 566 141 582T125 622ZM302 622Q302 643 318 659T357
676Q380 676 395 660T411 622Q411 599 396 583T357 566Q334 566 318 582T302 622Z" />
<glyph unicode="&#xec;" glyph-name="igrave" horiz-adv-x="257" d="M77 0V472H180V0H77ZM-5 692H108L178 553H98L-5 692Z" />
<glyph unicode="&#xed;" glyph-name="iacute" horiz-adv-x="257" d="M77 0V472H180V0H77ZM159 553H80L150 692H263L159 553Z" />
<glyph unicode="&#xee;" glyph-name="icircumflex" horiz-adv-x="257" d="M77 0V472H180V0H77ZM279 553H195L129 635L61 553H-26L92 690H164L279 553Z" />
<glyph unicode="&#xef;" glyph-name="idieresis" horiz-adv-x="257" d="M77 0V472H180V0H77ZM-18 622Q-18 643 -2 659T37 676Q60 676 75 660T91 622Q91 599 76 583T37 566Q14 566 -2 582T-18 622ZM158 622Q158 643 174 659T213 676Q236 676 252 660T268 622Q268
599 252 583T213 566Q191 566 175 582T158 622Z" />
<glyph unicode="&#xf0;" glyph-name="eth" horiz-adv-x="538" d="M249 457Q285 457 320 443T379 402L382 403Q368 454 336 500T267 574L156 518L131 561L224 607Q201 621 178 630T125 648L163 715Q202 705 241 686T314 642L406 689L432 646L354 607Q380 580 405
546T449 467T480 370T492 254Q492 197 478 149T435 65T363 10T264 -10Q225 -10 185 3T113 45T60 118T39 224Q39 279 55 322T100 396T167 441T249 457ZM266 380Q244 380 222 373T183 347T154 300T143 227Q143 182 154 152T183 103T223 76T269 68Q296 68 318 80T357
113T383 164T392 228Q392 264 382 292T354 340T314 370T266 380Z" />
<glyph unicode="&#xf1;" glyph-name="ntilde" horiz-adv-x="542" d="M167 0H64V472H144L158 409Q193 443 232 461T320 480Q395 480 436 439T477 322V0H374V309Q374 350 353 374T289 398Q258 398 226 383T167 338V0ZM115 553Q115 604 137 637T204 670Q225 670 241
663T273 648T302 633T331 626Q351 626 359 641T368 674H423Q424 626 403 592T338 558Q316 558 297 564T263 579T234 594T208 601Q188 601 180 588T170 553H115Z" />
<glyph unicode="&#xf2;" glyph-name="ograve" horiz-adv-x="548" d="M509 241Q509 182 491 135T440 56T365 7T272 -10Q222 -10 180 6T106 52T57 128T39 231Q39 291 57 337T108 415T183 463T276 480Q326 480 368 465T442 419T491 344T509 241ZM402 236Q402 281
391 312T362 364T321 393T273 402Q249 402 226 394T185 367T157 316T146 236Q146 192 157 160T186 108T227 78T275 68Q299 68 322 76T363 103T391 155T402 236ZM154 692H267L337 553H258L154 692Z" />
<glyph unicode="&#xf3;" glyph-name="oacute" horiz-adv-x="548" d="M509 241Q509 182 491 135T440 56T365 7T272 -10Q222 -10 180 6T106 52T57 128T39 231Q39 291 57 337T108 415T183 463T276 480Q326 480 368 465T442 419T491 344T509 241ZM402 236Q402 281
391 312T362 364T321 393T273 402Q249 402 226 394T185 367T157 316T146 236Q146 192 157 160T186 108T227 78T275 68Q299 68 322 76T363 103T391 155T402 236ZM296 553H216L286 692H399L296 553Z" />
<glyph unicode="&#xf4;" glyph-name="ocircumflex" horiz-adv-x="548" d="M509 241Q509 182 491 135T440 56T365 7T272 -10Q222 -10 180 6T106 52T57 128T39 231Q39 291 57 337T108 415T183 463T276 480Q326 480 368 465T442 419T491 344T509 241ZM402 236Q402
281 391 312T362 364T321 393T273 402Q249 402 226 394T185 367T157 316T146 236Q146 192 157 160T186 108T227 78T275 68Q299 68 322 76T363 103T391 155T402 236ZM425 553H341L274 635L206 553H119L237 690H309L425 553Z" />
<glyph unicode="&#xf5;" glyph-name="otilde" horiz-adv-x="548" d="M509 241Q509 182 491 135T440 56T365 7T272 -10Q222 -10 180 6T106 52T57 128T39 231Q39 291 57 337T108 415T183 463T276 480Q326 480 368 465T442 419T491 344T509 241ZM402 236Q402 281
391 312T362 364T321 393T273 402Q249 402 226 394T185 367T157 316T146 236Q146 192 157 160T186 108T227 78T275 68Q299 68 322 76T363 103T391 155T402 236ZM120 553Q120 604 141 637T209 670Q230 670 246 663T278 648T307 633T335 626Q355 626 363 641T373
674H428Q428 626 407 592T342 558Q320 558 301 564T267 579T238 594T212 601Q192 601 184 588T175 553H120Z" />
<glyph unicode="&#xf6;" glyph-name="odieresis" horiz-adv-x="548" d="M509 241Q509 182 491 135T440 56T365 7T272 -10Q222 -10 180 6T106 52T57 128T39 231Q39 291 57 337T108 415T183 463T276 480Q326 480 368 465T442 419T491 344T509 241ZM402 236Q402 281
391 312T362 364T321 393T273 402Q249 402 226 394T185 367T157 316T146 236Q146 192 157 160T186 108T227 78T275 68Q299 68 322 76T363 103T391 155T402 236ZM127 622Q127 643 143 659T182 676Q205 676 221 660T237 622Q237 599 221 583T182 566Q159 566 143
582T127 622ZM304 622Q304 643 320 659T359 676Q382 676 397 660T413 622Q413 599 398 583T359 566Q336 566 320 582T304 622Z" />
<glyph unicode="&#xf7;" glyph-name="divide" horiz-adv-x="538" d="M202 87Q202 113 221 132T267 151Q293 151 312 132T331 87Q331 60 312 41T267 22Q241 22 222 41T202 87ZM202 416Q202 441 221 460T267 480Q293 480 312 461T331 416Q331 388 312 370T267 351Q241
351 222 369T202 416ZM498 284V218H40V284H498Z" />
<glyph unicode="&#xf8;" glyph-name="oslash" horiz-adv-x="548" d="M365 567L412 554L381 460Q438 434 473 381T509 242Q509 183 491 136T441 57T366 8T273 -10Q241 -10 216 -4L188 -90L142 -76L171 10Q111 36 75 90T39 230Q39 290 57 336T107 415T182 463T275
480Q305 480 335 474L365 567ZM272 402Q248 402 225 394T185 367T157 316T146 235Q146 180 162 146T203 92L304 399Q289 402 272 402ZM402 236Q402 290 387 324T347 376L247 71Q260 68 276 68Q300 68 322 76T363 104T391 156T402 236Z" />
<glyph unicode="&#xf9;" glyph-name="ugrave" horiz-adv-x="546" d="M378 472H481V0H402L389 57H385Q360 31 322 11T230 -10Q155 -10 110 32T65 158V472H168V169Q168 114 193 92T255 70Q294 70 324 86T378 130V472ZM140 692H253L323 553H244L140 692Z" />
<glyph unicode="&#xfa;" glyph-name="uacute" horiz-adv-x="546" d="M378 472H481V0H402L389 57H385Q360 31 322 11T230 -10Q155 -10 110 32T65 158V472H168V169Q168 114 193 92T255 70Q294 70 324 86T378 130V472ZM299 553H220L290 692H403L299 553Z" />
<glyph unicode="&#xfb;" glyph-name="ucircumflex" horiz-adv-x="546" d="M378 472H481V0H402L389 57H385Q360 31 322 11T230 -10Q155 -10 110 32T65 158V472H168V169Q168 114 193 92T255 70Q294 70 324 86T378 130V472ZM425 553H341L274 635L206 553H119L238
690H309L425 553Z" />
<glyph unicode="&#xfc;" glyph-name="udieresis" horiz-adv-x="546" d="M378 472H481V0H402L389 57H385Q360 31 322 11T230 -10Q155 -10 110 32T65 158V472H168V169Q168 114 193 92T255 70Q294 70 324 86T378 130V472ZM129 622Q129 643 145 659T184 676Q207 676
222 660T238 622Q238 599 223 583T184 566Q161 566 145 582T129 622ZM305 622Q305 643 321 659T360 676Q383 676 399 660T415 622Q415 599 399 583T360 566Q338 566 322 582T305 622Z" />
<glyph unicode="&#xfd;" glyph-name="yacute" horiz-adv-x="481" d="M8 472H119L214 217L248 104H250L283 218L369 472H474L295 -32Q265 -117 219 -170T97 -250L53 -169Q103 -150 140 -115T195 -22L203 1L8 472ZM266 553H186L256 692H369L266 553Z" />
<glyph unicode="&#xfe;" glyph-name="thorn" horiz-adv-x="551" d="M512 236Q512 179 495 134T449 56T380 7T295 -10Q255 -10 225 -2T169 27V-163H67V711H169V422Q198 452 235 466T313 480Q405 480 458 416T512 236ZM405 234Q405 310 373 354T284 398Q249 398
221 384T169 343V113Q187 92 211 80T267 68Q294 68 319 78T363 108T393 159T405 234Z" />
<glyph unicode="&#xff;" glyph-name="ydieresis" horiz-adv-x="481" d="M8 472H119L214 217L248 104H250L283 218L369 472H474L295 -32Q265 -117 219 -170T97 -250L53 -169Q103 -150 140 -115T195 -22L203 1L8 472ZM97 622Q97 643 113 659T152 676Q175 676 191
660T207 622Q207 599 191 583T152 566Q130 566 114 582T97 622ZM274 622Q274 643 290 659T329 676Q352 676 368 660T384 622Q384 599 368 583T329 566Q306 566 290 582T274 622Z" />
<glyph unicode="&#x2013;" glyph-name="endash" horiz-adv-x="514" d="M466 256V188H48V256H466Z" />
<glyph unicode="&#x2014;" glyph-name="emdash" horiz-adv-x="927" d="M879 255V188H48V255H879Z" />
<glyph unicode="&#x2018;" glyph-name="quoteleft" horiz-adv-x="212" d="M116 605Q144 600 159 580T174 534Q174 508 157 488T106 467Q93 467 79 472T54 489T35 521T27 572Q27 601 36 628T62 678T99 720T145 752L177 708Q149 693 128 668T99 608L116 605Z" />
<glyph unicode="&#x2019;" glyph-name="quoteright" horiz-adv-x="212" d="M96 614Q68 619 53 638T38 684Q38 711 56 731T107 752Q120 752 133 747T158 731T177 699T185 649Q185 619 176 592T150 542T113 499T67 467L35 511Q63 526 84 551T113 611L96 614Z" />
<glyph unicode="&#x201a;" glyph-name="quotesinglbase" horiz-adv-x="204" d="M86 -7Q58 -3 43 17T27 63Q27 89 45 110T97 131Q110 131 124 126T149 110T168 78T176 28Q176 -2 167 -29T142 -79T105 -122T59 -154L27 -110Q54 -95 76 -70T105 -10L86 -7Z" />
<glyph unicode="&#x201c;" glyph-name="quotedblleft" horiz-adv-x="421" d="M116 605Q144 600 159 580T174 534Q174 508 157 488T107 467Q94 467 80 472T54 489T35 521T27 572Q27 601 36 628T62 678T99 720T145 752L177 708Q149 693 128 668T99 608L116 605ZM325
605Q353 600 368 580T383 534Q383 508 366 488T316 467Q303 467 289 472T263 489T244 521T236 572Q236 631 270 678T354 752L386 708Q358 693 337 668T308 608L325 605Z" />
<glyph unicode="&#x201d;" glyph-name="quotedblright" horiz-adv-x="421" d="M96 614Q68 618 53 638T38 684Q38 711 56 731T107 752Q120 752 133 747T158 731T177 699T185 649Q185 619 176 592T150 542T113 499T67 467L35 511Q63 526 84 551T113 611L96 614ZM305
614Q277 618 262 638T247 684Q247 711 264 731T315 752Q328 752 342 747T367 731T385 699T393 649Q393 619 384 592T359 542T322 499T276 467L244 511Q271 526 293 551T322 611L305 614Z" />
<glyph unicode="&#x201e;" glyph-name="quotedblbase" horiz-adv-x="415" d="M86 -7Q58 -3 43 17T27 63Q27 89 45 110T97 131Q110 131 124 126T149 110T168 78T176 28Q176 -2 167 -29T142 -79T105 -122T59 -154L27 -110Q54 -95 76 -70T105 -10L86 -7ZM297 -7Q270
-3 255 17T239 63Q239 89 257 110T308 131Q321 131 335 126T361 110T380 78T388 28Q388 -2 379 -29T353 -79T316 -122T270 -154L238 -110Q266 -95 287 -70T316 -10L297 -7Z" />
<glyph unicode="&#x2022;" glyph-name="bullet" horiz-adv-x="364" d="M55 268Q55 295 65 318T92 358T132 386T182 396Q208 396 231 386T272 359T300 318T310 268Q310 242 300 219T273 178T232 151T182 141Q156 141 133 151T92 178T65 218T55 268Z" />
<glyph unicode="&#x2039;" glyph-name="guilsinglleft" horiz-adv-x="309" d="M184 76L41 236L184 397H270L139 236L270 76H184Z" />
<glyph unicode="&#x203a;" glyph-name="guilsinglright" horiz-adv-x="305" d="M40 76L171 236L40 397H126L269 236L126 76H40Z" />
</font>
</defs>
</svg>
