<?xml version="1.0" standalone="no"?>
<!DOCTYPE svg PUBLIC "-//W3C//DTD SVG 1.1//EN" "http://www.w3.org/Graphics/SVG/1.1/DTD/svg11.dtd">
<svg xmlns="http://www.w3.org/2000/svg">
<defs >
<font id="FredokaOne" horiz-adv-x="486" ><font-face
    font-family="Fredoka One"
    units-per-em="1000"
    panose-1="2 0 0 0 0 0 0 0 0 0"
    ascent="974"
    descent="-236"
    alphabetic="0" />
<glyph unicode=" " glyph-name="space" horiz-adv-x="253" />
<glyph unicode="!" glyph-name="exclam" horiz-adv-x="267" d="M60 172T80 179T144 186T207 167T227 107V91Q227 67 226 56T216 28Q200 -1 140 -1T60 18T40 94Q40 133 50 152ZM165 264T133 264T82 269T56 287T47 310T45 341V658Q45 679 46 689T56 713T83 731T134
737T185 732T211 713T220 689T222 657V340Q222 319 221 309T211 287T184 269Z" />
<glyph unicode="&quot;" glyph-name="quotedbl" horiz-adv-x="429" d="M183 563T161 472T104 381T47 472T25 635Q25 698 42 714Q63 733 97 733T149 726T174 702Q183 677 183 620ZM404 563T382 472T325 381T268 472T246 635Q246 712 280 726Q297 733 325 733T371
726T394 702Q404 677 404 620Z" />
<glyph unicode="#" glyph-name="numbersign" horiz-adv-x="749" d="M631 541H682Q701 541 709 540T726 529T734 503T731 465T715 429T692 412T659 410H609L591 300H642Q661 300 669 299T686 288T694 262T691 227T682 196T664 176Q648 168 619 168H569Q559 106
557 91L555 80Q551 58 549 49T538 27Q522 4 464 4T406 41Q406 42 414 93L426 168H277Q267 106 265 91L263 80Q259 58 257 49T246 27Q230 4 172 4T114 41Q114 42 122 93L134 168H68Q26 168 18 186Q15 194 15 209T18 245T34 281T58 298T91 300H156L174 410H108Q65
410 58 427Q55 436 55 451T58 486T74 522T98 539T131 541H196L213 644Q214 650 215 663T218 682T223 698T231 712T246 722Q260 731 297 731T348 721T363 689Q363 686 358 654L339 541H488L505 644Q506 650 507 663T510 682T515 698T523 712T538 722Q552 731 589
731T640 721T655 689Q655 686 650 654L631 541ZM448 300L466 410H318L299 300H448Z" />
<glyph unicode="$" glyph-name="dollar" horiz-adv-x="475" d="M450 243Q450 165 405 118T296 56V-8Q296 -43 290 -57T271 -76T237 -81T204 -76T186 -58Q179 -41 179 -7V55Q138 64 105 85T59 122L46 139Q25 166 25 186T59 239Q79 258 101 258T164 218Q195 180
234 180Q308 180 308 241Q308 263 280 275T212 296T132 322T64 377T36 476T74 584T179 646V702Q179 736 185 751Q195 775 238 775Q265 775 278 764T294 739T296 701V645Q324 639 347 628T379 610L388 602L392 599Q417 576 417 561T394 511T342 476Q324 476 312
485T292 500T279 510Q262 521 236 521T193 509T176 474T196 439T247 421T313 406T379 381T429 332T450 243Z" />
<glyph unicode="%" glyph-name="percent" horiz-adv-x="838" d="M461 270T506 321T631 372T755 322T798 184T755 47T633 -2T508 48T461 184ZM629 118Q690 118 690 186Q690 222 676 237T630 252T584 237T570 185T584 134T629 118ZM40 634T85 685T210 736T333 686T377
548T334 412T212 363T87 413T40 548ZM208 483Q268 483 268 550Q268 586 254 601T209 616T163 601T148 550T163 499T208 483ZM577 761Q590 784 602 784T639 771T663 743Q663 736 656 724L269 -7L267 -10Q256 -30 244 -30T208 -18T184 7T191 31L577 761Z" />
<glyph unicode="&amp;" glyph-name="ampersand" horiz-adv-x="748" d="M646 -1Q559 -1 474 44Q379 -8 282 -8Q25 -8 25 206Q25 317 140 412Q100 501 100 573Q100 673 160 721T321 769T474 721T526 590Q526 520 469 464Q427 422 351 371Q410 293 479 239Q507 282
518 327Q528 371 608 371Q642 371 659 362T679 344T681 319Q677 243 619 168Q634 165 647 165Q725 165 725 86Q725 31 707 15T646 -1ZM258 585Q258 549 275 504Q322 534 345 554T369 592Q369 636 320 636Q258 636 258 585ZM289 140Q314 140 334 144Q276 196 224
268Q201 239 201 208Q201 140 289 140Z" />
<glyph unicode="&apos;" glyph-name="quotesingle" horiz-adv-x="208" d="M183 563T161 472T104 381T47 472T25 635Q25 698 42 714Q63 733 97 733T149 726T174 702Q183 677 183 620Z" />
<glyph unicode="(" glyph-name="parenleft" horiz-adv-x="384" d="M241 -54T262 -76T303 -99T330 -100T349 -107T364 -127T369 -164T365 -200T349 -220Q332 -228 304 -228Q236 -228 182 -181T95 -58Q30 96 30 272Q30 447 92 600Q124 678 179 726T305 775Q335 775
348 768Q369 755 369 710Q369 663 351 654Q337 646 310 646H304Q265 646 224 557Q205 514 193 440T180 273T192 107T222 -10Z" />
<glyph unicode=")" glyph-name="parenright" horiz-adv-x="384" d="M45 -101T53 -100T81 -99T121 -77T162 -10Q204 89 204 274Q204 365 192 439T160 557Q119 646 80 646H74Q47 646 35 652Q15 663 15 707T31 763T79 775Q150 775 205 727T292 600Q354 447 354 272Q354
96 289 -58Q257 -133 203 -180T80 -228Q29 -228 20 -200Q15 -187 15 -164T19 -127T34 -107Z" />
<glyph unicode="*" glyph-name="asterisk" horiz-adv-x="503" d="M480 579Q488 552 488 536T478 506T457 488T424 475L382 462L415 416L423 404Q436 382 436 371Q436 342 397 314T341 286T313 293Q298 303 281 327L252 367L215 317Q193 284 171 284T108 313T67
370Q67 387 88 416L121 462L79 475Q43 482 25 504Q15 517 15 535T22 575Q44 641 80 641Q94 641 107 637T120 632L171 616V668Q171 702 179 718T205 739T252 744T298 739T323 720Q333 701 333 663V616L382 632Q414 642 424 642Q459 642 480 579Z" />
<glyph unicode="+" glyph-name="plus" horiz-adv-x="527" d="M343 353H424Q459 353 475 345T496 319T502 274T497 228T480 204Q462 195 429 195H343V114Q343 79 335 63T309 42T264 36T218 41T194 60Q185 79 185 115V195H98Q65 195 50 203T30 228T25 274T30 319T50
344Q69 353 105 353H185V434Q185 469 193 485T218 506T264 512T309 507T334 488Q343 469 343 433V353Z" />
<glyph unicode="," glyph-name="comma" horiz-adv-x="238" d="M46 173T66 179T130 186T193 167T213 91Q213 70 210 52Q201 -33 154 -96T44 -159Q37 -159 32 -149T26 -122T30 -95T42 -83T56 -75T77 -48T92 0Q60 4 43 21T25 78T27 129T37 157Z" />
<glyph unicode="-" glyph-name="hyphen" horiz-adv-x="433" d="M335 139H97Q41 139 30 173Q25 191 25 219T31 264T50 288Q68 297 98 297H336Q392 297 402 264Q408 246 408 218T403 173T385 148Q367 139 335 139Z" />
<glyph unicode="." glyph-name="period" horiz-adv-x="237" d="M195 165Q212 148 212 95V91Q212 67 211 56T200 28Q185 -1 125 -1T45 18T25 90V94Q25 117 26 129T36 156Q51 186 111 186T195 165Z" />
<glyph unicode="/" glyph-name="slash" horiz-adv-x="526" d="M176 -8Q168 -25 164 -33T149 -48T121 -56T71 -41T27 -15T15 11T27 61L349 734Q368 772 383 778Q391 782 406 782T457 766Q511 740 511 709Q511 696 497 659L176 -8Z" />
<glyph unicode="0" glyph-name="zero" horiz-adv-x="608" d="M130 689T182 716T304 744T424 717T505 650T553 556Q583 466 583 365Q583 184 505 78Q476 38 425 12T305 -14T185 12T103 78T54 171Q25 257 25 366Q25 466 48 537T101 648ZM303 164Q406 164 406 360V366Q406
567 304 567T202 366T303 164Z" />
<glyph unicode="1" glyph-name="one" horiz-adv-x="407" d="M218 708Q244 734 274 734T322 729T348 718T362 696Q367 679 367 643V86Q367 63 366 52T356 25Q342 -2 278 -2Q216 -2 201 24Q193 39 192 51T190 88V445L177 433Q136 402 107 402T47 437T15 499T51 558L215
706L218 708Z" />
<glyph unicode="2" glyph-name="two" horiz-adv-x="609" d="M506 176Q547 176 564 167T588 138T594 87T588 36T566 10Q544 -2 504 -2H113Q77 -2 51 25T25 88Q25 142 62 187T153 265T259 329T349 401T387 486Q387 495 380 511T365 538T338 558T288 567T233 544T206
497L202 474V468Q202 446 201 435T191 410Q176 386 113 386Q43 386 30 424Q25 440 25 475Q25 579 99 661T294 744T490 661T565 470Q565 413 540 362T480 280Q406 214 348 191L323 181V176H506Z" />
<glyph unicode="3" glyph-name="three" horiz-adv-x="608" d="M425 744T496 674T567 517T489 390V383Q499 378 518 362T550 329Q583 287 583 233Q583 126 503 57T302 -13Q182 -13 102 57Q72 84 49 128Q41 144 38 154L36 164Q25 197 25 218Q25 276 123 276Q163
276 176 266Q193 253 206 214Q216 182 261 166Q280 160 303 160Q356 160 381 181T406 230T382 277T324 298T278 300T252 310Q225 323 225 387Q225 457 262 470Q279 475 314 475Q390 475 390 514Q390 535 370 554T315 573T258 561T232 537L226 525Q203 475 160 475Q135
475 105 493Q55 522 55 560Q55 576 78 628Q82 637 100 659T141 699T207 730T302 744Q425 744 496 674Z" />
<glyph unicode="4" glyph-name="four" horiz-adv-x="592" d="M393 723T412 728T463 734T514 728T541 707T550 680T552 645V89Q552 50 543 32T514 7T465 1T419 6T393 18T380 38Q374 55 374 90V212H103Q33 212 20 250Q15 266 15 293T18 333L101 668Q107 691 111
703T129 726T164 737T210 730Q280 711 280 666Q280 650 273 624Q272 622 272 621L211 377H374V650Q374 673 375 684T385 709Z" />
<glyph unicode="5" glyph-name="five" horiz-adv-x="530" d="M156 735L308 734H402Q426 734 437 733T463 723Q490 709 490 643Q490 583 465 570Q451 562 441 561T408 559H233Q231 547 223 483Q234 485 258 485Q353 485 429 414T505 239T433 61T254 -14Q161 -14
86 33Q69 44 61 52L53 59Q15 92 15 119T52 184Q82 217 110 217T177 185Q195 164 239 164T305 183T327 235T304 288T250 308T202 290Q175 267 148 267T85 286T38 316T27 341T47 502T68 656T75 677T89 704T115 725T156 735Z" />
<glyph unicode="6" glyph-name="six" horiz-adv-x="560" d="M535 224Q535 123 463 55T287 -13Q157 -13 91 70T25 286Q25 477 133 605T430 733Q468 733 485 724T509 695T515 647T510 601T498 575T478 562Q461 556 420 556T341 542T280 508Q236 467 226 434L221
420Q258 437 295 437Q394 437 464 372T535 224ZM283 151Q360 151 360 218Q360 241 343 261T287 281T228 263T207 225T209 196T219 174Q233 151 283 151Z" />
<glyph unicode="7" glyph-name="seven" horiz-adv-x="561" d="M458 732Q528 732 540 694Q546 678 546 638T520 539T458 421T384 304Q296 161 296 74Q296 52 294 42T284 20T258 4T207 0T157 4T130 20T121 42T119 76Q119 141 141 209T194 332T256 431T309 509T331
555H103Q63 555 45 565T21 594T15 644T21 694T40 720Q61 732 98 732H458Z" />
<glyph unicode="8" glyph-name="eight" horiz-adv-x="582" d="M557 235Q557 123 476 55T291 -14T107 54T25 235Q25 277 45 316T86 374L107 393Q100 399 90 409T64 452T47 522Q47 620 121 684T293 748T463 683T535 517Q535 487 521 456T491 409L476 393Q485 386
498 373T534 318T557 235ZM358 543T341 560T291 578T241 561T225 524T242 485T292 467T341 485T358 523ZM248 155T292 155T358 179T380 230T358 282T292 306T225 283T202 231T225 179Z" />
<glyph unicode="9" glyph-name="nine" horiz-adv-x="560" d="M25 508Q25 609 97 677T272 745Q403 745 469 662T535 446Q535 255 427 127T132 -1H126Q88 -1 72 9Q44 26 44 88Q44 158 82 170Q99 176 140 176T219 190T279 224Q322 265 334 298L339 312Q301 295 264
295Q166 295 96 360T25 508ZM276 581Q199 581 199 514Q199 491 216 471T273 451T332 469T353 506T351 535T340 558Q325 581 276 581Z" />
<glyph unicode=":" glyph-name="colon" horiz-adv-x="238" d="M174 505T193 485T213 410Q212 386 211 375T200 347Q185 318 125 318T45 337T25 413Q25 471 46 487Q71 505 122 505ZM174 186T193 167T213 91Q212 67 211 56T200 28Q185 -1 125 -1T45 18T25 94Q25
152 46 168Q71 186 122 186Z" />
<glyph unicode=";" glyph-name="semicolon" horiz-adv-x="237" d="M195 484Q212 466 212 414V410Q212 386 211 375T200 347Q185 318 125 318T45 337T25 409V413Q25 436 26 448T36 476Q51 505 111 505T195 484ZM195 165Q212 148 212 95V91Q212 -19 154 -97Q107
-160 44 -160Q37 -160 32 -150T26 -122T30 -96T42 -84T56 -76T76 -49T92 0Q59 4 42 20T25 90V94Q25 117 26 129T36 156Q51 186 111 186T195 165Z" />
<glyph unicode="&lt;" glyph-name="less" horiz-adv-x="627" d="M54 275Q15 294 15 344T55 414Q398 617 449 648T510 682Q521 687 536 687Q563 687 592 638Q611 607 611 592T604 565Q595 549 563 528Q265 352 253 344L563 160Q582 149 590 142Q612 124 612 103Q612
83 595 55T563 14T534 2Q514 2 482 21L54 275Z" />
<glyph unicode="=" glyph-name="equal" horiz-adv-x="478" d="M383 254H94Q42 254 32 286Q26 303 26 329T31 372T49 395Q67 404 95 404H384Q437 404 448 372Q453 356 453 329T448 286T431 263T411 255T383 254ZM383 42H94Q41 42 30 74Q25 91 25 117T30 160T48
183Q67 192 95 192H384Q436 192 446 160Q452 144 452 117T447 74T430 51T410 43T383 42Z" />
<glyph unicode="&gt;" glyph-name="greater" horiz-adv-x="627" d="M572 414Q612 394 612 344T573 275L146 21Q95 -12 64 14Q50 26 35 50Q15 83 15 98T21 124Q32 141 64 160L375 344L65 528Q47 539 38 546Q16 565 16 587Q16 607 33 635Q64 687 91 687Q115 687
145 668L572 414Z" />
<glyph unicode="?" glyph-name="question" horiz-adv-x="512" d="M173 335L174 343Q174 386 198 411T252 444T305 471T330 522T312 573T256 591T202 580T180 556L177 544Q168 518 156 505T125 491T75 503Q15 526 15 560Q15 575 21 590T31 616T52 653T92 698T156
734T247 751Q353 751 420 683T487 525Q487 482 472 446T434 388Q390 346 352 332L336 327Q336 310 335 301T326 282T301 267T254 262T208 267T183 284T175 305T173 335ZM177 172T197 179T262 186T325 167T345 91Q345 51 335 32T305 6T241 -1T175 20Q158 37 158
78V94Q158 117 159 129T169 156Z" />
<glyph unicode="@" glyph-name="at" horiz-adv-x="908" d="M812 522T847 444T883 278T859 130T796 33Q717 -41 622 -41Q556 -41 512 -1T468 108Q468 116 470 132Q437 96 379 96T276 145T230 265Q230 354 296 415T423 477T509 437Q514 457 528 467T576 478T622
468T635 444T633 414L599 158Q592 117 592 105T599 89T623 84T654 88T688 104T723 137Q759 185 759 265T733 398T662 482Q570 544 441 544T231 471T150 271T212 70T406 -5H425Q449 -5 458 -16T468 -59T464 -103T448 -122Q434 -130 405 -130Q229 -130 127 -22T25
270Q25 392 83 484T233 622T427 668T608 644T750 571ZM358 256T374 240T416 223T462 242T486 286V292Q486 315 472 332T429 350T381 331T358 286V279Q358 256 374 240Z" />
<glyph unicode="A" glyph-name="A" horiz-adv-x="765" d="M463 681L733 123Q750 89 750 72Q750 36 692 7Q658 -10 639 -10T607 -1T589 18T573 48L521 156H244L192 48Q182 28 177 19T159 1T127 -9T73 8Q15 36 15 72Q15 89 32 123L302 682Q313 705 335 719T383 733Q437
733 463 681ZM382 441L316 304H449L382 441Z" />
<glyph unicode="B" glyph-name="B" horiz-adv-x="646" d="M562 393Q621 323 621 236Q619 136 553 69T391 1H128Q58 1 46 39Q40 56 40 91V646Q40 670 41 681T51 707Q65 734 129 734H381Q473 734 535 670Q600 605 600 514Q600 448 562 393ZM444 246Q444 270 439
284T420 304Q400 312 364 312T310 326T292 383T310 441T372 455Q412 455 420 476Q423 487 423 512T407 547T357 557H217V178H381Q444 178 444 246Z" />
<glyph unicode="C" glyph-name="C" horiz-adv-x="679" d="M498 192L516 205Q550 225 564 225Q595 225 631 169Q653 134 653 113T640 78T608 53T574 32T506 6T408 -10T312 2T212 44T119 116T52 225T25 370T51 511T117 616T210 686Q308 740 407 740Q454 740 502
726T576 696L600 682Q618 671 628 664Q654 643 654 617T633 561Q594 507 563 507Q545 507 512 529Q470 563 400 563Q335 563 272 518Q242 496 222 456T202 366T222 275T273 212Q334 168 400 168Q431 168 458 176T498 192Z" />
<glyph unicode="D" glyph-name="D" horiz-adv-x="704" d="M129 734L314 733Q459 733 569 629T679 372T572 110T311 1H128Q67 1 52 26Q40 47 40 90V646Q40 670 41 681T51 707Q65 734 129 734ZM386 178T444 231T502 366T446 501T313 556H217V178H314Q386 178 444 231Z" />
<glyph unicode="E" glyph-name="E" horiz-adv-x="638" d="M217 177H525Q548 177 559 176T586 166Q613 152 613 88Q613 18 576 6Q559 0 524 0H128Q58 0 46 38Q40 54 40 89V645Q40 696 59 714T131 733H525Q548 733 559 732T586 722Q613 708 613 644Q613 574 576
562Q559 556 524 556H217V455H415Q438 455 449 454T476 444Q503 430 503 366Q503 296 465 284Q448 278 413 278H217V177Z" />
<glyph unicode="F" glyph-name="F" horiz-adv-x="637" d="M525 733Q548 733 559 732T585 722T606 695T612 644T606 593T585 567T559 558T523 556H217V455H414Q438 455 449 454T476 444Q502 429 502 365Q502 295 464 282Q448 277 413 277H217V88Q217 64 216 53T206
27Q192 0 128 0Q58 0 46 38Q40 54 40 89V645Q40 696 59 714T131 733H525Z" />
<glyph unicode="G" glyph-name="G" horiz-adv-x="714" d="M422 442H598Q652 440 664 414Q674 395 674 358V138Q674 106 646 77Q562 -10 394 -10Q245 -10 135 102T25 374T137 639T401 746Q519 746 624 668Q651 648 651 624T628 567Q589 514 557 514Q538 514 496
541T396 569Q320 569 261 516T202 376T262 229T398 168Q453 168 497 186V295H418Q387 295 374 303T357 326T353 368T357 411T374 433Q392 442 422 442Z" />
<glyph unicode="H" glyph-name="H" horiz-adv-x="699" d="M501 721T520 727T568 733T614 728T640 716T654 696Q659 679 659 644V89Q659 66 658 55T648 28Q634 1 570 1Q500 1 488 38Q482 55 482 90V293H217V89Q217 66 216 55T206 28Q192 1 128 1Q58 1 46 38Q40
55 40 90V645Q40 668 41 679T51 706Q65 733 129 733Q199 733 212 696Q217 679 217 644V440H482V645Q482 668 483 679T493 706Z" />
<glyph unicode="I" glyph-name="I" horiz-adv-x="257" d="M40 645Q40 668 41 679T51 706Q65 733 129 733Q199 733 212 696Q217 679 217 644V88Q217 64 216 53T206 27Q192 0 128 0Q58 0 46 38Q40 54 40 89V645Z" />
<glyph unicode="J" glyph-name="J" horiz-adv-x="549" d="M453 733T471 727T498 705Q509 682 509 643V256Q509 151 433 71T239 -10Q173 -10 122 19Q76 44 58 64L50 72Q15 109 15 135T50 198T112 234T172 201T243 168T307 194T332 263V637Q332 697 352 714Q375
733 414 733Z" />
<glyph unicode="K" glyph-name="K" horiz-adv-x="639" d="M354 368Q507 221 571 147Q604 110 604 85T564 25T499 -10T437 32L217 283V88Q217 64 216 53T206 27Q192 0 128 0Q58 0 46 38Q40 54 40 89V645Q40 668 41 679T51 706Q65 733 129 733Q199 733 212 696Q217
679 217 644V453Q353 606 437 704Q472 745 498 745T564 711T604 651T574 590Q516 523 394 406L354 368Z" />
<glyph unicode="L" glyph-name="L" horiz-adv-x="587" d="M217 148H489Q522 148 537 141T557 117T562 75T557 32T540 10Q521 0 488 0H128Q58 0 46 38Q40 54 40 89V645Q40 668 41 679T51 706Q65 733 129 733Q199 733 212 696Q217 679 217 644V148Z" />
<glyph unicode="M" glyph-name="M" horiz-adv-x="870" d="M819 705Q827 690 828 678T830 643V88Q830 19 792 7Q773 1 744 1T698 6T672 18T658 38Q653 55 653 90V425Q628 394 580 327T519 242T501 219T477 201T435 189T394 199T367 220L359 231Q339 256 280 337T216
425V88Q216 65 215 54T205 28Q190 1 127 1Q66 1 51 28Q43 42 42 54T40 90V645Q40 668 41 679T51 706Q66 732 129 732Q156 732 175 726T201 712L207 706L434 408Q604 633 661 705Q678 732 741 732T819 705Z" />
<glyph unicode="N" glyph-name="N" horiz-adv-x="720" d="M523 720T542 726T589 732T635 727T661 715T674 694Q680 678 680 643V88Q680 64 679 53T669 27Q655 0 591 0Q552 0 537 6T512 25Q287 325 216 417V88Q216 64 215 53T205 27Q191 0 127 0Q65 0 51 27Q43
42 42 54T40 89V647Q40 685 49 702T78 726T127 732T174 727T199 714Q203 711 222 688Q433 401 504 309V647Q504 685 513 702Z" />
<glyph unicode="O" glyph-name="O" horiz-adv-x="775" d="M384 742Q532 742 641 635T750 370T646 100T390 -12T132 98T25 360Q25 443 55 515T135 637T250 714T384 742ZM202 276T259 221T388 165T516 219T573 364T516 510T387 565T259 510T202 365Z" />
<glyph unicode="P" glyph-name="P" horiz-adv-x="632" d="M607 532T607 467T581 350T514 266Q431 202 342 202H217V89Q217 66 216 55T206 28Q192 1 128 1Q58 1 46 38Q40 55 40 90V645Q40 668 41 679T51 706Q65 733 129 733H343Q431 733 514 669Q555 638 581 585ZM373
379T402 401T431 467T402 533T342 556H217V379H343Q373 379 402 401Z" />
<glyph unicode="Q" glyph-name="Q" horiz-adv-x="830" d="M713 199Q759 168 779 154Q815 127 815 103T785 34T724 -10Q705 -10 666 17Q661 20 638 36T602 60Q509 -12 393 -12Q238 -12 132 98T25 360Q25 443 55 515T135 637T250 714T384 742Q532 742 641 635T750
364Q750 281 713 199ZM202 276T259 221T388 165T516 219T573 364T516 510T387 565T259 510T202 365Z" />
<glyph unicode="R" glyph-name="R" horiz-adv-x="631" d="M601 124Q616 88 616 72Q616 34 554 8Q522 -6 503 -6T471 3T452 23Q442 42 374 204L343 202H217V89Q217 66 216 55T206 28Q192 1 128 1Q58 1 46 38Q40 55 40 90V645Q40 668 41 679T51 706Q65 733 129 733H345Q433
733 516 669Q556 638 582 585T608 467Q608 354 533 281Q555 228 601 124ZM217 379H345Q374 379 403 401T432 467T403 533T343 556H217V379Z" />
<glyph unicode="S" glyph-name="S" horiz-adv-x="583" d="M51 103Q25 135 25 160T68 228Q93 252 121 252T199 202Q213 185 239 170T287 154Q380 154 380 230Q380 253 355 268T291 291T209 313T127 350T64 416T38 526Q38 614 103 679T282 745Q342 745 391 730T460
698L485 679Q516 650 516 630T492 575Q458 525 422 525Q401 525 370 545Q367 547 359 555T343 568Q322 581 290 581T236 566T214 523T239 478T303 455T386 437T469 406T532 344T558 234T532 120T464 43Q383 -10 291 -10Q244 -10 202 1T134 30Q81 62 60 92L51 103Z"
/>
<glyph unicode="T" glyph-name="T" horiz-adv-x="731" d="M88 734H644Q676 734 691 727T711 703T716 661T711 620T694 598Q676 589 643 589H452V86Q452 63 451 52T442 27T415 6T365 0T316 6T290 26T281 52T279 87V589H87Q55 589 40 596T20 620T15 662T20 703T37
725Q55 734 88 734Z" />
<glyph unicode="U" glyph-name="U" horiz-adv-x="726" d="M529 722T548 728T595 734T641 729T667 717T680 696Q686 679 686 644V342Q686 210 604 102Q564 51 501 20T362 -12T223 20T121 104Q40 210 40 344V645Q40 669 41 680T51 707T78 728T129 734T180 728T206
707Q218 684 218 644V344Q218 283 248 228Q263 200 293 183T364 166Q437 166 473 220T509 345V651Q509 690 519 706Z" />
<glyph unicode="V" glyph-name="V" horiz-adv-x="783" d="M709 722Q768 693 768 658Q768 642 753 610L477 50Q466 28 444 15T397 1H387Q362 1 340 14T306 50L30 610Q15 642 15 658Q15 693 74 722Q107 739 124 739T151 735T168 721Q177 709 184 695T223 612T289
466T356 321T392 244L592 682Q600 701 606 712Q624 739 650 739T709 722Z" />
<glyph unicode="W" glyph-name="W" horiz-adv-x="999" d="M917 729Q984 705 984 665Q984 652 972 616L780 61Q778 54 773 44T747 18T696 1T645 17T616 50L499 395Q388 67 386 61T377 44T361 24Q338 1 306 1T254 16T226 46L219 61L26 616Q15 649 15 665Q15 705
82 728Q111 738 134 738T170 722T193 673L303 339L412 668Q426 710 463 726Q479 733 504 733T552 717T580 684L695 337L805 673Q813 696 818 707T836 728T870 739T917 729Z" />
<glyph unicode="X" glyph-name="X" horiz-adv-x="741" d="M491 371L692 150Q726 112 726 86T688 25T623 -10T561 30L371 248L181 30Q145 -10 120 -10T55 25T15 86T50 150L251 371L50 592Q15 629 15 655T54 716T119 752T181 712L371 494L561 712Q597 752 622 752T687
717T726 655T692 592L491 371Z" />
<glyph unicode="Y" glyph-name="Y" horiz-adv-x="686" d="M622 719Q671 685 671 653Q671 634 648 600L432 277V86Q432 63 431 52T421 25T394 4T343 -2T292 4T265 25T256 52T254 88V277L38 600Q15 634 15 653Q15 685 59 714T122 744T152 736Q169 725 188 695L343
447L498 695Q517 725 531 734T563 744T622 719Z" />
<glyph unicode="Z" glyph-name="Z" horiz-adv-x="643" d="M531 171Q570 171 587 162T611 134T618 88T613 43T601 17T580 4Q564 -2 529 -2H113Q90 -2 69 10Q25 35 25 89Q25 115 37 131L347 560H117Q93 560 82 561T54 570Q25 584 25 645Q25 709 52 723Q67 731 78
732T114 734H516Q539 734 560 722T592 690T604 643T592 600L282 171H531Z" />
<glyph unicode="[" glyph-name="bracketleft" horiz-adv-x="348" d="M202 -82H276Q301 -82 313 -90Q333 -102 333 -155Q333 -206 315 -217Q300 -226 275 -226H121Q63 -226 50 -200Q40 -179 40 -139V687Q40 726 48 743T75 767T122 773H276Q301 773 313 766Q333
753 333 700Q333 649 315 638Q300 629 275 629H202V-82Z" />
<glyph unicode="\" glyph-name="backslash" horiz-adv-x="528" d="M351 -8L28 665Q15 692 15 707Q15 739 71 766Q106 782 121 782T145 779T160 767Q167 757 179 734L499 66Q513 29 513 14T501 -14T457 -41T404 -56T373 -45T351 -8Z" />
<glyph unicode="]" glyph-name="bracketright" horiz-adv-x="348" d="M226 773Q285 773 298 746Q308 726 308 687V-139Q308 -179 300 -196T274 -220T227 -226H73Q27 -226 19 -196Q15 -180 15 -155T19 -113T32 -91Q47 -82 72 -82H146V629H73Q27 629 19 660Q15 675
15 700T19 742T32 764Q47 773 72 773H226Z" />
<glyph unicode="^" glyph-name="asciicircum" horiz-adv-x="526" d="M215 519Q238 544 257 544Q263 544 268 544Q288 544 312 519L459 371Q475 356 480 349T485 334T482 313T456 277T420 251T399 248Q387 248 362 273L263 372L165 273Q150 258 143 253T128 248T107
251T70 277T44 313T41 333Q41 347 67 371L215 519Z" />
<glyph unicode="_" glyph-name="underscore" horiz-adv-x="826" d="M76 -228Q28 -228 20 -199Q15 -184 15 -159T19 -119T34 -98Q51 -90 77 -90H750Q798 -90 806 -120Q811 -135 811 -159T807 -199T792 -220Q777 -228 749 -228H76Z" />
<glyph unicode="`" glyph-name="grave" horiz-adv-x="482" d="M362 582T356 576T339 570T306 576L141 628Q115 637 106 647T97 672T105 714Q122 765 144 771Q152 773 156 773Q166 773 230 753T329 722T371 708Q393 697 393 676T385 631T370 595Z" />
<glyph unicode="a" glyph-name="a" horiz-adv-x="596" d="M382 471Q388 527 461 527Q500 527 519 521T545 500T554 474T556 439V89Q556 66 555 55T546 28Q532 2 478 2T405 15T383 55Q346 2 260 2T99 81T25 264T99 447T263 526Q297 526 325 514T364 492T382 471ZM200
230T226 204T289 177T350 204T375 263T352 324T289 352T225 324T200 263Z" />
<glyph unicode="b" glyph-name="b" horiz-adv-x="592" d="M329 526Q418 526 492 447T567 264T493 81T334 2T213 50Q205 1 127 1Q64 1 50 28Q43 43 42 54T40 89V686Q40 709 41 720T50 746Q64 773 128 773Q191 773 204 746Q212 731 213 720T215 685V477Q255 526
329 526ZM266 176T303 176T366 203T392 263T368 323T304 351T241 323T217 263T241 203Z" />
<glyph unicode="c" glyph-name="c" horiz-adv-x="517" d="M205 221T233 198T292 174T351 192T396 211Q426 211 469 158Q492 129 492 106Q492 68 437 35Q380 -5 297 -5Q204 -5 118 62Q77 94 51 147T25 265T51 382T118 467Q201 533 295 533Q333 533 369 523T422
502L438 492Q456 480 466 473Q492 453 492 428T471 370Q435 315 402 315Q383 315 348 337Q330 354 297 354T234 330T205 264Z" />
<glyph unicode="d" glyph-name="d" horiz-adv-x="598" d="M401 761T420 767T470 773T521 767T547 746T556 720T558 685V88Q558 65 557 54T547 28Q532 1 463 1T385 50Q343 2 268 2Q178 2 104 80T30 263T104 447T268 526Q342 526 383 476V686Q383 709 384 720T393
746ZM257 176T294 176T355 203T380 262T357 323T293 351T229 324T205 263T231 203Z" />
<glyph unicode="e" glyph-name="e" horiz-adv-x="573" d="M548 265T518 236T450 206H213Q213 178 246 159T312 140Q370 140 403 152L414 156Q438 167 454 167Q486 167 509 122Q522 95 522 76Q522 -13 309 -13Q235 -13 178 12T88 80Q25 161 25 261Q25 387 106 462T310
538Q449 538 514 440Q548 388 548 327ZM337 297Q375 297 375 329Q375 352 358 366T308 380T243 354T211 297H337Z" />
<glyph unicode="f" glyph-name="f" horiz-adv-x="450" d="M348 526Q417 526 429 488Q435 469 435 438T429 389T408 362Q387 350 347 350L283 354V86Q283 48 274 30T245 5T194 -1T145 5T118 26T109 53T107 88V353H71Q45 355 34 365Q15 384 15 438Q15 520 74 520H107V573Q107
650 162 712T321 775Q344 775 355 774T382 764Q409 751 409 687Q409 639 392 618Q378 602 348 600Q339 600 320 600Q283 600 283 575V520L348 526Z" />
<glyph unicode="g" glyph-name="g" horiz-adv-x="585" d="M374 66Q336 16 253 16T98 92T25 271T98 450T258 527Q292 527 320 515T358 492T375 472Q378 500 395 514T452 529T509 523T534 503T543 477T545 443V29Q545 -86 465 -156T285 -227Q209 -227 140 -190T71
-123Q71 -84 101 -54Q120 -33 130 -25T155 -17T184 -29Q232 -66 288 -66Q326 -66 350 -36T374 36V66ZM196 238T221 212T283 186T344 212T368 270T345 329T283 357T220 330T196 271Z" />
<glyph unicode="h" glyph-name="h" horiz-adv-x="605" d="M332 525Q432 525 498 449T565 263V87Q565 64 564 53T554 26Q541 0 477 0Q416 0 401 26Q393 41 392 53T390 89V264Q390 305 367 328T309 351T246 330T215 281V87Q215 64 214 53T204 26Q191 0 127 0Q64
0 50 27Q43 42 42 53T40 88V686Q40 709 41 720T50 746Q64 773 128 773Q191 773 204 746Q212 731 213 720T215 685V464Q265 525 332 525Z" />
<glyph unicode="i" glyph-name="i" horiz-adv-x="255" d="M40 439Q40 462 41 473T50 500Q64 526 128 526Q176 526 196 509Q213 495 214 466Q215 456 215 437V87Q215 64 214 53T204 26Q191 0 127 0Q64 0 50 27Q43 42 42 53T40 88V439ZM197 610T178 604T128 598T77
604T51 625T42 651T40 686T41 720T50 746Q64 773 128 773Q191 773 204 746Q212 731 213 720T215 685T214 651T205 625Z" />
<glyph unicode="j" glyph-name="j" horiz-adv-x="252" d="M156 600T125 600T76 606T51 626T42 652T40 687T41 721T50 746Q64 772 127 772Q187 772 202 746Q209 733 210 722T212 689V683Q212 661 211 650T201 625T175 606ZM96 530T127 530T176 524T201 504T210
478T212 443V31Q212 -86 131 -156T-47 -226Q-70 -226 -81 -225T-106 -216Q-132 -202 -132 -143T-111 -69T-53 -54T12 -34T40 38V450Q40 485 49 501T77 524Z" />
<glyph unicode="k" glyph-name="k" horiz-adv-x="536" d="M350 264L483 154Q508 133 514 122T521 101Q521 77 490 36Q456 -6 430 -6Q408 -6 369 23L359 30Q336 49 288 96T215 164V87Q215 64 214 53T204 26Q191 0 127 0Q64 0 50 27Q43 42 42 53T40 88V687Q40 710
41 721T50 748Q64 775 128 775Q176 775 196 758Q213 744 214 714Q215 705 215 686V369Q233 384 269 420T324 471L336 479Q371 506 396 506T453 466T486 402T449 348L350 264Z" />
<glyph unicode="l" glyph-name="l" horiz-adv-x="327" d="M40 687Q40 710 41 721T50 748Q64 775 128 775Q189 775 204 748Q212 733 213 721T215 686V223Q215 187 221 178T247 168T275 167T292 158Q312 145 312 87Q312 24 292 10Q266 -8 168 4Q91 14 68 55Q40 104
40 211V687Z" />
<glyph unicode="m" glyph-name="m" horiz-adv-x="851" d="M212 457Q259 528 325 528Q427 528 477 441Q488 456 503 472T553 508T623 528Q703 528 757 467T811 263V88Q811 65 810 54T800 27Q787 0 723 0Q660 0 646 28Q639 43 638 54T636 89V264Q636 351 574 351Q539
351 527 328T514 263V88Q514 64 513 53T503 27Q489 0 425 0Q362 0 348 28Q341 43 340 54T338 89V264Q338 351 276 351Q216 351 216 264V87Q216 64 215 53T205 26Q190 0 127 0Q64 0 50 27Q43 42 42 53T40 88V440Q40 463 41 474T51 500Q66 527 122 527T195 509T212
457Z" />
<glyph unicode="n" glyph-name="n" horiz-adv-x="606" d="M333 527Q433 527 499 451T566 264V88Q566 65 565 54T556 28Q542 1 478 1Q407 1 396 38Q390 55 390 89V265Q390 306 367 329T304 352T240 328T215 265V88Q215 65 214 54T204 28Q191 1 127 1Q64 1 50 28Q43
43 42 54T40 89V443Q40 465 41 476T51 502Q65 527 128 527Q189 527 203 504Q213 487 213 463Q217 470 231 483T258 504Q292 527 333 527Z" />
<glyph unicode="o" glyph-name="o" horiz-adv-x="600" d="M25 383T109 461T301 539T492 462T575 264Q575 181 532 117T428 22T300 -9T172 23T68 119T25 263Q25 383 109 461ZM266 167T299 167T365 192T398 266T367 339T300 363T233 338T202 265T234 192Z" />
<glyph unicode="p" glyph-name="p" horiz-adv-x="582" d="M40 -143V441Q40 464 41 475T50 500Q64 527 117 527T188 514T210 474Q248 526 329 526T484 449T557 270T485 91T330 14T211 60V-142Q211 -165 210 -176T201 -201T175 -222T126 -228T77 -222T51 -202T42
-177T40 -143ZM215 301T215 269T238 211T298 184T360 210T386 269T362 328T300 355T238 328Z" />
<glyph unicode="q" glyph-name="q" horiz-adv-x="582" d="M372 474Q378 527 450 527Q488 527 506 521T531 501T540 475T542 441V-143Q542 -166 541 -177T532 -202T506 -222T456 -228T407 -222T382 -202T373 -176T371 -142V60Q331 14 258 14Q169 14 97 91T25 270T98
449T252 526T372 474ZM247 184T283 184T343 210T367 268T344 327T283 355T220 329T196 269T221 210Z" />
<glyph unicode="r" glyph-name="r" horiz-adv-x="457" d="M417 515T429 501T442 454T423 384T368 346Q350 346 334 354T290 362T240 343T216 297V87Q216 64 215 53T205 26Q190 0 127 0Q79 0 58 17Q42 31 40 60Q40 70 40 89V440Q40 463 41 474T50 500Q64 527 128
527Q188 527 203 504Q214 488 214 471Q219 478 228 488T269 515T323 532T363 530T398 521Z" />
<glyph unicode="s" glyph-name="s" horiz-adv-x="489" d="M44 47Q25 59 25 85T63 164Q74 181 98 181T165 157T241 132Q302 132 302 156Q302 175 235 184Q172 193 110 231Q81 249 62 287T43 379Q43 537 260 537Q331 537 406 503Q441 487 441 463T419 404T374 369Q362
369 330 384T259 399Q200 399 200 377Q200 347 268 338Q334 331 396 300Q425 286 444 252T464 165T445 77T390 22Q326 -9 230 -9T44 47Z" />
<glyph unicode="t" glyph-name="t" horiz-adv-x="449" d="M346 350L281 354V216Q281 189 289 177T321 165T357 164T384 154Q407 141 407 87Q407 24 379 10Q364 3 353 2T319 0Q215 0 161 47T107 206V354Q88 351 66 351T30 368T15 426T20 485T34 512Q50 525 74 525L107
521V624Q107 647 108 658T118 682Q131 707 195 707Q263 707 276 670Q281 654 281 619V521Q325 525 347 525T381 524T408 514Q434 501 434 437Q434 374 407 360Q392 353 381 352T346 350Z" />
<glyph unicode="u" glyph-name="u" horiz-adv-x="606" d="M274 2Q173 2 107 78T40 265V440Q40 464 41 475T50 501Q64 528 128 528Q198 528 210 490Q216 474 216 439V264Q216 223 239 200T302 177T366 201T391 264V441Q391 464 392 475T402 502Q415 528 479 528Q542
528 556 501Q563 486 564 475T566 440V86Q566 64 565 53T555 27Q540 1 478 1Q417 1 403 25Q393 42 393 66Q389 59 375 46T348 24Q314 2 274 2Z" />
<glyph unicode="v" glyph-name="v" horiz-adv-x="638" d="M571 515Q623 484 623 449Q623 429 603 394L396 39Q386 22 364 9T321 -5T280 5T252 27L243 38L35 394Q15 427 15 448Q15 484 67 515Q105 537 127 537T161 524T188 483L319 231L450 483Q461 502 466 510T484
527T516 536T571 515Z" />
<glyph unicode="w" glyph-name="w" horiz-adv-x="793" d="M714 523Q778 495 778 454Q778 437 762 400T735 334L625 66Q610 22 575 4Q560 -3 537 -3T493 14T464 50L456 67Q448 87 397 223Q387 199 368 145T343 77T336 59T327 42T311 21Q287 -3 256 -3T204 14T176
50L25 418Q15 448 15 457Q15 497 72 520Q104 533 124 533T156 525T174 508T182 490Q199 450 253 302L312 464Q318 484 334 499Q363 528 393 528T444 512T474 480L482 463Q532 323 541 303L602 469Q626 533 674 533Q693 533 714 523Z" />
<glyph unicode="x" glyph-name="x" horiz-adv-x="567" d="M405 264L516 152Q552 116 552 91T516 30T455 -6T394 30L284 141L173 30Q137 -6 113 -6T52 29T15 90T51 152L162 264L51 376Q15 412 15 437T51 499T112 535T173 499L284 387L394 499Q430 535 455 535T516
499T552 438T516 376L405 264Z" />
<glyph unicode="y" glyph-name="y" horiz-adv-x="604" d="M530 521Q589 495 589 458Q589 440 581 424T573 407L311 -179Q303 -198 298 -208T280 -227T250 -236T197 -221Q138 -195 138 -159Q138 -135 234 70L35 405Q15 438 15 454Q15 486 69 518Q103 538 122 538T153
530T170 514T225 421T320 263Q325 279 374 386T426 501T438 518Q451 535 474 535T530 521Z" />
<glyph unicode="z" glyph-name="z" horiz-adv-x="586" d="M303 176H474Q514 176 531 166T555 137T561 87T555 37T534 11T508 2T473 0H112Q77 0 51 26T25 88T51 149T131 223T229 309T277 352H136Q79 352 64 371Q47 393 47 429T52 482T64 508T84 522Q101 527 136
527H461Q496 527 522 502T548 440T518 373T303 176Z" />
<glyph unicode="{" glyph-name="braceleft" horiz-adv-x="381" d="M130 -28L131 65Q131 129 129 153Q129 201 69 201H63Q29 201 20 232Q15 248 15 273T19 314T32 336Q45 345 62 345H66Q129 345 129 394Q130 577 130 598Q130 675 176 724T293 773Q326 773 341 766T361
743T366 702T361 662T344 640Q325 629 294 629Q274 629 274 590V420Q274 376 259 339T230 287L215 272Q221 269 233 254T254 222Q274 177 274 96T273 -33V-57Q273 -69 278 -76Q285 -83 298 -83T321 -84T344 -92Q366 -103 366 -154Q366 -206 343 -217Q325 -226 294
-226Q224 -226 177 -176T130 -47V-28Z" />
<glyph unicode="|" glyph-name="bar" horiz-adv-x="217" d="M40 687Q40 755 69 767Q84 773 108 773T148 767T169 746Q177 727 177 686V-146Q177 -214 148 -226Q133 -232 109 -232T69 -226T48 -205Q40 -185 40 -144V687Z" />
<glyph unicode="}" glyph-name="braceright" horiz-adv-x="381" d="M249 65L250 -28V-47Q250 -126 203 -176T86 -226Q30 -226 20 -196Q15 -180 15 -154T20 -113T37 -92Q55 -83 72 -83T93 -83T101 -76T107 -57V-33L106 113Q106 168 121 207T151 260L166 272Q159
278 149 289T123 338T106 420L107 590Q107 623 96 628Q92 629 80 629T58 631T37 639T20 661T15 702T20 742T36 764Q54 773 87 773Q157 773 203 724T250 598L251 394Q251 345 314 345H318Q353 345 362 314Q366 298 366 270T357 224T339 204T317 201H311Q251 201
251 153Q249 129 249 65Z" />
<glyph unicode="~" glyph-name="asciitilde" horiz-adv-x="651" d="M526 360Q573 328 573 301Q573 286 563 270T549 247T530 223T497 193T449 170T382 159T316 174T267 206T236 222T216 218Q203 211 203 206Q172 158 146 158T84 187T49 236Q49 252 63 275T93 315T126
344Q174 378 240 378Q270 378 295 369T334 348Q368 317 383 317Q408 317 416 328L419 332Q450 378 475 378T526 360Z" />
<glyph unicode="&#xa1;" glyph-name="exclamdown" horiz-adv-x="268" d="M79 322T60 342T40 418Q40 476 62 492Q86 510 137 510T208 490T228 415Q228 356 206 340Q182 322 131 322ZM103 245T135 245T186 240T212 222T221 199T223 168V-149Q223 -170 222 -180T212
-204T185 -222T133 -228T82 -223T56 -204T47 -180T45 -148V169Q45 190 46 200T56 222T83 240Z" />
<glyph unicode="&#xa2;" glyph-name="cent" horiz-adv-x="434" d="M173 251T196 232T246 212T293 227T330 242Q355 242 390 199Q409 176 409 156Q409 125 364 98Q340 81 302 72V-8Q302 -42 296 -56T278 -76T244 -81T211 -76T193 -58Q186 -41 186 -7V74Q118 95
72 150T25 286T72 423T186 498V593Q186 652 210 662Q223 667 244 667T277 662T295 644Q302 627 302 592V500Q343 490 386 458Q408 443 408 422T391 373Q362 328 334 328Q318 328 291 346Q275 360 248 360T197 341T173 286Z" />
<glyph unicode="&#xa3;" glyph-name="sterling" horiz-adv-x="675" d="M298 163H578Q615 163 632 155T654 128T660 81T654 35T634 10Q615 0 577 0H161Q129 0 105 20T80 82Q80 106 96 126T128 173T145 241Q145 255 136 291H76Q27 291 19 320Q15 335 15 358T19 396T36
417Q51 425 83 425H106Q105 435 105 454Q105 530 136 595T238 698T391 735Q500 735 578 682Q600 667 604 662L614 653Q641 620 641 592T612 537T551 510T498 538Q489 550 458 561T395 572Q322 572 295 537T267 456V446Q267 431 270 425H371Q400 425 413 418Q434
406 434 357Q434 311 415 300Q400 291 372 291H303Q309 261 309 231T298 163Z" />
<glyph unicode="&#xa4;" glyph-name="currency" horiz-adv-x="677" d="M572 191Q579 187 603 158Q652 99 652 74T619 27T564 5T520 46Q516 50 503 72Q488 102 342 102H322Q194 102 174 73L158 45Q143 19 133 12T108 5T66 20Q25 43 25 71Q25 88 41 113Q74 171 107
192Q46 265 46 387T107 584Q96 591 74 615T40 664T28 704Q28 731 60 751T106 772T130 765T144 752T156 733T170 710T184 694T231 682T336 674H348Q489 674 504 704L519 729Q535 755 546 762T571 769T612 754Q651 731 651 703Q651 687 636 661Q603 605 570 583Q631
510 631 388T572 191ZM333 244Q405 244 443 274T482 385T445 498T338 530T232 498T196 388Q196 244 333 244Z" />
<glyph unicode="&#xa5;" glyph-name="yen" horiz-adv-x="677" d="M516 722T527 729T558 737T620 708T662 648Q662 628 637 590L483 361H498Q543 361 553 352Q571 336 571 312T566 276T550 260Q533 253 501 253H427V187H498Q543 187 553 178Q571 162 571 138T566
103T550 86Q533 80 501 80H427Q427 19 386 6Q368 1 339 1T291 6T264 24Q251 45 251 80H176Q154 80 142 82T119 96T107 134T120 171T145 185T181 187H251V253H176Q154 253 142 255T119 269T107 304T113 338T132 354Q151 361 181 361H195L38 595Q15 630 15 647Q15
678 58 707T120 737T150 730T168 714T186 689L339 444L492 689Q503 705 509 713Z" />
<glyph unicode="&#xa6;" glyph-name="brokenbar" horiz-adv-x="215" d="M70 226Q85 232 108 232T147 226T167 206Q175 186 175 167V-138Q175 -178 168 -194T146 -217T107 -223T69 -217T48 -196Q40 -177 40 -137V167Q40 213 70 226ZM84 773T108 773T146 767T167
746Q175 727 175 687V383Q175 338 146 326Q131 319 108 319T69 325T48 344Q40 363 40 383V688Q40 755 70 767Q84 773 108 773Z" />
<glyph unicode="&#xa7;" glyph-name="section" horiz-adv-x="560" d="M490 140Q535 92 535 7Q535 -54 510 -101T446 -174Q366 -226 279 -226Q189 -226 128 -188Q78 -156 58 -129L50 -118Q25 -87 25 -67Q25 -36 66 2Q90 25 116 25T183 -15L191 -23Q204 -40 229
-54T276 -69Q365 -69 365 4Q365 39 300 57Q271 65 237 73T167 96T103 133T56 194T38 287Q38 364 87 420Q38 471 38 556T100 705T271 768Q328 768 375 753T442 724L465 705Q495 677 495 659T471 606Q438 557 404 557Q375 557 344 586Q318 611 270 611Q247 611 227
597T206 556T230 513T291 491T370 473T449 444T510 384T535 270T490 140ZM328 211Q365 228 365 275Q365 302 333 316Q299 329 260 339Q239 336 223 322T206 280Q206 228 328 211Z" />
<glyph unicode="&#xa8;" glyph-name="dieresis" horiz-adv-x="489" d="M161 595T129 595T78 601T51 622T42 649T40 685T42 720T51 746T78 767T130 773T181 767T208 746T217 719T219 684T218 649T208 622T181 601ZM431 595T399 595T348 601T321 622T312 649T310
685T311 720T321 746T348 767T400 773T451 767T478 746T487 719T489 684T488 649T478 622T451 601Z" />
<glyph unicode="&#xa9;" glyph-name="copyright" horiz-adv-x="711" d="M598 672Q686 587 686 420Q686 360 670 296T615 187T516 120T355 96Q189 96 115 168Q25 255 25 423T109 669T358 747T598 672ZM535 228Q599 283 599 416T545 605T360 662T175 613Q112 556
112 422T168 235T353 181T535 228ZM425 487Q397 511 361 511T298 487T271 420T299 354T361 330Q389 330 408 344T440 359T457 356T475 338Q494 313 494 295V291Q493 275 474 262Q423 226 367 226Q285 226 226 280T166 428Q166 499 221 557T357 615Q430 615 475
576Q495 559 495 550Q495 516 465 492Q454 483 444 483T425 487Z" />
<glyph unicode="&#xaa;" glyph-name="ordfeminine" horiz-adv-x="445" d="M280 673Q286 713 337 713Q387 713 398 694Q405 679 405 650V400Q405 377 403 367T387 347T342 337Q286 337 281 375Q256 337 193 337T78 394T25 525T78 656T195 713Q219 713 239 704Q269
692 280 673ZM150 500T169 482T214 463T258 482T275 525T259 568T214 588T168 568T150 524Z" />
<glyph unicode="&#xab;" glyph-name="guillemotleft" horiz-adv-x="668" d="M311 147Q313 145 323 135T338 120Q353 104 353 84T322 33T269 2T216 33L43 205Q15 233 15 262T43 319L218 493Q247 522 269 522T322 492T353 437Q353 420 344 410T325 391T312 378L196
262L311 147ZM610 147Q612 145 622 135T638 120Q652 104 652 84T621 33T568 2T515 33L342 205Q314 235 314 264T342 319L517 493Q546 522 568 522T622 491T653 437Q653 419 643 409T624 391T611 378L495 262L610 147Z" />
<glyph unicode="&#xac;" glyph-name="logicalnot" horiz-adv-x="526" d="M473 436Q498 430 504 415T511 373V191Q511 140 482 130Q467 125 443 125T405 130T384 148Q376 168 376 195V268H82Q31 268 20 305Q15 324 15 354T20 403T38 429T59 438T85 440H439Q463
440 473 436Z" />
<glyph unicode="&#xae;" glyph-name="registered" horiz-adv-x="711" d="M477 383Q501 327 505 318T513 299T518 278T500 250T456 234T420 259Q407 285 385 339Q375 338 356 338H326V287Q326 271 324 263T310 246T275 238T239 246T226 263T224 287V576Q224 597
235 607T285 618H368Q426 618 470 581T514 483T477 383ZM387 441T399 450T411 477T400 505T369 516H326V441H371Q387 441 399 450ZM598 672Q686 587 686 420Q686 360 670 296T615 187T516 120T355 96Q189 96 115 168Q25 255 25 423T109 669T358 747T598 672ZM175
613Q112 556 112 422T168 235T353 181T540 236T599 420T545 605T360 662T175 613Z" />
<glyph unicode="&#xb0;" glyph-name="degree" horiz-adv-x="407" d="M25 665T79 716T204 768T328 717T382 586T327 457T204 407T81 457T25 586ZM181 523T203 523T246 539T267 587T247 636T204 652T161 636T140 587T160 539Z" />
<glyph unicode="&#xb1;" glyph-name="plusminus" horiz-adv-x="505" d="M405 432Q439 432 454 424T475 400T480 356T475 313T458 291Q441 282 424 282T404 282H328V252Q328 218 320 203T296 182T252 177T209 182T186 200Q177 219 177 253V282H100Q57 282 44 292Q25
309 25 346T30 400T48 422Q67 432 101 432H177V468Q177 502 185 517T209 538T253 543T296 538T318 520Q328 501 328 467V432H405ZM396 1H108Q55 1 44 30Q39 44 39 68T44 108T62 128Q82 137 109 137H397Q450 137 460 108Q466 93 466 69T461 29T444 8Q428 1 396 1Z"
/>
<glyph unicode="&#xb2;" glyph-name="twosuperior" horiz-adv-x="455" d="M291 362H381Q427 362 436 330Q440 314 440 288T436 247T421 225Q406 216 381 216H108Q79 216 53 233T26 292T51 365T113 417T186 458T248 505T274 564Q274 579 259 592T222 606T188 592Q172
574 172 546T158 499T93 481Q44 481 34 506Q25 525 25 552Q25 631 80 691T221 751T364 693T421 551Q421 513 405 479T364 420Q322 379 291 362Z" />
<glyph unicode="&#xb3;" glyph-name="threesuperior" horiz-adv-x="457" d="M376 494Q432 453 432 385T377 262T225 208Q185 208 152 219T99 246Q57 281 47 304L42 315Q25 349 25 380Q25 431 104 431Q152 431 164 402Q177 357 202 346Q213 340 232 340T265 350Q286
366 286 386V390Q286 403 284 409T269 421T234 427T206 428T188 434Q170 443 170 487Q170 507 180 518T199 530T225 532H229Q275 532 275 577Q275 594 261 605T229 616T201 610T186 598T179 582T173 567T166 557Q155 543 128 543T69 568Q47 588 47 619T97 701T231
751T367 702T421 589T376 494Z" />
<glyph unicode="&#xb4;" glyph-name="acute" horiz-adv-x="605" d="M238 576Q224 569 208 569Q178 569 159 628Q151 652 151 669T158 695Q167 708 194 716L359 767Q385 774 389 774Q419 774 437 715Q445 691 445 675T438 649Q429 636 402 628L238 576Z" />
<glyph unicode="&#xb5;" glyph-name="mu" horiz-adv-x="601" d="M389 69Q352 7 290 7Q257 7 239 18T214 32V-134Q214 -157 213 -168T203 -194T176 -214T126 -220T77 -214T51 -194T42 -168T40 -133V441Q40 464 41 475T50 500T77 521T127 527T177 521T203 501T212
475T214 440V266Q214 225 237 203T299 180T363 203T387 267V441Q387 464 388 475T397 501T424 522T474 528T524 522T550 501T559 475T561 440V93Q561 70 560 59T550 33Q537 7 473 7Q414 7 399 30Q389 46 389 69Z" />
<glyph unicode="&#xb6;" glyph-name="paragraph" horiz-adv-x="614" d="M208 613H488Q537 613 548 586Q556 567 556 526V-146Q556 -214 527 -226Q512 -232 488 -232T448 -226T427 -205Q419 -185 419 -144V512H345V-146Q345 -214 316 -226Q301 -232 277 -232T237
-226T216 -205Q208 -185 208 -144V264Q100 265 65 306T30 438Q30 488 35 516T57 568T111 603T208 613Z" />
<glyph unicode="&#xb7;" glyph-name="middot" horiz-adv-x="237" d="M195 381Q212 364 212 311V307Q212 283 211 272T200 244Q185 215 125 215T45 234T25 306V310Q25 333 26 345T36 372Q51 402 111 402T195 381Z" />
<glyph unicode="&#xb8;" glyph-name="cedilla" horiz-adv-x="559" d="M260 30Q300 30 336 1T372 -81T333 -164Q302 -192 264 -192T203 -176T176 -145V-141Q176 -126 187 -114Q207 -90 219 -90T247 -101Q251 -102 254 -103T263 -104T276 -99T284 -81T276 -63T260
-57T246 -62Q230 -72 217 -72T186 -47Q176 -30 177 -19Q180 8 210 19T260 30Z" />
<glyph unicode="&#xb9;" glyph-name="onesuperior" horiz-adv-x="321" d="M208 745Q281 745 281 684V274Q281 229 248 220Q232 216 206 216T165 221T143 237Q134 254 134 276V509Q111 493 90 493T42 517T15 570Q15 592 30 606L41 618Q152 718 156 722Q179 745 208 745Z" />
<glyph unicode="&#xba;" glyph-name="ordmasculine" horiz-adv-x="439" d="M25 599T84 654T220 709T355 654T414 513T354 375T221 322T86 376T25 514ZM151 481T173 464T219 446T266 463T289 516T267 567T220 584T173 567T151 515Z" />
<glyph unicode="&#xbb;" glyph-name="guillemotright" horiz-adv-x="669" d="M358 147L473 262L356 378Q354 380 346 387T334 398L325 409Q315 421 315 440T346 491T399 522T453 491L625 319Q654 290 654 262T625 205L453 33Q422 2 400 2T347 33T316 87Q316 104
325 114T345 135T358 147ZM58 147L174 262L57 378Q54 381 48 386T39 394T30 403T22 414Q15 424 15 441T46 490T101 522T153 491L326 319Q354 291 354 262T326 205L149 29Q123 3 100 3T47 33T16 87Q16 104 25 114T45 135T58 147Z" />
<glyph unicode="&#xbc;" glyph-name="onequarter" horiz-adv-x="786" d="M623 413T635 416T668 420T701 416T719 403Q726 390 726 367V48Q726 13 702 6Q689 3 669 3T636 7T618 18Q611 29 611 49V117H463Q442 117 429 129T416 163T421 207L463 376Q473 421 503
421Q535 421 557 409T579 376L570 328L544 227H611V369Q611 393 617 403ZM511 761Q524 784 536 784T573 771T597 743Q597 736 590 724L203 -7L201 -10Q190 -30 178 -30T142 -18T118 7T125 31L511 761ZM145 396V582Q126 569 109 569T71 588T50 629T71 668Q159 747
162 750Q180 768 203 768Q260 768 260 720V396Q260 360 235 354Q222 350 199 350T162 358T147 374T145 396Z" />
<glyph unicode="&#xbd;" glyph-name="onehalf" horiz-adv-x="804" d="M626 116H697Q732 116 740 92Q744 79 744 55T737 18T721 3T697 1H481Q458 1 437 14T416 61T436 118T485 160T543 192Q612 229 612 276Q612 289 600 299T572 309T545 298Q532 283 532 266T529
238T512 219T471 210T432 220T418 240T416 267Q416 329 460 376T571 424T683 378T728 266Q728 204 683 161Q651 131 626 116ZM511 761Q524 784 536 784T573 771T597 743Q597 736 590 724L203 -7L201 -10Q190 -30 178 -30T142 -18T118 7T125 31L511 761ZM145 396V582Q126
569 109 569T71 588T50 629T71 668Q159 747 162 750Q180 768 203 768Q260 768 260 720V396Q260 360 235 354Q222 350 199 350T162 358T147 374T145 396Z" />
<glyph unicode="&#xbe;" glyph-name="threequarters" horiz-adv-x="842" d="M328 565Q372 533 372 479T329 382T208 339Q131 339 82 394Q72 406 61 429T50 475Q50 516 112 516Q153 516 162 487Q163 482 164 477T170 466T180 454Q193 443 211 443T243 453T257 477T256
494T251 503Q243 513 220 513T191 514T178 519T168 533T165 559T172 583T187 593T208 595H212Q248 595 248 631Q248 645 237 653T211 661T189 657T178 647Q169 630 169 626Q156 604 133 604T88 622T67 664T107 728T212 768T320 729T363 640T328 565ZM678 413T691
416T724 420T757 416T775 403Q782 390 782 367V48Q782 13 758 6Q745 3 725 3T692 7T674 18Q667 29 667 49L666 117H519Q498 117 485 129T472 166T477 207L519 376Q529 421 559 421Q591 421 613 409T635 376L626 328L600 227H666V368Q666 393 672 403ZM567 761Q580
784 592 784T629 771T653 743Q653 736 646 724L259 -7L257 -10Q246 -30 234 -30T198 -18T174 7T181 31L567 761Z" />
<glyph unicode="&#xbf;" glyph-name="questiondown" horiz-adv-x="511" d="M430 29Q496 3 496 -30Q496 -50 491 -60T485 -73T480 -87T459 -124T419 -169T355 -205T264 -222Q158 -222 92 -154T25 4Q25 47 40 83T78 141Q122 183 160 196L176 202Q176 220 177 228T186
247T211 262T258 267T304 263T328 246Q338 229 338 194V186Q338 143 314 118T260 85T207 58T182 7T200 -44T256 -62T310 -50T332 -26L335 -15Q343 10 355 24T386 38T430 29ZM334 357T314 350T250 343T187 362T167 422V438Q167 462 168 473T178 501Q194 530 254
530T334 510T354 435Q354 396 344 377Z" />
<glyph unicode="&#xc0;" glyph-name="Agrave" horiz-adv-x="765" d="M446 756Q437 756 416 763L251 815Q224 823 216 834T208 861T216 902Q235 961 265 961Q269 961 295 954L460 903Q474 898 482 894Q503 884 503 862T495 815Q476 756 446 756ZM463 681L733 123Q750
89 750 72Q750 36 692 7Q658 -10 639 -10T607 -1T589 18T573 48L521 156H244L192 48Q182 28 177 19T159 1T127 -9T73 8Q15 36 15 72Q15 89 32 123L302 682Q313 705 335 719T383 733Q437 733 463 681ZM382 441L316 304H449L382 441Z" />
<glyph unicode="&#xc1;" glyph-name="Aacute" horiz-adv-x="765" d="M353 776Q353 776 323 769Q293 769 274 828Q266 852 266 869T272 895Q282 908 309 916L474 967Q500 974 504 974Q534 974 552 915Q560 891 560 875T554 849Q544 836 517 828L353 776ZM463 681L733
123Q750 89 750 72Q750 36 692 7Q658 -10 639 -10T607 -1T589 18T573 48L521 156H244L192 48Q182 28 177 19T159 1T127 -9T73 8Q15 36 15 72Q15 89 32 123L302 682Q313 705 335 719T383 733Q437 733 463 681ZM382 441L316 304H449L382 441Z" />
<glyph unicode="&#xc2;" glyph-name="Acircumflex" horiz-adv-x="765" d="M384 974L407 969Q500 939 541 925T583 876Q583 857 572 836Q546 783 512 783Q503 783 480 790L384 832L291 792Q290 792 290 792Q270 785 257 785Q219 785 195 836Q183 862 183 878Q183
910 221 923L360 969L384 974ZM463 681L733 123Q750 89 750 72Q750 36 692 7Q658 -10 639 -10T607 -1T589 18T573 48L521 156H244L192 48Q182 28 177 19T159 1T127 -9T73 8Q15 36 15 72Q15 89 32 123L302 682Q313 705 335 719T383 733Q437 733 463 681ZM382 441L316
304H449L382 441Z" />
<glyph unicode="&#xc3;" glyph-name="Atilde" horiz-adv-x="765" d="M546 958Q582 933 582 910Q582 896 574 883T563 865T549 845T524 820Q486 792 447 792T386 805T349 831T325 844Q311 844 299 832Q276 792 257 792T210 816T182 855T190 884T201 902T215 921T241
946Q278 973 318 973T380 961T416 936T439 923Q455 923 465 935Q486 973 510 973Q525 973 546 958ZM463 681L733 123Q750 89 750 72Q750 36 692 7Q658 -10 639 -10T607 -1T589 18T573 48L521 156H244L192 48Q182 28 177 19T159 1T127 -9T73 8Q15 36 15 72Q15 89
32 123L302 682Q313 705 335 719T383 733Q437 733 463 681ZM382 441L316 304H449L382 441Z" />
<glyph unicode="&#xc4;" glyph-name="Adieresis" horiz-adv-x="765" d="M282 795T250 795T199 801T172 822T163 849T161 885T163 920T172 946T199 967T251 973T302 967T329 946T338 919T340 884T339 849T329 822T302 801ZM552 795T520 795T469 801T442 822T433
849T431 885T432 920T442 946T469 967T521 973T572 967T599 946T608 919T610 884T609 849T599 822T572 801ZM463 681L733 123Q750 89 750 72Q750 36 692 7Q658 -10 639 -10T607 -1T589 18T573 48L521 156H244L192 48Q182 28 177 19T159 1T127 -9T73 8Q15 36 15
72Q15 89 32 123L302 682Q313 705 335 719T383 733Q437 733 463 681ZM382 441L316 304H449L382 441Z" />
<glyph unicode="&#xc5;" glyph-name="Aring" horiz-adv-x="765" d="M253 846T292 882T382 919T472 883T511 787T460 687L733 123Q750 89 750 72Q750 36 692 7Q658 -10 639 -10T607 -1T589 18T573 48L521 156H244L192 48Q182 28 177 19T159 1T127 -9T73 8Q15 36
15 72Q15 89 23 105T305 687Q253 725 253 785ZM361 729T382 729T423 744T443 790T424 836T382 851T341 836T321 790T341 744ZM382 441L316 304H449L382 441Z" />
<glyph unicode="&#xc6;" glyph-name="AE" horiz-adv-x="1148" d="M730 178H1041Q1078 178 1095 168Q1123 151 1123 89Q1123 19 1086 6Q1069 1 1034 1H640Q604 1 578 28T552 91V149H269L159 28Q126 -9 95 -9T32 29T0 91T33 152Q97 221 537 708Q562 734 601 734H1035Q1058
734 1069 733T1096 723Q1123 709 1123 645Q1123 583 1098 568Q1077 557 1040 557H730V456H925Q965 456 983 446T1007 417T1013 367T1007 317T987 290T960 281T924 279H730V178ZM403 297H552V461Q548 456 403 297Z" />
<glyph unicode="&#xc7;" glyph-name="Ccedilla" horiz-adv-x="679" d="M309 -27Q312 -9 327 0Q217 24 126 110Q80 154 53 222T25 369T51 513T117 618T210 688Q307 742 408 742Q455 742 503 727T576 698L601 683Q618 671 628 664Q654 644 654 618T633 562Q595 508
564 508Q547 508 512 530Q470 564 400 564Q335 564 272 519Q242 497 222 457T202 367T222 276T274 212Q336 168 400 168Q431 168 458 176T498 192L510 201L517 205Q549 226 565 226Q595 226 631 170Q653 135 653 117T644 86T627 67T600 49Q544 9 460 -5Q498 -36
498 -86T464 -164T390 -193Q364 -193 350 -186Q312 -167 310 -148L309 -143Q309 -131 324 -113T349 -95T367 -99T378 -105Q382 -109 390 -109T405 -103T413 -86T406 -69T390 -63T372 -70T348 -77T321 -57T309 -27Z" />
<glyph unicode="&#xc8;" glyph-name="Egrave" horiz-adv-x="638" d="M217 177H525Q548 177 559 176T586 166Q613 152 613 88Q613 18 576 6Q559 0 524 0H128Q58 0 46 38Q40 54 40 89V645Q40 696 59 714T131 733H525Q548 733 559 732T586 722Q613 708 613 644Q613
574 576 562Q559 556 524 556H217V455H415Q438 455 449 454T476 444Q503 430 503 366Q503 296 465 284Q448 278 413 278H217V177ZM425 756L395 763L230 815Q203 823 195 834T187 861T195 902Q214 961 244 961Q248 961 274 954L439 903Q453 898 460 894Q482 884
482 862T474 815Q455 756 425 756Z" />
<glyph unicode="&#xc9;" glyph-name="Eacute" horiz-adv-x="638" d="M217 177H525Q548 177 559 176T586 166Q613 152 613 88Q613 18 576 6Q559 0 524 0H128Q58 0 46 38Q40 54 40 89V645Q40 696 59 714T131 733H525Q548 733 559 732T586 722Q613 708 613 644Q613
574 576 562Q559 556 524 556H217V455H415Q438 455 449 454T476 444Q503 430 503 366Q503 296 465 284Q448 278 413 278H217V177ZM288 776Q274 769 258 769Q228 769 209 828Q201 852 201 869T208 895Q217 908 244 916L409 967Q435 974 439 974Q469 974 487 915Q495
891 495 875T488 849Q479 836 452 828L288 776Z" />
<glyph unicode="&#xca;" glyph-name="Ecircumflex" horiz-adv-x="638" d="M217 177H525Q548 177 559 176T586 166Q613 152 613 88Q613 18 576 6Q559 0 524 0H128Q58 0 46 38Q40 54 40 89V645Q40 696 59 714T131 733H525Q548 733 559 732T586 722Q613 708 613 644Q613
574 576 562Q559 556 524 556H217V455H415Q438 455 449 454T476 444Q503 430 503 366Q503 296 465 284Q448 278 413 278H217V177ZM324 974L347 969Q440 939 481 925T523 876Q523 857 512 836Q486 783 452 783Q443 783 420 790L324 832L231 792Q230 792 230 792Q210
785 197 785Q159 785 135 836Q123 862 123 878Q123 910 161 923L300 969L324 974Z" />
<glyph unicode="&#xcb;" glyph-name="Edieresis" horiz-adv-x="638" d="M217 177H525Q548 177 559 176T586 166Q613 152 613 88Q613 18 576 6Q559 0 524 0H128Q58 0 46 38Q40 54 40 89V645Q40 696 59 714T131 733H525Q548 733 559 732T586 722Q613 708 613 644Q613
574 576 562Q559 556 524 556H217V455H415Q438 455 449 454T476 444Q503 430 503 366Q503 296 465 284Q448 278 413 278H217V177ZM226 795T194 795T143 801T116 822T107 849T105 885T107 920T116 946T143 967T195 973T246 967T273 946T282 919T284 884T283 849T273
822T246 801ZM496 795T464 795T413 801T386 822T377 849T375 885T376 920T386 946T413 967T465 973T516 967T543 946T552 919T554 884T553 849T543 822T516 801Z" />
<glyph unicode="&#xcc;" glyph-name="Igrave" horiz-adv-x="267" d="M45 645Q45 668 46 679T56 706Q70 733 134 733Q204 733 216 696Q222 679 222 644V88Q222 64 221 53T211 27Q197 0 133 0Q63 0 50 38Q45 54 45 89V645ZM189 756L159 763L-6 815Q-33 823 -41 834T-49
861T-41 902Q-22 961 8 961Q12 961 38 954L203 903Q217 898 224 894Q246 884 246 862T238 815Q219 756 189 756Z" />
<glyph unicode="&#xcd;" glyph-name="Iacute" horiz-adv-x="269" d="M46 645Q46 668 47 679T57 706Q71 733 135 733Q205 733 218 696Q223 679 223 644V88Q223 64 222 53T212 27Q198 0 134 0Q64 0 52 38Q46 54 46 89V645ZM110 776Q96 769 80 769Q50 769 31 828Q23
852 23 869T30 895Q39 908 66 916L231 967Q257 974 261 974Q291 974 309 915Q317 891 317 875T310 849Q301 836 274 828L110 776Z" />
<glyph unicode="&#xce;" glyph-name="Icircumflex" horiz-adv-x="270" d="M46 645Q46 668 47 679T57 706Q71 733 135 733Q205 733 218 696Q223 679 223 644V88Q223 64 222 53T212 27Q198 0 134 0Q64 0 52 38Q46 54 46 89V645ZM136 974L159 969Q252 939 293 925T335
876Q335 857 324 836Q298 783 264 783Q255 783 232 790L136 832L43 792Q42 792 42 792Q22 785 9 785Q-29 785 -53 836Q-65 862 -65 878Q-65 910 -27 923L112 969L136 974Z" />
<glyph unicode="&#xcf;" glyph-name="Idieresis" horiz-adv-x="268" d="M47 645Q47 668 48 679T58 706Q72 733 136 733Q206 733 218 696Q224 679 224 644V88Q224 64 223 53T213 27Q199 0 135 0Q65 0 52 38Q47 54 47 89V645ZM33 795T1 795T-50 801T-77 822T-86
849T-88 885T-86 920T-77 946T-50 967T2 973T53 967T80 946T89 919T91 884T90 849T80 822T53 801ZM303 795T271 795T220 801T193 822T184 849T182 885T183 920T193 946T220 967T272 973T323 967T350 946T359 919T361 884T360 849T350 822T323 801Z" />
<glyph unicode="&#xd0;" glyph-name="Eth" horiz-adv-x="775" d="M200 734L385 733Q530 733 640 629T750 372T643 110T382 1H199Q138 1 123 26Q111 47 111 90V301H86Q40 301 30 330Q25 345 25 369T30 407T46 428Q63 436 87 436H111V646Q111 670 112 681T122 707Q136
734 200 734ZM312 301H288V178H385Q457 178 515 231T573 366T517 501T384 556H288V436H313Q359 436 369 407Q374 392 374 368T370 330T354 309Q340 301 312 301Z" />
<glyph unicode="&#xd1;" glyph-name="Ntilde" horiz-adv-x="720" d="M523 720T542 726T589 732T635 727T661 715T674 694Q680 678 680 643V88Q680 64 679 53T669 27Q655 0 591 0Q552 0 537 6T512 25Q287 325 216 417V88Q216 64 215 53T205 27Q191 0 127 0Q65 0
51 27Q43 42 42 54T40 89V647Q40 685 49 702T78 726T127 732T174 727T199 714Q203 711 222 688Q433 401 504 309V647Q504 685 513 702ZM524 958Q560 933 560 910Q560 896 552 883T541 865T527 845T502 820Q464 792 425 792T364 805T327 831T303 844Q289 844 277
832Q254 792 235 792T188 816T160 855T168 884T179 902T193 921T219 946Q256 973 296 973T358 961T394 936T417 923Q433 923 443 935Q464 973 488 973Q503 973 524 958Z" />
<glyph unicode="&#xd2;" glyph-name="Ograve" horiz-adv-x="775" d="M384 742Q532 742 641 635T750 370T646 100T390 -12T132 98T25 360Q25 443 55 515T135 637T250 714T384 742ZM202 276T259 221T388 165T516 219T573 364T516 510T387 565T259 510T202 365ZM456
756Q447 756 426 763L261 815Q234 823 226 834T218 861T226 902Q245 961 275 961Q279 961 305 954L470 903Q484 898 492 894Q513 884 513 862T505 815Q486 756 456 756Z" />
<glyph unicode="&#xd3;" glyph-name="Oacute" horiz-adv-x="775" d="M384 742Q532 742 641 635T750 370T646 100T390 -12T132 98T25 360Q25 443 55 515T135 637T250 714T384 742ZM202 276T259 221T388 165T516 219T573 364T516 510T387 565T259 510T202 365ZM349
776L319 769Q289 769 270 828Q262 852 262 869T268 895Q278 908 305 916L470 967Q496 974 500 974Q530 974 548 915Q556 891 556 875T550 849Q540 836 513 828L349 776Z" />
<glyph unicode="&#xd4;" glyph-name="Ocircumflex" horiz-adv-x="775" d="M384 742Q532 742 641 635T750 370T646 100T390 -12T132 98T25 360Q25 443 55 515T135 637T250 714T384 742ZM202 276T259 221T388 165T516 219T573 364T516 510T387 565T259 510T202 365ZM390
974L413 969Q506 939 547 925T589 876Q589 857 578 836Q552 783 518 783Q509 783 486 790L390 832L297 792Q296 792 296 792Q276 785 263 785Q225 785 201 836Q189 862 189 878Q189 910 227 923L366 969L390 974Z" />
<glyph unicode="&#xd5;" glyph-name="Otilde" horiz-adv-x="775" d="M384 742Q532 742 641 635T750 370T646 100T390 -12T132 98T25 360Q25 443 55 515T135 637T250 714T384 742ZM202 276T259 221T388 165T516 219T573 364T516 510T387 565T259 510T202 365ZM573
958Q609 933 609 910Q609 896 601 883T590 865T576 845T551 820Q513 792 474 792T413 805T376 831T352 844Q338 844 326 832Q303 792 284 792T237 816T209 855T217 884T228 902T242 921T268 946Q305 973 345 973T407 961T443 936T466 923Q484 923 492 935Q513 973
537 973Q552 973 573 958Z" />
<glyph unicode="&#xd6;" glyph-name="Odieresis" horiz-adv-x="775" d="M384 742Q532 742 641 635T750 370T646 100T390 -12T132 98T25 360Q25 443 55 515T135 637T250 714T384 742ZM202 276T259 221T388 165T516 219T573 364T516 510T387 565T259 510T202 365ZM280
795T248 795T197 801T170 822T161 849T159 885T161 920T170 946T197 967T249 973T300 967T327 946T336 919T338 884T337 849T327 822T300 801ZM550 795T518 795T467 801T440 822T431 849T429 885T430 920T440 946T467 967T519 973T570 967T597 946T606 919T608
884T607 849T597 822T570 801Z" />
<glyph unicode="&#xd7;" glyph-name="multiply" horiz-adv-x="521" d="M372 265L463 174Q496 141 496 117T465 62T409 30T352 62L260 154L169 62Q137 30 113 30T57 61T25 117T58 174L149 265L57 357Q25 389 25 411T57 466T114 499T170 467L260 376L351 467Q383
499 407 499T463 467T496 412T462 355L372 265Z" />
<glyph unicode="&#xd8;" glyph-name="Oslash" horiz-adv-x="775" d="M310 -2Q292 -56 256 -56Q236 -56 203 -41T159 -15T147 11T159 61L163 69Q98 121 62 197T25 358T55 515T135 637T250 714T374 742T479 729Q495 770 515 778Q523 782 538 782T589 766Q643 740
643 709Q643 690 625 650Q750 538 750 364Q750 211 646 100T393 -12Q355 -12 310 -2ZM316 565T259 510T202 372T243 238L400 564Q396 565 388 565Q316 565 259 510ZM573 365Q573 429 541 477L391 165Q462 167 517 221T573 365Z" />
<glyph unicode="&#xd9;" glyph-name="Ugrave" horiz-adv-x="726" d="M529 722T548 728T595 734T641 729T667 717T680 696Q686 679 686 644V342Q686 210 604 102Q564 51 501 20T362 -12T223 20T121 104Q40 210 40 344V645Q40 669 41 680T51 707T78 728T129 734T180
728T206 707Q218 684 218 644V344Q218 283 248 228Q263 200 293 183T364 166Q437 166 473 220T509 345V651Q509 690 519 706ZM397 756L367 763L202 815Q175 823 167 834T159 861T167 902Q186 961 216 961Q220 961 246 954L411 903Q425 898 432 894Q454 884 454
862T446 815Q427 756 397 756Z" />
<glyph unicode="&#xda;" glyph-name="Uacute" horiz-adv-x="726" d="M529 722T548 728T595 734T641 729T667 717T680 696Q686 679 686 644V342Q686 210 604 102Q564 51 501 20T362 -12T223 20T121 104Q40 210 40 344V645Q40 669 41 680T51 707T78 728T129 734T180
728T206 707Q218 684 218 644V344Q218 283 248 228Q263 200 293 183T364 166Q437 166 473 220T509 345V651Q509 690 519 706ZM349 776L319 769Q289 769 270 828Q262 852 262 869T268 895Q278 908 305 916L470 967Q496 974 500 974Q530 974 548 915Q556 891 556
875T550 849Q540 836 513 828L349 776Z" />
<glyph unicode="&#xdb;" glyph-name="Ucircumflex" horiz-adv-x="726" d="M529 722T548 728T595 734T641 729T667 717T680 696Q686 679 686 644V342Q686 210 604 102Q564 51 501 20T362 -12T223 20T121 104Q40 210 40 344V645Q40 669 41 680T51 707T78 728T129
734T180 728T206 707Q218 684 218 644V344Q218 283 248 228Q263 200 293 183T364 166Q437 166 473 220T509 345V651Q509 690 519 706ZM377 974L400 969Q493 939 534 925T576 876Q576 857 565 836Q538 783 505 783Q496 783 473 790L377 832L284 792Q270 785 250
785Q212 785 188 836Q176 862 176 878Q176 910 214 923L353 969L377 974Z" />
<glyph unicode="&#xdc;" glyph-name="Udieresis" horiz-adv-x="726" d="M529 722T548 728T595 734T641 729T667 717T680 696Q686 679 686 644V342Q686 210 604 102Q564 51 501 20T362 -12T223 20T121 104Q40 210 40 344V645Q40 669 41 680T51 707T78 728T129 734T180
728T206 707Q218 684 218 644V344Q218 283 248 228Q263 200 293 183T364 166Q437 166 473 220T509 345V651Q509 690 519 706ZM530 795T498 795T447 801T420 822T411 849T409 885T410 920T420 946T447 967T499 973T550 967T577 946T586 919T588 884T587 849T577
822T550 801ZM260 795T228 795T177 801T150 822T141 849T139 885T141 920T150 946T177 967T229 973T280 967T307 946T316 919T318 884T317 849T307 822T280 801Z" />
<glyph unicode="&#xdd;" glyph-name="Yacute" horiz-adv-x="686" d="M622 719Q671 685 671 653Q671 634 648 600L432 277V86Q432 63 431 52T421 25T394 4T343 -2T292 4T265 25T256 52T254 88V277L38 600Q15 634 15 653Q15 685 59 714T122 744T152 736Q169 725
188 695L343 447L498 695Q517 725 531 734T563 744T622 719ZM302 776Q288 769 272 769Q242 769 223 828Q215 852 215 869T222 895Q231 908 258 916L423 967Q449 974 453 974Q483 974 501 915Q509 891 509 875T502 849Q493 836 466 828L302 776Z" />
<glyph unicode="&#xde;" glyph-name="Thorn" horiz-adv-x="634" d="M40 645Q40 668 41 679T51 706Q65 733 129 733Q199 733 212 696Q217 679 217 644V632H343Q431 632 514 568Q555 537 581 484T607 366T581 249T514 165Q431 101 342 101H217V89Q217 66 216 55T206
28Q192 1 128 1Q58 1 46 38Q40 55 40 90V645ZM373 278T402 300T431 366T402 432T342 455H217V278H343Q373 278 402 300Z" />
<glyph unicode="&#xdf;" glyph-name="germandbls" horiz-adv-x="633" d="M476 482T455 460T434 423T452 390T495 357T546 320T590 262T608 176Q608 -3 425 -3Q389 -3 345 4T281 24T262 63T269 118Q284 176 316 176Q329 176 363 163T410 149Q444 149 444 204Q444
219 418 238T361 276T304 330T278 405T289 473T314 515Q351 553 351 580Q351 605 303 605Q213 605 213 527V53Q213 30 212 19T203 -6T176 -26T126 -32T77 -26T51 -6T42 20T40 55V518Q40 603 60 648T144 722T301 752Q519 752 519 614Q519 560 498 521Z" />
<glyph unicode="&#xe0;" glyph-name="agrave" horiz-adv-x="596" d="M382 471Q388 527 461 527Q500 527 519 521T545 500T554 474T556 439V89Q556 66 555 55T546 28Q532 2 478 2T405 15T383 55Q346 2 260 2T99 81T25 264T99 447T263 526Q297 526 325 514T364 492T382
471ZM402 569Q388 569 372 576L207 628Q180 636 172 647T164 674T172 715Q191 774 221 774Q225 774 251 767L416 716Q430 711 438 708Q459 697 459 675T451 628Q432 569 402 569ZM200 230T226 204T289 177T350 204T375 263T352 324T289 352T225 324T200 263Z" />
<glyph unicode="&#xe1;" glyph-name="aacute" horiz-adv-x="596" d="M382 471Q388 527 461 527Q500 527 519 521T545 500T554 474T556 439V89Q556 66 555 55T546 28Q532 2 478 2T405 15T383 55Q346 2 260 2T99 81T25 264T99 447T263 526Q297 526 325 514T364 492T382
471ZM265 576L235 569Q205 569 186 628Q178 652 178 669T184 695Q194 708 221 716L386 767Q412 774 416 774Q446 774 464 715Q472 691 472 675T466 649Q456 636 429 628L265 576ZM200 230T226 204T289 177T350 204T375 263T352 324T289 352T225 324T200 263Z" />
<glyph unicode="&#xe2;" glyph-name="acircumflex" horiz-adv-x="596" d="M382 471Q388 527 461 527Q500 527 519 521T545 500T554 474T556 439V89Q556 66 555 55T546 28Q532 2 478 2T405 15T383 55Q346 2 260 2T99 81T25 264T99 447T263 526Q297 526 325 514T364
492T382 471ZM200 230T226 204T289 177T350 204T375 263T352 324T289 352T225 324T200 263ZM327 774L350 769Q443 739 484 725T526 676Q526 657 515 636Q488 583 455 583Q446 583 423 590L327 632L234 592Q220 585 200 585Q162 585 138 636Q126 662 126 678Q126
710 164 723L303 769L327 774Z" />
<glyph unicode="&#xe3;" glyph-name="atilde" horiz-adv-x="596" d="M382 471Q388 527 461 527Q500 527 519 521T545 500T554 474T556 439V89Q556 66 555 55T546 28Q532 2 478 2T405 15T383 55Q346 2 260 2T99 81T25 264T99 447T263 526Q297 526 325 514T364 492T382
471ZM200 230T226 204T289 177T350 204T375 263T352 324T289 352T225 324T200 263ZM489 758Q525 733 525 710Q525 696 517 683T506 665T492 645T467 620Q429 592 390 592T329 605T292 631T268 644Q254 644 242 632Q219 592 200 592T153 616T125 655T133 684T144
702T158 721T184 746Q221 773 271 773Q317 773 359 736Q373 723 382 723Q400 723 408 735Q429 773 453 773Q468 773 489 758Z" />
<glyph unicode="&#xe4;" glyph-name="adieresis" horiz-adv-x="596" d="M382 471Q388 527 461 527Q500 527 519 521T545 500T554 474T556 439V89Q556 66 555 55T546 28Q532 2 478 2T405 15T383 55Q346 2 260 2T99 81T25 264T99 447T263 526Q297 526 325 514T364
492T382 471ZM200 230T226 204T289 177T350 204T375 263T352 324T289 352T225 324T200 263ZM222 595T190 595T139 601T112 622T103 649T101 685T103 720T112 746T139 767T191 773T242 767T269 746T278 719T280 684T279 649T269 622T242 601ZM492 595T460 595T409
601T382 622T373 649T371 685T372 720T382 746T409 767T461 773T512 767T539 746T548 719T550 684T549 649T539 622T512 601Z" />
<glyph unicode="&#xe5;" glyph-name="aring" horiz-adv-x="596" d="M226 693T257 722T329 751T399 723T430 649T399 576T329 548T258 576T226 649ZM311 602T328 602T360 614T376 650T361 686T329 698T296 686T280 650T295 614ZM382 471Q388 527 461 527Q500 527
519 521T545 500T554 474T556 439V89Q556 66 555 55T546 28Q532 2 478 2T405 15T383 55Q346 2 260 2T99 81T25 264T99 447T263 526Q297 526 325 514T364 492T382 471ZM200 230T226 204T289 177T350 204T375 263T352 324T289 352T225 324T200 263Z" />
<glyph unicode="&#xe6;" glyph-name="ae" horiz-adv-x="910" d="M752 159Q778 169 791 169Q824 169 846 126Q859 100 859 81T848 49T827 31T809 23T799 20T796 18Q727 -7 649 -7Q512 -7 436 78L434 74Q395 34 347 13T207 -9Q25 -9 25 149Q25 214 83 247T228 280T361
249V255Q351 373 277 373Q233 373 200 338T137 303T73 343T39 409T71 464T156 514T274 535Q378 535 453 463Q530 532 649 532Q707 532 754 513T829 462Q885 399 885 333T855 238T787 209H554Q554 181 586 162T651 143Q710 143 742 155L752 159ZM245 109Q283 109
319 123T375 162L372 171Q326 189 252 189T178 155Q178 109 245 109ZM714 352T697 366T648 380T585 354T553 298H679Q714 298 714 329Q714 352 697 366Z" />
<glyph unicode="&#xe7;" glyph-name="ccedilla" horiz-adv-x="524" d="M201 -21Q204 -4 217 6Q136 32 81 99T25 267Q25 331 51 384T118 470Q205 538 299 538Q338 538 374 528T427 508L444 497Q463 485 472 478Q499 457 499 432T477 372Q441 317 407 317Q388 317
353 339Q334 356 300 356T237 333T208 266T236 198T297 174T356 192T401 211Q431 211 476 157Q499 128 499 104Q499 67 444 32Q412 10 361 -1Q396 -32 396 -82T361 -162T284 -192Q257 -192 243 -184Q204 -164 202 -145L201 -140Q201 -128 216 -110T243 -91T261
-95T272 -101Q276 -105 284 -105T300 -99T308 -82T301 -64T285 -58T271 -63Q255 -73 242 -73T215 -52T201 -21Z" />
<glyph unicode="&#xe8;" glyph-name="egrave" horiz-adv-x="573" d="M379 569L349 576L184 628Q157 636 149 647T141 674T149 715Q168 774 198 774Q202 774 228 767L393 716Q407 711 414 708Q436 697 436 675T428 628Q409 569 379 569ZM548 265T518 236T450 206H213Q213
178 246 159T312 140Q370 140 403 152L414 156Q438 167 454 167Q486 167 509 122Q522 95 522 76Q522 -13 309 -13Q235 -13 178 12T88 80Q25 161 25 261Q25 387 106 462T310 538Q449 538 514 440Q548 388 548 327ZM337 297Q375 297 375 329Q375 352 358 366T308
380T243 354T211 297H337Z" />
<glyph unicode="&#xe9;" glyph-name="eacute" horiz-adv-x="573" d="M256 576Q242 569 226 569Q196 569 177 628Q169 652 169 669T176 695Q185 708 212 716L377 767Q403 774 407 774Q437 774 455 715Q463 691 463 675T456 649Q447 636 420 628L256 576ZM548 265T518
236T450 206H213Q213 178 246 159T312 140Q370 140 403 152L414 156Q438 167 454 167Q486 167 509 122Q522 95 522 76Q522 -13 309 -13Q235 -13 178 12T88 80Q25 161 25 261Q25 387 106 462T310 538Q449 538 514 440Q548 388 548 327ZM337 297Q375 297 375 329Q375
352 358 366T308 380T243 354T211 297H337Z" />
<glyph unicode="&#xea;" glyph-name="ecircumflex" horiz-adv-x="573" d="M297 774L320 769Q413 739 454 725T496 676Q496 657 485 636Q458 583 425 583Q416 583 393 590L297 632L204 592Q190 585 170 585Q132 585 108 636Q96 662 96 678Q96 710 134 723L273 769L297
774ZM548 265T518 236T450 206H213Q213 178 246 159T312 140Q370 140 403 152L414 156Q438 167 454 167Q486 167 509 122Q522 95 522 76Q522 -13 309 -13Q235 -13 178 12T88 80Q25 161 25 261Q25 387 106 462T310 538Q449 538 514 440Q548 388 548 327ZM337 297Q375
297 375 329Q375 352 358 366T308 380T243 354T211 297H337Z" />
<glyph unicode="&#xeb;" glyph-name="edieresis" horiz-adv-x="573" d="M455 595T423 595T372 601T345 622T336 649T334 685T335 720T345 746T372 767T424 773T475 767T502 746T511 719T513 684T512 649T502 622T475 601ZM185 595T153 595T102 601T75 622T66 649T64
685T66 720T75 746T102 767T154 773T205 767T232 746T241 719T243 684T242 649T232 622T205 601ZM548 265T518 236T450 206H213Q213 178 246 159T312 140Q370 140 403 152L414 156Q438 167 454 167Q486 167 509 122Q522 95 522 76Q522 -13 309 -13Q235 -13 178
12T88 80Q25 161 25 261Q25 387 106 462T310 538Q449 538 514 440Q548 388 548 327ZM337 297Q375 297 375 329Q375 352 358 366T308 380T243 354T211 297H337Z" />
<glyph unicode="&#xec;" glyph-name="igrave" horiz-adv-x="255" d="M40 439Q40 462 41 473T50 500Q64 526 128 526Q176 526 196 509Q213 495 214 466Q215 456 215 437V87Q215 64 214 53T204 26Q191 0 127 0Q64 0 50 27Q43 42 42 53T40 88V439ZM191 569L161 576L-4
628Q-31 636 -39 647T-47 674T-39 715Q-20 774 10 774Q14 774 40 767L205 716Q219 711 226 708Q248 697 248 675T240 628Q221 569 191 569Z" />
<glyph unicode="&#xed;" glyph-name="iacute" horiz-adv-x="255" d="M40 439Q40 462 41 473T50 500Q64 526 128 526Q176 526 196 509Q213 495 214 466Q215 456 215 437V87Q215 64 214 53T204 26Q191 0 127 0Q64 0 50 27Q43 42 42 53T40 88V439ZM103 576Q103 576
73 569Q43 569 24 628Q16 652 16 669T22 695Q32 708 59 716L224 767Q250 774 254 774Q284 774 302 715Q310 691 310 675T304 649Q294 636 267 628L103 576Z" />
<glyph unicode="&#xee;" glyph-name="icircumflex" horiz-adv-x="255" d="M40 439Q40 462 41 473T50 500Q64 526 128 526Q176 526 196 509Q213 495 214 466Q215 456 215 437V87Q215 64 214 53T204 26Q191 0 127 0Q64 0 50 27Q43 42 42 53T40 88V439ZM129 774L152
769Q245 739 286 725T328 676Q328 657 317 636Q290 583 257 583Q248 583 225 590L129 632L36 592Q22 585 2 585Q-36 585 -60 636Q-72 662 -72 678Q-72 710 -34 723L105 769L129 774Z" />
<glyph unicode="&#xef;" glyph-name="idieresis" horiz-adv-x="255" d="M40 439Q40 462 41 473T50 500Q64 526 128 526Q176 526 196 509Q213 495 214 466Q215 456 215 437V87Q215 64 214 53T204 26Q191 0 127 0Q64 0 50 27Q43 42 42 53T40 88V439ZM24 595T-8 595T-59
601T-86 622T-95 649T-97 685T-95 720T-86 746T-59 767T-7 773T44 767T71 746T80 719T82 684T81 649T71 622T44 601ZM294 595T262 595T211 601T184 622T175 649T173 685T174 720T184 746T211 767T263 773T314 767T341 746T350 719T352 684T351 649T341 622T314
601Z" />
<glyph unicode="&#xf0;" glyph-name="eth" horiz-adv-x="585" d="M386 735L362 703Q560 559 560 290Q560 274 558 242Q552 147 477 69T296 -9T108 65T25 255Q25 311 48 361T109 444T190 496T279 515T353 503T412 468Q359 559 284 599L253 558Q236 535 224 535T196
545Q167 562 167 579Q167 588 180 605L203 636L200 637Q199 638 183 646T161 662T155 685T169 727Q191 769 221 769Q236 769 286 747L310 779Q312 781 315 786T321 794T326 800Q334 806 344 806T370 795Q397 779 397 766T386 735ZM197 210T228 187T291 163T355
186T387 258T357 329T292 352T227 328T197 257Z" />
<glyph unicode="&#xf1;" glyph-name="ntilde" horiz-adv-x="606" d="M333 527Q433 527 499 451T566 264V88Q566 65 565 54T556 28Q542 1 478 1Q407 1 396 38Q390 55 390 89V265Q390 306 367 329T304 352T240 328T215 265V88Q215 65 214 54T204 28Q191 1 127 1Q64
1 50 28Q43 43 42 54T40 89V443Q40 465 41 476T51 502Q65 527 128 527Q189 527 203 504Q213 487 213 463Q217 470 231 483T258 504Q292 527 333 527ZM470 758Q506 733 506 710Q506 696 498 683T487 665T473 645T448 620Q410 592 371 592T310 605T273 631T249 644Q235
644 223 632Q200 592 181 592T134 616T106 655T114 684T125 702T139 721T165 746Q202 773 242 773T304 761T340 736T363 723Q379 723 389 735Q410 773 434 773Q449 773 470 758Z" />
<glyph unicode="&#xf2;" glyph-name="ograve" horiz-adv-x="600" d="M25 383T109 461T301 539T492 462T575 264Q575 181 532 117T428 22T300 -9T172 23T68 119T25 263Q25 383 109 461ZM389 569L359 576L194 628Q167 636 159 647T151 674T159 715Q178 774 208 774Q212
774 238 767L403 716Q417 711 424 708Q446 697 446 675T438 628Q419 569 389 569ZM266 167T299 167T365 192T398 266T367 339T300 363T233 338T202 265T234 192Z" />
<glyph unicode="&#xf3;" glyph-name="oacute" horiz-adv-x="600" d="M25 383T109 461T301 539T492 462T575 264Q575 181 532 117T428 22T300 -9T172 23T68 119T25 263Q25 383 109 461ZM263 576L233 569Q203 569 184 628Q176 652 176 669T182 695Q192 708 219 716L384
767Q410 774 414 774Q444 774 462 715Q470 691 470 675T464 649Q454 636 427 628L263 576ZM266 167T299 167T365 192T398 266T367 339T300 363T233 338T202 265T234 192Z" />
<glyph unicode="&#xf4;" glyph-name="ocircumflex" horiz-adv-x="600" d="M25 383T109 461T301 539T492 462T575 264Q575 181 532 117T428 22T300 -9T172 23T68 119T25 263Q25 383 109 461ZM266 167T299 167T365 192T398 266T367 339T300 363T233 338T202 265T234
192ZM304 774L327 769Q420 739 461 725T503 676Q503 657 492 636Q466 583 432 583Q423 583 400 590L304 632L211 592Q210 592 210 592Q190 585 177 585Q139 585 115 636Q103 662 103 678Q103 710 141 723L280 769L304 774Z" />
<glyph unicode="&#xf5;" glyph-name="otilde" horiz-adv-x="600" d="M25 383T109 461T301 539T492 462T575 264Q575 181 532 117T428 22T300 -9T172 23T68 119T25 263Q25 383 109 461ZM266 167T299 167T365 192T398 266T367 339T300 363T233 338T202 265T234 192ZM466
758Q502 733 502 710Q502 696 494 683T483 665T469 645T444 620Q406 592 367 592T306 605T269 631T245 644Q231 644 219 632Q196 592 177 592T130 616T102 655T110 684T121 702T135 721T161 746Q198 773 238 773T300 761T336 736T359 723Q375 723 385 735Q406 773
430 773Q445 773 466 758Z" />
<glyph unicode="&#xf6;" glyph-name="odieresis" horiz-adv-x="600" d="M25 383T109 461T301 539T492 462T575 264Q575 181 532 117T428 22T300 -9T172 23T68 119T25 263Q25 383 109 461ZM266 167T299 167T365 192T398 266T367 339T300 363T233 338T202 265T234
192ZM192 595T160 595T109 601T82 622T73 649T71 685T73 720T82 746T109 767T161 773T212 767T239 746T248 719T250 684T249 649T239 622T212 601ZM462 595T430 595T379 601T352 622T343 649T341 685T342 720T352 746T379 767T431 773T482 767T509 746T518 719T520
684T519 649T509 622T482 601Z" />
<glyph unicode="&#xf7;" glyph-name="divide" horiz-adv-x="503" d="M405 346Q462 346 472 316Q478 300 478 274T473 233T456 212Q438 202 404 202H95Q42 202 30 234Q25 249 25 274T31 315T50 337Q70 346 99 346H405ZM188 153T205 159T261 165T316 148T333 86V82Q333
47 324 30Q310 2 257 2T186 21Q170 36 170 71T172 116T181 139ZM316 395T298 389T242 383T187 400T170 452T172 497T181 520Q194 546 246 546T318 528Q333 513 333 467V463Q333 428 325 412Z" />
<glyph unicode="&#xf8;" glyph-name="oslash" horiz-adv-x="600" d="M488 464Q575 384 575 263Q575 180 532 116T428 21T301 -10Q280 -10 261 -7L213 -107Q205 -124 201 -132T186 -147T158 -155T108 -140T64 -114T52 -82T64 -38L113 64Q25 144 25 263T109 460T299
538Q318 538 338 535L386 635Q405 673 420 680Q428 683 443 683T494 667Q548 641 548 610Q548 597 534 560L488 464ZM266 166T299 166T365 191T398 265T367 338T300 362T233 337T202 264T234 191Z" />
<glyph unicode="&#xf9;" glyph-name="ugrave" horiz-adv-x="606" d="M274 2Q173 2 107 78T40 265V440Q40 464 41 475T50 501Q64 528 128 528Q198 528 210 490Q216 474 216 439V264Q216 223 239 200T302 177T366 201T391 264V441Q391 464 392 475T402 502Q415 528
479 528Q542 528 556 501Q563 486 564 475T566 440V86Q566 64 565 53T555 27Q540 1 478 1Q417 1 403 25Q393 42 393 66Q389 59 375 46T348 24Q314 2 274 2ZM388 569Q374 569 358 576L193 628Q166 636 158 647T150 674T158 715Q177 774 207 774Q211 774 237 767L402
716Q416 711 424 708Q445 697 445 675T437 628Q418 569 388 569Z" />
<glyph unicode="&#xfa;" glyph-name="uacute" horiz-adv-x="606" d="M274 2Q173 2 107 78T40 265V440Q40 464 41 475T50 501Q64 528 128 528Q198 528 210 490Q216 474 216 439V264Q216 223 239 200T302 177T366 201T391 264V441Q391 464 392 475T402 502Q415 528
479 528Q542 528 556 501Q563 486 564 475T566 440V86Q566 64 565 53T555 27Q540 1 478 1Q417 1 403 25Q393 42 393 66Q389 59 375 46T348 24Q314 2 274 2ZM279 576L249 569Q219 569 200 628Q192 652 192 669T198 695Q208 708 235 716L400 767Q426 774 430 774Q460
774 478 715Q486 691 486 675T480 649Q470 636 443 628L279 576Z" />
<glyph unicode="&#xfb;" glyph-name="ucircumflex" horiz-adv-x="606" d="M274 2Q173 2 107 78T40 265V440Q40 464 41 475T50 501Q64 528 128 528Q198 528 210 490Q216 474 216 439V264Q216 223 239 200T302 177T366 201T391 264V441Q391 464 392 475T402 502Q415
528 479 528Q542 528 556 501Q563 486 564 475T566 440V86Q566 64 565 53T555 27Q540 1 478 1Q417 1 403 25Q393 42 393 66Q389 59 375 46T348 24Q314 2 274 2ZM308 774L331 769Q424 739 465 725T507 676Q507 657 496 636Q470 583 436 583Q427 583 404 590L308
632L215 592Q214 592 214 592Q194 585 181 585Q143 585 119 636Q107 662 107 678Q107 710 145 723L284 769L308 774Z" />
<glyph unicode="&#xfc;" glyph-name="udieresis" horiz-adv-x="606" d="M274 2Q173 2 107 78T40 265V440Q40 464 41 475T50 501Q64 528 128 528Q198 528 210 490Q216 474 216 439V264Q216 223 239 200T302 177T366 201T391 264V441Q391 464 392 475T402 502Q415
528 479 528Q542 528 556 501Q563 486 564 475T566 440V86Q566 64 565 53T555 27Q540 1 478 1Q417 1 403 25Q393 42 393 66Q389 59 375 46T348 24Q314 2 274 2ZM467 595T435 595T384 601T357 622T348 649T346 685T347 720T357 746T384 767T436 773T487 767T514
746T523 719T525 684T524 649T514 622T487 601ZM197 595T165 595T114 601T87 622T78 649T76 685T78 720T87 746T114 767T166 773T217 767T244 746T253 719T255 684T254 649T244 622T217 601Z" />
<glyph unicode="&#xfd;" glyph-name="yacute" horiz-adv-x="604" d="M530 521Q589 495 589 458Q589 440 581 424T573 407L311 -179Q303 -198 298 -208T280 -227T250 -236T197 -221Q138 -195 138 -159Q138 -135 234 70L35 405Q15 438 15 454Q15 486 69 518Q103
538 122 538T153 530T170 514T225 421T320 263Q325 279 374 386T426 501T438 518Q451 535 474 535T530 521ZM275 576L245 569Q215 569 196 628Q188 652 188 669T194 695Q204 708 231 716L396 767Q422 774 426 774Q456 774 474 715Q482 691 482 675T476 649Q466
636 439 628L275 576Z" />
<glyph unicode="&#xfe;" glyph-name="thorn" horiz-adv-x="580" d="M317 526Q406 526 480 447T555 264T481 81T323 2T202 48V-141Q202 -180 194 -197T168 -220T121 -226T74 -220T50 -200Q40 -179 40 -139V701Q40 740 48 757T75 781T122 787T168 781T193 760Q203
740 203 700V477Q243 526 317 526ZM254 176T291 176T354 203T380 263T356 323T292 351T229 323T205 263T229 203Z" />
<glyph unicode="&#xff;" glyph-name="ydieresis" horiz-adv-x="604" d="M530 521Q589 495 589 458Q589 440 581 424T573 407L311 -179Q303 -198 298 -208T280 -227T250 -236T197 -221Q138 -195 138 -159Q138 -135 234 70L35 405Q15 438 15 454Q15 486 69 518Q103
538 122 538T153 530T170 514T225 421T320 263Q325 279 374 386T426 501T438 518Q451 535 474 535T530 521ZM208 595T176 595T125 601T98 622T89 649T87 685T89 720T98 746T125 767T177 773T228 767T255 746T264 719T266 684T265 649T255 622T228 601ZM478 595T446
595T395 601T368 622T359 649T357 685T358 720T368 746T395 767T447 773T498 767T525 746T534 719T536 684T535 649T525 622T498 601Z" />
<glyph unicode="&#x2013;" glyph-name="endash" horiz-adv-x="561" d="M470 193H87Q56 193 42 202Q15 217 15 275T40 346Q59 355 90 355H471Q528 355 540 320Q546 303 546 277T542 235T532 211T514 198Q500 193 470 193Z" />
<glyph unicode="&#x2014;" glyph-name="emdash" horiz-adv-x="693" d="M603 193H87Q56 193 42 202Q15 217 15 275T40 346Q59 355 90 355H604Q662 355 672 320Q678 303 678 274T673 228T656 203Q638 193 603 193Z" />
<glyph unicode="&#x2018;" glyph-name="quoteleft" horiz-adv-x="237" d="M178 570T195 553T212 495V480Q212 456 211 444T201 416Q186 387 125 387T45 407T25 483Q25 508 27 520Q34 608 79 670T193 733Q200 733 205 723T211 696T207 669T197 658T188 656T178
651T164 638Q147 618 145 573Q178 570 195 553Z" />
<glyph unicode="&#x2019;" glyph-name="quoteright" horiz-adv-x="237" d="M195 712Q212 695 212 654V638Q212 613 210 601Q203 513 158 450T44 387Q37 387 32 397T26 425T30 451T40 462T49 464T60 469T74 482Q90 503 92 547Q58 552 42 569T25 641Q25 681 35 700T65
726T129 733T195 712Z" />
<glyph unicode="&#x201a;" glyph-name="quotesinglbase" horiz-adv-x="237" d="M195 165Q212 148 212 107V91Q212 66 210 54Q203 -34 158 -97T44 -160Q37 -160 32 -150T26 -122T30 -96T40 -85T49 -83T60 -78T74 -65Q90 -44 92 0Q58 5 42 22T25 94Q25 134 35 153T65
179T129 186T195 165Z" />
<glyph unicode="&#x201c;" glyph-name="quotedblleft" horiz-adv-x="482" d="M178 570T195 553T212 495V480Q212 456 211 444T201 416Q186 387 125 387T45 407T25 483Q25 508 27 520Q34 608 79 670T193 733Q200 733 205 723T211 696T207 669T197 658T188 656T178
651T164 638Q147 618 145 573Q178 570 195 553ZM389 573Q422 570 439 553T457 480Q457 421 436 405Q411 387 360 387T289 407T269 483Q269 508 271 520Q278 608 323 670T438 733Q445 733 450 723T456 696T452 669T442 658T433 656T422 651T408 638Q391 618 389
573Z" />
<glyph unicode="&#x201d;" glyph-name="quotedblright" horiz-adv-x="482" d="M290 720T310 726T374 733T437 714T457 638Q457 525 402 450Q357 387 288 387Q281 387 276 397T270 425T274 451T284 462T293 464T304 469T318 482Q334 503 336 547Q304 551 287 567Q269
586 269 625T271 676T281 704ZM195 712Q212 695 212 654V638Q212 613 210 601Q203 513 158 450T44 387Q37 387 32 397T26 425T30 451T40 462T49 464T60 469T74 482Q90 503 92 547Q58 552 42 569T25 641Q25 681 35 700T65 726T129 733T195 712Z" />
<glyph unicode="&#x201e;" glyph-name="quotedblbase" horiz-adv-x="482" d="M290 173T310 179T374 186T437 167T457 91Q457 -22 402 -97Q357 -160 288 -160Q281 -160 276 -150T270 -122T274 -96T284 -85T293 -83T304 -78T318 -65Q334 -44 336 0Q304 4 287 20Q269
39 269 78T271 129T281 157ZM195 165Q212 148 212 107V91Q212 66 210 54Q203 -34 158 -97T44 -160Q37 -160 32 -150T26 -122T30 -96T40 -85T49 -83T60 -78T74 -65Q90 -44 92 0Q58 5 42 22T25 94Q25 134 35 153T65 179T129 186T195 165Z" />
<glyph unicode="&#x2022;" glyph-name="bullet" horiz-adv-x="342" d="M317 462T317 316T171 170T25 316T171 462Z" />
<glyph unicode="&#x2039;" glyph-name="guilsinglleft" horiz-adv-x="383" d="M16 263L15 270Q15 291 45 321L221 497Q252 528 275 528T333 493T368 436T342 385L221 263L341 144Q368 115 368 92T334 34T276 -1T221 30L42 208Q15 237 15 256L16 263Z" />
<glyph unicode="&#x203a;" glyph-name="guilsinglright" horiz-adv-x="383" d="M338 321Q368 293 368 272Q368 266 367 263Q368 260 368 254Q368 233 338 205L160 28Q130 -2 108 -2T50 33Q15 68 15 92T45 146L162 263L43 383Q15 411 15 434T50 493T108 528T162
497L338 321Z" />
</font>
</defs>
</svg>
