<?xml version="1.0" standalone="no"?>
<!DOCTYPE svg PUBLIC "-//W3C//DTD SVG 1.1//EN" "http://www.w3.org/Graphics/SVG/1.1/DTD/svg11.dtd" >
<svg xmlns="http://www.w3.org/2000/svg" xmlns:xlink="http://www.w3.org/1999/xlink" version="1.1">
<metadata>
Created by FontForge 20201107 at Sat Sep 28 23:34:54 2002
 By Unknown
2002 Iconian Fonts - www.iconian.com
</metadata>
<defs>
<font id="TheRifleman" horiz-adv-x="200" >
  <font-face 
    font-family="The Rifleman"
    font-weight="400"
    font-stretch="normal"
    units-per-em="1000"
    panose-1="0 0 0 0 0 0 0 0 0 0"
    ascent="800"
    descent="-200"
    x-height="448.5"
    cap-height="608"
    bbox="-79.75 -378 1176 955"
    underline-thickness="56"
    underline-position="-139"
    unicode-range="U+0020-2122"
  />
<missing-glyph horiz-adv-x="556" 
 />
    <glyph glyph-name=".notdef" horiz-adv-x="556" 
 />
    <glyph glyph-name=".null" horiz-adv-x="0" 
 />
    <glyph glyph-name="nonmarkingreturn" horiz-adv-x="556" 
 />
    <glyph glyph-name="space" unicode=" " horiz-adv-x="422" 
 />
    <glyph glyph-name="exclam" unicode="!" horiz-adv-x="456" 
d="M10 70q0 1 -0.5 7.5t0 13.5t3.5 13t9 7q3 0 8.5 0.5t11.5 1t11 0.5h8q16 0 30 -1.5t26 -6t24 -14t26 -24.5q1 -3 1.5 -9t0.5 -8q0 -26 -18.5 -38.5t-41.5 -12.5q-18 0 -35.5 3.5t-31.5 11.5t-23 21.5t-9 34.5zM144 244l9.5 28.5t14 43.5t16 51t16 51t13.5 43t9 28
q5 15 10 34.5t13 37t21 29t34 11.5q4 0 12.5 -0.5t9.5 -0.5q11 -2 28 -7t33 -10.5t27.5 -10t11.5 -5.5v-11q0 -2 -9 -16t-21 -33.5t-25.5 -39.5t-22.5 -34l-66 -89l-22 -33q-4 -4 -9.5 -11t-10.5 -14t-9 -12.5t-5 -6.5q-6 -8 -17 -19l-22 -22t-19 -18.5l-8 -7.5l-20 9z" />
    <glyph glyph-name="quotedbl" unicode="&#x22;" horiz-adv-x="400" 
d="M210 581q0 2 -0.5 8.5t0 13t3.5 12.5t9 7q3 0 8.5 0.5t11.5 1t11 0.5h8q16 0 30 -1.5t26 -6t24 -14t26 -24.5q1 -2 1.5 -8.5t0.5 -8.5q13 -43 -23 -99q-34 -55 -73 -78q-37 -22 20 125q-10 3 -24.5 6t-27.5 10.5t-22 20t-9 35.5zM6 581q0 2 -1 8t-0.5 13t3.5 13t10 7
q2 0 7.5 0.5t11.5 1t11 0.5h9q33 0 56 -7.5t49 -38.5q1 -2 1.5 -8.5t0.5 -8.5q14 -44 -22 -99q-34 -55 -73 -78t20 125q-11 3 -25.5 6.5t-27 10.5t-21.5 19.5t-9 35.5z" />
    <glyph glyph-name="FL0023h" unicode="#" horiz-adv-x="675" 
d="M11 403q0 -3 0.5 -8.5t1 -11.5t1 -10.5t0.5 -5.5l11 -11h78v-30q0 -5 1 -25t3 -46h-79q-3 0 -6.5 -8.5t-4.5 -13.5q0 -2 -1 -8.5t-1 -15.5q0 -8 -0.5 -16t-0.5 -13q0 -3 0.5 -8.5t1 -11.5t1 -10.5t0.5 -5.5l11 -11h86q0 -12 1 -33.5t4 -43t7 -37t10 -15.5h89q4 0 8 5.5
t7.5 11.5t5.5 11l2 5q3 24 5.5 48t4.5 47h140q0 -13 1.5 -34t4 -41.5t6.5 -35.5t10 -15h89q4 0 8 5.5t7.5 11.5t5.5 11l2 5q6 46 9 93h93v122h-90v101h87v122h-88v67v40q-1 4 -5 17t-6 16q-2 2 -6 6.5t-6 4.5h-136v-35v-54q0 -30 1 -62h-126v65v40q-1 4 -5 17t-6 16
q-2 2 -6 6.5t-6 4.5h-136v-35q0 -22 0.5 -51.5t0.5 -61.5h-76q-3 0 -6.5 -8.5t-4.5 -13.5q0 -2 -1 -8.5t-1 -15.5q0 -8 -0.5 -16t-0.5 -13zM391 254h-131v101h127v-27q0 -5 1 -26.5t3 -47.5z" />
    <glyph glyph-name="dollar" unicode="$" horiz-adv-x="473" 
d="M44 56q0 2 -0.5 8t-0.5 8q0 27 9.5 47.5t25.5 47.5h5q7 0 18 -4t23 -10l23 -11.5t20 -8.5l17 -4l5 115q-11 -2 -45 13q-36 15 -65 39q-29 25 -49 61t-20 93q0 54 16.5 96t46.5 72q32 31 74 45q22 8 40.5 12t32.5 5v58h67v-62q42 0 77 -8q33 -8 57.5 -24t24.5 -46
q0 -11 -1.5 -29.5t-6 -36.5t-13.5 -31t-25 -13q-15 0 -26 2.5t-22.5 7.5t-25.5 11.5t-35 14.5v-111q31 -22 56.5 -41t44 -43t29.5 -57t12 -83q0 -39 -9 -66t-25 -48t-38.5 -38.5t-49.5 -36.5h-14q-10 0 -22 -0.5t-22 -0.5h-10t-10 1l-4 -58h-58l5 62q-29 0 -61.5 14
t-70.5 38zM220 422v102q-8 -1 -13 -1.5t-7 -0.5q-22 -11 -28 -20.5t-6 -28.5q0 -20 20 -31q21 -11 34 -20zM247 209l-5 -85q36 28 36 54q0 18 -31 31z" />
    <glyph glyph-name="FL0025h" unicode="%" horiz-adv-x="853" 
d="M535 604h100q1 0 5.5 -4.5t5.5 -6.5q2 -6 6.5 -18.5t4.5 -14.5q-324 -520 -338 -532q-5 -4 -12 -10.5t-15 -14.5q-25 0 -53 4t-49 19v24q0 17 -0.5 36.5t-0.5 37.5q306 478 332 478zM315 454q0 -35 -12.5 -70.5t-34.5 -64.5t-53 -47.5t-68 -18.5q-36 0 -63 15t-45 39
t-27.5 55.5t-9.5 64.5q0 38 12.5 74t35.5 64t55.5 45t73.5 17q33 0 58 -16t42.5 -41.5t26.5 -56t9 -59.5zM230 451q0 15 -3 30.5t-10 29t-19 22t-30 8.5q-20 0 -33 -12t-20.5 -29t-10 -36t-2.5 -34q0 -14 3 -29.5t9.5 -29t18.5 -22.5t30 -9q17 0 29.5 12.5t21 30t12.5 36.5
t4 32zM815 205q0 -35 -12.5 -70.5t-34.5 -64.5t-53 -47.5t-68 -18.5q-36 0 -63 15t-45 39t-27.5 55.5t-9.5 64.5q0 38 12.5 74t35.5 64t55.5 45t73.5 17q33 0 58 -16t42.5 -41.5t26.5 -56t9 -59.5zM730 202q0 15 -3 30.5t-10 29t-19 22t-30 8.5q-20 0 -33 -12t-20.5 -29
t-10 -36t-2.5 -34q0 -14 3 -29.5t9.5 -29t18.5 -22.5t30 -9q17 0 29.5 12.5t21 30t12.5 36.5t4 32z" />
    <glyph glyph-name="FL0026h" unicode="&#x26;" horiz-adv-x="518" 
d="M401 583q-5 28 -15 36t-39 8h-26h-18h-11q-5 0 -10 1q-23 1 -78 -3q-28 -2 -54 -4t-50 -4q-37 -11 -52 -26t-28 -63q-14 -48 -3 -71t27 -43.5t51 -50.5q-7 -10 -12.5 -16.5t-9.5 -10.5q-9 -6 -36 -30q-18 -33 -22.5 -55t-4.5 -51q0 -46 5 -88.5t32 -73.5q25 -31 93 -34
q16 -1 45 -1.5t60 -1t58 -1t41 -0.5q12 0 17 -11.5t10.5 -25t14.5 -24.5t30 -11q5 0 17 3t25 6.5t23 8t12 7.5q3 12 -7 29t-22.5 33.5t-22.5 30.5t-8 22l47 200q0 3 -12 4.5t-28.5 2t-32.5 1t-25 0.5q-5 0 -10.5 -24.5t-12 -54t-13.5 -54t-14 -25.5q-40 -4 -62 -6.5
t-27 -4.5l-3 -0.5t-4 -0.5q-27 0 -42 10.5t-22 25.5t-8.5 31t-1.5 27q0 16 5 33.5t17 32.5t32.5 24.5t51.5 9.5q45 22 47 61q1 40 -20 46q-20 6 -36 4q-14 -2 -20 -5.5t-13 -2.5q-28 9 -42 33.5t-26 49.5q-13 25 53 48l186 20z" />
    <glyph glyph-name="quotesingle" unicode="'" 
d="M6 586q0 1 -1 7.5t-0.5 13.5t3.5 13t10 7q2 0 7.5 0.5t11.5 1t11 0.5h9q33 0 56 -8t49 -39q1 -2 1.5 -8t0.5 -8q14 -45 -22 -100q-17 -28 -35.5 -47t-37.5 -30q-39 -24 20 124q-13 5 -25.5 6.5t-26.5 9.5q-14 9 -22.5 22t-8.5 35z" />
    <glyph glyph-name="parenleft" unicode="(" horiz-adv-x="322" 
d="M11 333q0 48 15 99t44.5 93.5t72 69.5t96.5 27l18 -143q-30 0 -50 -14.5t-32 -36.5t-16.5 -49t-4.5 -51q0 -21 6.5 -52.5t20 -61t35 -50.5t50.5 -21l25 -144q-62 0 -113 30.5t-88.5 79t-58 108t-20.5 116.5z" />
    <glyph glyph-name="parenright" unicode=")" horiz-adv-x="322" 
d="M291 333q0 48 -15 99t-44.5 93.5t-72 69.5t-96.5 27l-17 -143q30 0 50 -14.5t31.5 -36.5t16 -49t4.5 -51q0 -21 -6.5 -52.5t-20 -61t-34.5 -50.5t-50 -21l-26 -144q62 0 113.5 30.5t88.5 79t57.5 108t20.5 116.5z" />
    <glyph glyph-name="FL002Ah" unicode="*" horiz-adv-x="440" 
d="M78 858l35 4l63 -63h24l79 79l90 -91q2 -2 -4.5 -13.5t-11.5 -18.5q-2 -2 -10 -10.5t-16 -16.5q-9 -9 -17.5 -16.5t-10.5 -10.5l-5 -20l87 -86l-75 -75h-16l-86 71q-1 0 -3.5 3.5t-4.5 3.5q-6 2 -13.5 1.5t-20.5 -13.5l-66 -65h-13q-5 0 -11 1q-10 0 -35 28
q-11 14 -18.5 22t-11.5 12q-5 5 7 30l68 67q5 5 -3 22t-20.5 35.5t-23.5 33t-12 15.5q-1 2 -1.5 8t1.5 8z" />
    <glyph glyph-name="plus" unicode="+" horiz-adv-x="440" 
d="M11 402l22 28h89l17 17v111h128q2 0 6 -13t5 -21q0 -4 0.5 -15t0.5 -23q0 -13 -0.5 -24t-0.5 -15l11 -17h122v-106l-11 -11l-111 -11q-1 0 -5.5 0.5t-5.5 -0.5q-5 -3 -10.5 -9t-5.5 -24v-93q-5 -5 -9 -8.5t-9 -7.5q-7 -7 -44 -5q-36 3 -45 3q-8 0 -17 26l1 96q0 7 -18 13
t-39.5 10.5t-40 7t-19.5 2.5q-2 1 -6.5 5t-4.5 6v78z" />
    <glyph glyph-name="comma" unicode="," 
d="M10 70q0 1 -0.5 7.5t0 13.5t3.5 13t9 7q3 0 8.5 0.5t11.5 1t11 0.5h8q16 0 30 -1.5t26 -6t24 -14t26 -24.5q1 -3 1.5 -9t0.5 -8q13 -42 -23 -98q-34 -55 -73 -78q-37 -22 20 124q-10 3 -24.5 6t-27.5 10.5t-22 20t-9 35.5z" />
    <glyph glyph-name="minus" unicode="-" horiz-adv-x="344" 
d="M13 243q0 5 0.5 13t0.5 16q0 9 1 15.5t1 8.5q1 5 4.5 13.5t6.5 8.5h289v-122h-289l-11 11q0 1 -0.5 5.5t-1 10.5t-1 11.5t-0.5 8.5z" />
    <glyph glyph-name="period" unicode="." 
d="M10 70q0 1 -0.5 7.5t0 13.5t3.5 13t9 7q3 0 8.5 0.5t11.5 1t11 0.5h8q16 0 30 -1.5t26 -6t24 -14t26 -24.5q1 -3 1.5 -9t0.5 -8q0 -26 -18.5 -38.5t-41.5 -12.5q-18 0 -35.5 3.5t-31.5 11.5t-23 21.5t-9 34.5z" />
    <glyph glyph-name="slash" unicode="/" horiz-adv-x="507" 
d="M357 600l-14 -2q-26 0 -332 -478q0 -18 0.5 -37.5t0.5 -36.5v-24q21 -15 49 -19t53 -4q8 8 15 14.5t12 10.5q12 10 338 532q0 2 -4.5 14.5t-6.5 18.5q-1 2 -5.5 6.5t-5.5 4.5h-100z" />
    <glyph glyph-name="zero" unicode="0" horiz-adv-x="562" 
d="M534 333q0 48 -15 99t-44 93.5t-71.5 69.5t-96.5 27q-68 0 -122.5 -28.5t-93 -75t-59.5 -106.5t-21 -123q0 -56 15.5 -108t46.5 -92.5t76 -65t105 -24.5q62 0 113.5 30.5t88.5 79t57.5 108t20.5 116.5zM391 328q0 -21 -6.5 -52.5t-20 -61t-34.5 -50.5t-50 -21
q-30 0 -49.5 15t-31 38t-16 49t-4.5 49q0 24 4.5 56t16.5 60.5t33.5 48.5t55.5 20q30 0 50 -14.5t31.5 -36.5t16 -49t4.5 -51z" />
    <glyph glyph-name="one" unicode="1" horiz-adv-x="196" 
d="M8 622h136q2 0 6 -4.5t6 -6.5q2 -3 6 -16t5 -17v-40q0 -28 0.5 -60t0.5 -61v-39v-172q0 -86 -12 -173l-2 -5t-5.5 -11t-7.5 -11.5t-8 -5.5h-89q-6 0 -10 17t-7 39.5t-4 44.5t-1 32q0 7 -1.5 35t-4 60t-4 60t-1.5 34v34q0 24 -0.5 53.5t-1 62.5t-1 62.5t-0.5 52.5v35z" />
    <glyph glyph-name="two" unicode="2" horiz-adv-x="491" 
d="M44 550q0 -5 4.5 -18t11.5 -27t15.5 -25t16.5 -11q16 0 30.5 3.5t28.5 7t28.5 7t31.5 3.5h25q18 0 35.5 -7t17.5 -29q0 -20 -22 -31.5t-54.5 -22t-70 -24.5t-68.5 -37.5t-49.5 -61.5t-13.5 -97q-5 -62 0 -111q4 -50 102 -60q49 -5 85.5 -7.5t59.5 -2.5q8 0 26.5 1.5
t42 5.5t48.5 9.5t45.5 13t34 18t13.5 22.5q0 2 -0.5 6.5t-0.5 5.5q-3 4 -7.5 17t-9.5 27.5t-9.5 27.5t-7.5 18h-16q-49 0 -84 -31h-122q-28 2 -40 -1q6 63 26 74t49.5 21t64.5 21q25 9 48.5 22t42.5 34t30.5 51t11.5 72q0 85 -52 132t-148 54q-11 0 -42.5 -4.5t-65.5 -13
t-61.5 -21.5t-30.5 -31z" />
    <glyph glyph-name="three" unicode="3" horiz-adv-x="442" 
d="M23 583l4 -29l186 -20q66 -23 53 -48q-12 -25 -26 -49.5t-42 -33.5q-7 -1 -13 2.5t-20 5.5q-15 2 -36 -4t-20 -46q1 -38 47 -61q31 0 51.5 -9.5t32.5 -24.5t17 -32.5t5 -33.5q0 -11 -1.5 -27t-8.5 -31t-22 -25.5t-42 -10.5q-1 0 -4 0.5l-3 0.5q-9 4 -89 11q-82 8 -80 -9
q1 -16 3.5 -33.5t7.5 -42.5q7 -15 24.5 -22t38.5 -9.5t42 -1.5t36 1q54 0 120 3q68 3 93 34q27 31 32 73.5t5 88.5q0 15 -1 27t-4 24t-8 25t-14 30q-27 24 -36 30q-8 7 -22 27q35 30 51 50.5t27 43.5t-3 71q-14 49 -28 63q-16 16 -52 26q-24 2 -50 4t-54 4q-56 4 -78 3
q-11 -1 -21 -1h-18h-26q-29 0 -39 -8t-15 -36z" />
    <glyph glyph-name="four" unicode="4" horiz-adv-x="507" 
d="M133 600l23 -200l11 -11q2 0 17 -1t23 -1q20 0 47 0.5t46 12.5q0 9 1.5 31t3 46.5t3.5 47t3 31.5q3 26 18.5 35.5t34.5 9.5h30h32q16 0 30 -12q16 -111 19.5 -222t3.5 -223v-24q0 -18 -0.5 -37.5t-0.5 -36.5v-24q-21 -15 -49 -19t-53 -4q-21 0 -31.5 9.5t-15 24.5
t-5.5 32.5t-2 34.5q-1 8 -3 27t-3.5 40t-3 40t-1.5 26l-11 11q-2 0 -15.5 1t-20.5 1h-25q-8 1 -30 1h-56q-42 -2 -69 -3.5t-38 -1.5q-22 0 -35 31v283q0 15 4.5 21t6.5 12q1 2 5.5 6.5t5.5 4.5h100z" />
    <glyph glyph-name="five" unicode="5" horiz-adv-x="487" 
d="M44 69q0 4 4.5 17.5t11.5 27.5t15.5 25t16.5 11q16 0 30.5 -3.5t28.5 -7t28.5 -7t31.5 -3.5h25q9 0 18.5 1t17 5t12.5 11t5 18q0 20 -22 32t-54.5 22.5t-70 24.5t-68.5 37.5t-49.5 61.5t-13.5 97q-2 31 -1.5 73t3.5 97q100 5 161 8t84 3q8 0 26.5 -1.5t42 -5.5t48.5 -9.5
t45.5 -13t34 -18t13.5 -22.5q0 -2 -0.5 -6.5t-0.5 -5.5q-3 -5 -7.5 -17.5t-9.5 -27t-9.5 -27.5t-7.5 -18h-16q-49 0 -84 31h-122q-28 -2 -40 1q6 -63 26 -75q20 -11 49.5 -21t64.5 -21q25 -8 48.5 -21t42.5 -34t30.5 -51.5t11.5 -72.5q0 -85 -52 -131.5t-148 -53.5
q-8 0 -25 2t-38.5 5.5t-44.5 9.5t-43 13.5t-33.5 17.5t-15.5 22z" />
    <glyph glyph-name="six" unicode="6" horiz-adv-x="491" 
d="M430 550q0 -5 -4.5 -18t-11 -27t-15 -25t-17.5 -11q-15 0 -29.5 3.5t-28.5 7t-29 7t-32 3.5h-24q-19 0 -36 -6.5t-17 -29.5q0 -20 22 -31.5t54.5 -22t69.5 -24.5t68 -37.5t49.5 -61.5t13.5 -97q4 -62 0 -111q-5 -50 -102 -60q-49 -5 -85 -7.5t-59 -2.5q-12 0 -47 4
t-71 12q-27 14 -44 26.5t-27.5 29t-15.5 39.5t-7 58q-5 83 -3 145q1 32 6 69t14 82q7 54 61 102q52 46 147 54q7 0 24 -2t39 -6t45.5 -9.5t43.5 -13.5t33.5 -17.5t14.5 -21.5zM135 269q2 -19 3.5 -33.5t1.5 -24.5t0.5 -17t1.5 -12q1 -8 30 -19l98 -21q28 1 42 -3
q-6 81 -28 96t-52 27q-15 6 -31.5 12.5t-35.5 13.5q-18 8 -23 7t-7 -26z" />
    <glyph glyph-name="seven" unicode="7" horiz-adv-x="451" 
d="M423 70v-49q-1 -5 -5 -13.5t-6 -8.5h-152l-27 467h-199q-6 0 -10.5 6t-7 14.5t-4 18.5t-1.5 19v20q0 27 24.5 40.5t56.5 19t63.5 6t45.5 0.5h18q14 0 32.5 0.5t36.5 0.5h28h18q13 0 24.5 -0.5t21.5 -0.5h10l11 -11l1.5 -10.5l3.5 -24.5t3.5 -29l2.5 -25q5 -55 8 -109.5
t3 -109.5v-221z" />
    <glyph glyph-name="eight" unicode="8" horiz-adv-x="473" 
d="M164 624l-60 -7q-35 -10 -51 -26t-29 -63t-2 -71q11 -23 26.5 -43.5t51.5 -50.5q-14 -20 -22 -27q-9 -6 -36 -30q-9 -17 -14.5 -30t-8.5 -25t-4 -24t-1 -27q0 -46 5 -88.5t32 -73.5t93 -34q34 -2 55 -2.5t30 0.5q18 2 85 3q68 2 95 33t32 73.5t5 88.5q0 15 -1 27t-4 24
t-8.5 25t-14.5 30q-27 24 -36 30q-8 7 -22 27q36 30 51.5 50.5t26.5 43.5t-3 71q-14 49 -28 63q-16 16 -51 26l-78 14zM276 411q-39 -9 -45 -8q-28 9 -42.5 33.5t-26.5 57.5q-11 33 67 33q77 0 67 -33q-5 -17 -10 -37.5t-10 -45.5zM280 118l-32 -11l-3 -0.5t-4 -0.5
q-28 0 -43 10.5t-22 25.5t-8 31t-1 27q0 28 12 49.5t39 47.5q18 16 35.5 9.5t23.5 -31.5q7 -24 11.5 -41.5t4.5 -33.5q0 -11 -1 -27t-12 -55z" />
    <glyph glyph-name="nine" unicode="9" horiz-adv-x="407" 
d="M367 41q4 97 7.5 202.5t3.5 208.5v38q0 13 -0.5 25t-2 24.5t-3.5 26.5t-5 33q-7 16 -22.5 23t-34.5 9t-38 1.5t-34 -0.5q-48 0 -89.5 -14t-72 -40.5t-48 -63.5t-17.5 -83q0 -31 5 -64.5t17 -62.5l11 -10q3 -3 9 -14t9.5 -19t4.5 -9q30 -33 133 -74q6 2 11.5 -1.5t10.5 -9
t8 -11.5t3 -9v-116q0 -11 5.5 -17t14.5 -9.5t19.5 -4.5t20.5 -1h25q26 0 35 7.5t14 34.5zM206 521q1 0 3 -0.5l2 -0.5q6 -3 14 -11.5t8 -10.5v-220q-26 0 -43.5 12t-28 30.5t-14.5 40.5t-4 42q0 14 1.5 34.5t7.5 39t18.5 31.5t35.5 13z" />
    <glyph glyph-name="colon" unicode=":" 
d="M10 363q0 2 -0.5 8.5t0 13t3.5 12.5t9 7q3 1 8.5 1.5t11.5 1t11 0.5h8q33 0 56 -8t50 -39q1 -2 1.5 -8t0.5 -9q0 -25 -18.5 -38t-41.5 -13q-18 0 -35.5 3.5t-31.5 11.5t-23 22t-9 34zM10 70q0 1 -0.5 7.5t0 13.5t3.5 13t9 7q3 0 8.5 0.5t11.5 1t11 0.5h8q16 0 30 -1.5
t26 -6t24 -14t26 -24.5q1 -3 1.5 -9t0.5 -8q0 -26 -18.5 -38.5t-41.5 -12.5q-18 0 -35.5 3.5t-31.5 11.5t-23 21.5t-9 34.5z" />
    <glyph glyph-name="semicolon" unicode=";" 
d="M10 363q0 2 -0.5 8.5t0 13t3.5 12.5t9 7q3 1 8.5 1.5t11.5 1t11 0.5h8q33 0 56 -8t50 -39q1 -2 1.5 -8t0.5 -9q0 -25 -18.5 -38t-41.5 -13q-18 0 -35.5 3.5t-31.5 11.5t-23 22t-9 34zM10 70q0 1 -0.5 7.5t0 13.5t3.5 13t9 7q3 0 8.5 0.5t11.5 1t11 0.5h8q16 0 30 -1.5
t26 -6t24 -14t26 -24.5q1 -3 1.5 -9t0.5 -8q13 -42 -23 -98q-34 -55 -73 -78q-37 -22 20 124q-10 3 -24.5 6t-27.5 10.5t-22 20t-9 35.5z" />
    <glyph glyph-name="less" unicode="&#x3c;" horiz-adv-x="322" 
d="M11 288q0 -48 15 -99t44.5 -93.5t72 -69.5t96.5 -27l18 143q-30 0 -50 14.5t-32 37t-16.5 49t-4.5 50.5q0 21 6.5 52.5t20 61t35 50.5t50.5 21l25 144q-62 0 -113 -30.5t-88.5 -78.5t-58 -107.5t-20.5 -117.5z" />
    <glyph glyph-name="equal" unicode="=" horiz-adv-x="344" 
d="M13 346q0 4 0.5 12.5t0.5 15.5q0 9 1 16t1 8q1 5 4.5 13.5t6.5 8.5h289v-122h-289l-11 11q0 1 -0.5 5.5t-1 10.5l-1 12t-0.5 9zM9 132q0 5 0.5 13t0.5 16q0 9 0.5 15.5t0.5 7.5q1 6 5 14.5t6 8.5h289v-123h-289l-11 12q0 2 -1 16t-1 20z" />
    <glyph glyph-name="greater" unicode="&#x3e;" horiz-adv-x="322" 
d="M291 288q0 -48 -15 -99t-44.5 -93.5t-72 -69.5t-96.5 -27l-17 143q30 0 50 14.5t31.5 37t16 49t4.5 50.5q0 21 -6.5 52.5t-20 61t-34.5 50.5t-50 21l-26 144q62 0 113.5 -30.5t88.5 -78.5t57.5 -107.5t20.5 -117.5z" />
    <glyph glyph-name="question" unicode="?" horiz-adv-x="411" 
d="M18 222q0 31 -3 90q-2 58 141 75q26 0 43.5 9.5t28 24.5t14.5 32.5t4 33.5q0 11 -1.5 27t-7.5 30.5t-19 25t-35 10.5h-5q-5 -2 -87 -10q-81 -8 -79 7q1 14 3.5 29t6.5 35q7 13 22.5 19.5t34.5 8t38 1t34 -0.5q48 0 89.5 -12t72 -34t48 -53t17.5 -70q0 -26 -5 -54t-17 -52
l-12 -8q-2 -4 -6 -9.5t-7 -11.5q-3 -5 -6 -9.5t-15 -10.5q-6 -3 -24.5 -11.5t-50.5 -22.5q-64 -29 -68 -33q-5 -4 -8 -9t-3 -7v-44q-4 -12 -10 -17t-15.5 -6.5t-24.5 -1.5q-14 0 -35 -2q-48 4 -53 31zM10 70q0 1 -0.5 7.5t0 13.5t3.5 13t9 7q3 0 8.5 0.5t11.5 1t11 0.5h8
q16 0 30 -1.5t26 -6t24 -14t26 -24.5q1 -3 1.5 -9t0.5 -8q0 -26 -18.5 -38.5t-41.5 -12.5q-18 0 -35.5 3.5t-31.5 11.5t-23 21.5t-9 34.5z" />
    <glyph glyph-name="FL0040h" unicode="@" horiz-adv-x="562" 
d="M11 333q0 -57 20.5 -116.5t58 -108t88.5 -79t113 -30.5q60 0 105 24.5t76 65t46.5 92.5t15.5 108q0 63 -21 123t-59 106.5t-93 75t-122 28.5q-54 0 -96.5 -27t-72 -69.5t-44.5 -93.5t-15 -99zM96 331q0 24 13 55.5t35 59.5t50.5 47.5t58.5 19.5q38 0 64.5 -12t44.5 -31.5
t28 -44t15 -49t6.5 -47t1.5 -37.5q0 -28 -3 -58t-16 -56t-40 -44.5t-76 -23.5q-35 -3 -69.5 14t-61 48t-41 72.5t-10.5 86.5zM216 444q-14 -49 -22 -99.5t-14 -100.5q0 -5 -0.5 -18.5t-0.5 -17.5h46q4 0 4.5 5.5t1 12.5t1.5 12.5t6 5.5h45q4 0 6.5 -5t4.5 -11t4.5 -11
t6.5 -5h49q1 0 2 3.5t2 5.5v3q0 8 -4.5 27t-11.5 42.5t-16 49.5t-18 49.5t-17 40.5t-13 24h-18h-12q-9 0 -18 -2.5t-14 -10.5zM278 305q0 -5 -2.5 -6.5t-7 -0.5t-10 2.5t-12.5 1.5l1 49q0 6 2.5 14.5t3.5 8.5h11q1 0 3.5 -9.5t5 -22t4 -23.5t1.5 -14z" />
    <glyph glyph-name="A" unicode="A" horiz-adv-x="484" 
d="M100 589q12 21 35 27.5t46 6.5h30q6 0 22.5 -0.5t22.5 -0.5q13 -16 33 -59.5t42 -101.5t44.5 -123.5t40.5 -125t29 -106t11 -67.5v-6q-3 -5 -6.5 -13.5t-5.5 -8.5h-122q-10 0 -15.5 12t-10.5 27t-11 27t-18 12h-111q-12 0 -15 -14t-4 -30.5t-3.5 -30.5t-11.5 -14h-115
q0 4 0.5 17t1.5 27t1.5 27t0.5 18q15 125 35.5 252t53.5 248zM236 274q0 8 -1 23.5t-3 31t-5 27t-7 11.5h-28q-1 0 -3 -6t-4.5 -15t-4.5 -19t-2 -17q0 -4 -0.5 -14.5t-1.5 -22.5t-1.5 -22.5t-0.5 -14.5q34 0 48 6t14 32z" />
    <glyph glyph-name="B" unicode="B" horiz-adv-x="447" 
d="M23 590q-5 -94 -8.5 -200.5t-3.5 -208.5v-38q0 -26 2 -49t10 -58q7 -16 24.5 -23.5t38.5 -9.5t42 -1.5t36 0.5q54 0 120 3q68 3 93 34q27 32 32 75t5 87q0 32 -5 54t-22 54q-25 24 -36 31q-8 7 -22 27q35 30 51 50.5t27 43.5t-3 71q-14 49 -28 63q-15 17 -52 27
q-24 2 -50 4t-54 4q-56 4 -78 3q-11 -1 -21 -1h-18h-26q-29 0 -39 -8t-15 -34zM188 112q-1 0 -4 0.5l-3 0.5q-7 4 -16 11t-9 8v189q31 0 51.5 -10.5t32.5 -26t17 -34.5t5 -37q0 -11 -1.5 -28.5t-8.5 -33.5t-22 -27.5t-42 -11.5zM213 554q66 -23 53 -48q-12 -25 -26 -49.5
t-42 -34.5q-6 -1 -13 2.5t-12 9t-8.5 11t-3.5 8.5l-1 98z" />
    <glyph glyph-name="C" unicode="C" horiz-adv-x="511" 
d="M479 83v-10q0 -6 -0.5 -14.5t-0.5 -15.5v-10q-5 -6 -13 -11.5t-18 -10.5t-19.5 -8t-16.5 -3h-211q-3 0 -12.5 5.5t-21.5 12.5t-24.5 14.5t-19.5 11.5q-35 26 -56.5 59.5t-34 71t-17 78t-4.5 80.5q0 129 69.5 197t198.5 81q15 2 39.5 4t48 3.5t40 2.5l16.5 1l22 -22
l0.5 -6.5l1.5 -19.5q2 -13 4 -39t6 -67q-67 1 -108 -0.5t-57 -3.5q-20 -6 -44 -16t-44 -24t-33.5 -31t-13.5 -37v-123q0 -21 13 -38t32 -29t40 -18.5t37 -6.5q5 0 18 1t15 2h167v-17q0 -7 0.5 -15.5t0.5 -15.5v-13z" />
    <glyph glyph-name="D" unicode="D" horiz-adv-x="507" 
d="M10 539v10q0 7 0.5 15t0.5 15v10q4 6 12.5 12t18.5 10.5t19.5 7.5t16.5 3h211q3 0 12.5 -5.5t21.5 -12.5t24 -14.5t20 -11.5q34 -26 55.5 -59.5t34 -71t17.5 -78t5 -80.5q0 -129 -69.5 -197t-198.5 -81q-15 -2 -39.5 -3.5t-48 -3.5t-40 -3l-16.5 -1l-23 22l-2 25.5t-5 66
t-7 91.5t-7.5 102.5t-6.5 99.5t-5 82v7q0 6 -0.5 14.5t-0.5 16.5v12zM178 189q2 -3 10.5 -11.5t11.5 -10.5l1.5 -0.5t4.5 -0.5q15 0 36.5 8.5t41.5 23t34.5 32.5t14.5 37v122q0 21 -13 38t-32 29t-40 18.5t-37 6.5q-5 0 -18 -1t-15 -2l-11 -11v-11q0 -9 -0.5 -21t-0.5 -24
v-19q0 -52 0.5 -102t11.5 -101z" />
    <glyph glyph-name="E" unicode="E" horiz-adv-x="400" 
d="M9 528q0 8 0.5 21t0.5 27q0 13 0.5 23.5t0.5 11.5l11 11h278l1.5 -6t3.5 -15t3.5 -18.5t2.5 -15.5v-11v-12q-1 -7 -4 -19.5t-5 -21t-2 -9.5h-133q-14 0 -19.5 -16t-5.5 -30v-15v-16q0 -8 2 -16t7 -14t16 -9q3 1 14 2.5t24 3.5t24 3.5t15 1.5q2 0 9 0.5t10 0.5
q13 0 18.5 -2t7.5 -21q0 -6 1 -21t1.5 -32t1.5 -32t1 -21h-127v-117h177q2 0 5.5 -12.5t6.5 -20.5q1 -7 3 -18t3.5 -21.5t3 -18.5t1.5 -9q-1 -3 -5.5 -8.5t-9.5 -10.5t-10.5 -9t-8.5 -5q-33 -3 -61.5 -5.5t-56 -4t-55.5 -2t-59 -0.5h-14q-9 0 -18.5 0.5t-16.5 0.5h-8l-11 11
l-1.5 21t-3.5 55l-4.5 76.5t-5 85.5t-4.5 83t-3 68q0 4 -0.5 21t-0.5 37t-0.5 40t-0.5 30z" />
    <glyph glyph-name="F" unicode="F" horiz-adv-x="396" 
d="M9 93q0 -7 0.5 -20.5t0.5 -26.5q0 -14 0.5 -24.5t0.5 -11.5l11 -11l118 -1q5 44 3 104q-1 31 -1 48v23v15v15q0 9 2 17t7 14t16 9q3 -1 14 -2.5t23.5 -3.5t24 -3.5t15.5 -1.5q2 0 9 -0.5t10 -0.5q13 0 18.5 2.5t7.5 20.5q0 6 1 21t1.5 32t1.5 32t1 21h-127v117h177
q2 0 5.5 12.5t6.5 20.5q1 7 3 18t3.5 21.5t3 18.5t1.5 9q-1 3 -5.5 8t-9.5 10.5t-10.5 9.5t-8.5 5q-33 3 -61.5 5t-56 3.5t-55.5 2.5t-59 1h-14q-9 0 -18.5 -0.5t-16.5 -0.5h-8l-11 -11l-1.5 -21t-3.5 -55l-4.5 -76.5t-5 -85.5t-4.5 -83t-3 -68q0 -4 -0.5 -21t-0.5 -37
t-0.5 -40t-0.5 -30z" />
    <glyph glyph-name="G" unicode="G" horiz-adv-x="511" 
d="M479 83v-10q0 -6 -0.5 -14.5t-0.5 -15.5v-10q-5 -6 -13 -11.5t-18 -10.5t-19.5 -8t-16.5 -3h-211q-3 0 -12.5 5.5t-21.5 12.5t-24.5 14.5t-19.5 11.5q-35 26 -56.5 59.5t-34 71t-17 78t-4.5 80.5q0 129 69.5 197t198.5 81q15 2 39.5 4t48 3.5t40 2.5l16.5 1l22 -22
l0.5 -6.5l1.5 -19.5q2 -13 4 -39t6 -67q-67 1 -108 -0.5t-57 -3.5q-20 -6 -44 -16t-44 -24t-33.5 -31t-13.5 -37v-123q0 -21 13 -38t32 -29t40 -18.5t37 -6.5q5 0 18 1t15 2l11 12v11q0 9 0.5 20.5t0.5 23.5q0 6 -1.5 30.5t-3.5 67.5q143 44 147 -1q5 -45 8 -92.5t5 -82.5
v-6q0 -7 0.5 -15.5t0.5 -15.5v-13z" />
    <glyph glyph-name="H" unicode="H" horiz-adv-x="507" 
d="M133 600l23 -200l11 -11q2 0 17 -1t23 -1q20 0 47 0.5t46 12.5q0 9 1.5 31t3 46.5t3.5 47t3 31.5q3 26 18.5 35.5t34.5 9.5h30h32q16 0 30 -12q16 -111 19.5 -222t3.5 -223v-24q0 -18 -0.5 -37.5t-0.5 -36.5v-24q-21 -15 -49 -19t-53 -4q-21 0 -31.5 9.5t-15 24.5
t-5.5 32.5t-2 34.5q-1 8 -3 27t-3.5 40t-3 40t-1.5 26l-11 11q-2 0 -15.5 1t-20.5 1q-8 0 -24.5 0.5t-32.5 -2t-28 -10t-12 -23.5v-178l-34 -33q-1 0 -15 -1t-20 -1t-14 0.5t-17 0.5q-8 0 -14.5 0.5t-8.5 0.5q-7 1 -20 5t-13 6v545q0 2 4.5 14.5t6.5 18.5q1 2 5.5 6.5
t5.5 4.5h100z" />
    <glyph glyph-name="I" unicode="I" horiz-adv-x="263" 
d="M20 521v-26q0 -13 0.5 -27t0.5 -27t0.5 -22t0.5 -11q1 -25 3.5 -62t6 -78l7 -82t7 -75t6 -56t3.5 -25l12 -33h160q0 10 -1 33.5t-1.5 50t-1.5 50.5t-1 33q-1 16 -3.5 50.5t-5.5 78.5t-6 92.5t-6.5 92t-6.5 78.5t-5 52h-156l-11 -11q0 -4 -1 -21.5t-1 -35.5v-19z" />
    <glyph glyph-name="J" unicode="J" horiz-adv-x="496" 
d="M422 597q6 -8 3 -23t-10 -30t-16.5 -27t-16.5 -13q45 -80 60 -126q16 -45 21 -83q4 -37 0 -101q-3 -49 -24.5 -85.5t-55.5 -61t-77 -36.5t-89 -12q-9 0 -27.5 1.5t-42 5.5t-48.5 10t-45.5 14.5t-33.5 20t-13 25.5q0 2 0.5 6t0.5 5q2 5 6.5 19t10 29.5t10 29t6.5 18.5
q2 0 8.5 0.5t8.5 0.5q45 0 83 -32h122q26 0 30.5 12.5t4.5 27.5q6 13 8.5 27t2 31.5t-3.5 39t-7 50.5q-9 57 -32 108t-42 61l-60 14q-52 35 -41 82q10 46 95 45q22 0 51 -2t64 -8q36 -6 58 -19t31 -24z" />
    <glyph glyph-name="K" unicode="K" horiz-adv-x="496" 
d="M11 0v556q0 2 4.5 14.5t6.5 18.5q1 2 5.5 6.5t5.5 4.5h100q4 0 6.5 -6.5t3.5 -16t1 -20.5v-19v-16q0 -7 1 -26t3 -40.5t4 -40.5t4 -26q3 -2 15.5 -6.5t17.5 -4.5q3 0 117 178q0 1 6 9t10 13l11 11h111l12 -11q1 -1 -4 -14t-15.5 -34.5t-27 -49.5t-38.5 -58
q-14 -21 -27 -41.5t-24 -40.5q-22 -40 -13 -54q5 -7 27 -36t62 -83l35 -63l36 -71l-2 -5t-5.5 -11t-7.5 -11.5t-8 -5.5h-110q-141 234 -145 233q-1 -1 -7 -6.5t-13 -13t-13 -14.5t-6 -10v-189h-139z" />
    <glyph glyph-name="L" unicode="L" horiz-adv-x="456" 
d="M11 540v-221q0 -55 3 -109.5t8 -109.5q1 -10 3 -25t3.5 -29t3 -24.5l1.5 -10.5l11 -11h10q10 0 22 -0.5t24 -0.5h19h28q17 0 35.5 0.5t33.5 0.5h17q14 0 45.5 0.5t63.5 6t56.5 19t24.5 40.5v20q0 9 -1 19t-3.5 18.5t-7 14.5t-11.5 6h-199l-27 467h-152q-2 0 -6 -8.5
t-5 -13.5v-49z" />
    <glyph glyph-name="M" unicode="M" horiz-adv-x="856" 
d="M144 616q-18 -91 -41.5 -178.5t-46.5 -177.5q-6 -21 -14 -52.5t-15 -61.5t-11.5 -52t-4.5 -23l5 -33l146 -18l71 284q1 3 9.5 11t13.5 12l2 0.5t3 0.5t3 -0.5t3 -0.5q10 -37 19.5 -81t21.5 -88t26 -84t33 -70q3 0 16 -0.5t17 -0.5h22q20 0 39.5 4.5t27.5 19.5
q13 43 25.5 78t24.5 67t24.5 63.5t25.5 68.5q7 -4 14 -14.5t8 -18.5l22 -255l11 -12q3 0 19.5 -0.5t25.5 -0.5q12 0 34.5 -1t44.5 1t38.5 10.5t16.5 28.5q0 40 -6 79t-15 77t-18.5 75.5t-16.5 75.5q-9 48 -12 85t-6.5 64.5t-10.5 46t-24.5 30t-48.5 16.5t-81 5h-16
q-14 0 -29 -1.5t-17 -1.5l-22 -22l-5.5 -16.5t-13 -40t-14.5 -48t-11 -39.5l-23 -89l-22 22l-55 244l-12 12l-14 1.5t-33.5 3t-40 3.5t-34.5 3h-30h-25q-10 0 -23 -11z" />
    <glyph glyph-name="N" unicode="N" horiz-adv-x="507" 
d="M133 600q124 -207 147 -225q21 -16 20 25q0 9 1.5 31t3 46.5t3.5 47t3 31.5q3 26 18.5 35.5t34.5 9.5h30h32q16 0 30 -12q16 -111 19.5 -222t3.5 -223v-24q0 -18 -0.5 -37.5t-0.5 -36.5v-24q-21 -15 -49 -19t-53 -4q-22 0 -32 9t-59 104q-50 94 -72 132q-23 39 -38 40
q-15 3 -8 -73v-178l-34 -33q-1 0 -15 -1t-20 -1t-14 0.5t-17 0.5q-8 0 -14.5 0.5t-8.5 0.5q-7 1 -20 5t-13 6v545q0 2 4.5 14.5t6.5 18.5q1 2 5.5 6.5t5.5 4.5h100z" />
    <glyph glyph-name="O" unicode="O" horiz-adv-x="562" 
d="M11 333q0 48 15 99t44.5 93.5t72 69.5t96.5 27q67 0 122 -28.5t93 -75t59 -106.5t21 -123q0 -56 -15.5 -108t-46.5 -92.5t-76 -65t-105 -24.5q-62 0 -113 30.5t-88.5 79t-58 108t-20.5 116.5zM154 328q0 -21 6.5 -52.5t20 -61t35 -50.5t50.5 -21q30 0 49.5 15t31 38
t16 49t4.5 49q0 24 -4.5 56t-17 60.5t-34 48.5t-54.5 20q-30 0 -50 -14.5t-32 -36.5t-16.5 -49t-4.5 -51z" />
    <glyph glyph-name="P" unicode="P" horiz-adv-x="407" 
d="M22 44q-4 100 -7.5 212.5t-3.5 221.5v40q0 28 2.5 52.5t8.5 62.5q7 16 22.5 24t34.5 10t38.5 1.5t33.5 -0.5q48 0 89.5 -15t72 -42.5t48 -67t17.5 -87.5q0 -33 -5 -68.5t-17 -65.5l-12 -11q-2 -3 -6 -10t-7.5 -14.5t-6 -13t-2.5 -6.5q-32 -36 -133 -78q-6 2 -11.5 -2
t-10.5 -10t-8 -12t-3 -9v-123q0 -11 -5.5 -17.5t-14.5 -10.5t-19.5 -5t-20.5 -1h-25q-27 0 -35.5 8.5t-13.5 36.5zM183 557q-1 0 -3 -0.5l-2 -0.5q-6 -4 -14 -12t-8 -11v-220q26 0 43.5 12t28 30.5t14.5 41t4 42.5q0 13 -1.5 33.5t-7.5 39t-19 32t-35 13.5z" />
    <glyph glyph-name="Q" unicode="Q" horiz-adv-x="562" 
d="M11 333q0 48 15 99t44.5 93.5t72 69.5t96.5 27q67 0 122 -28.5t93 -75t59 -106.5t21 -123q0 -57 -16 -108q-15 -54 -46 -93q-16 -20 -25 -31t-11 -13l44 -88q-9 -49 -102 -40l-40 84h-21t-26 -1q-62 0 -113 30.5t-88.5 79t-58 108t-20.5 116.5zM154 328q0 -21 6.5 -52.5
t20 -61t35 -50.5t50.5 -21l-39 93q41 44 93 26l36 -66q4 31 7.5 53.5t3.5 44.5q0 24 -4.5 56t-17 60.5t-34 48.5t-54.5 20q-30 0 -50 -14.5t-32 -36.5t-16.5 -49t-4.5 -51z" />
    <glyph glyph-name="R" unicode="R" horiz-adv-x="429" 
d="M22 44q-4 100 -7.5 212.5t-3.5 221.5v40q0 28 2.5 52.5t8.5 62.5q7 16 22.5 24t34.5 10t38.5 1.5t33.5 -0.5q48 0 89.5 -15t72 -42.5t48 -67t17.5 -87.5q0 -33 -5 -68.5t-17 -65.5l-12 -11q-2 -3 -6 -10t-7.5 -14.5t-6 -13t-2.5 -6.5q-3 -27 9 -53t27.5 -52t29 -53
t13.5 -55q0 -10 -9.5 -16.5t-22.5 -10t-26.5 -5t-21.5 -1.5q-20 0 -32.5 10.5t-21.5 27t-16 36t-15 38.5t-19 34t-28 22q-6 2 -11.5 -2t-10.5 -10t-8 -12t-3 -9v-123q0 -11 -5.5 -17.5t-14.5 -10.5t-19.5 -5t-20.5 -1h-25q-27 0 -35.5 8.5t-13.5 36.5zM183 557q-1 0 -3 -0.5
l-2 -0.5q-6 -4 -14 -12t-8 -11v-220q26 0 43.5 12t28 30.5t14.5 41t4 42.5q0 13 -1.5 33.5t-7.5 39t-19 32t-35 13.5z" />
    <glyph glyph-name="S" unicode="S" horiz-adv-x="496" 
d="M44 76q0 4 4.5 18t11.5 29.5t15.5 27.5t16.5 12q16 0 30.5 -4t28.5 -8.5t28.5 -8t31.5 -3.5h25q18 0 35.5 8t17.5 31q0 21 -22 33.5t-54.5 24.5t-70 27t-68.5 40.5t-49.5 66t-13.5 103.5q3 50 25 87t56 61t77 35.5t89 11.5q8 0 26.5 -1.5t42 -5t48.5 -9t45.5 -14t34 -20
t13.5 -25.5q0 -2 -0.5 -6.5t-0.5 -5.5q-3 -5 -7.5 -18.5t-9.5 -29t-9.5 -29.5t-7.5 -20q-2 0 -8 -0.5t-8 -0.5q-24 0 -45 9t-39 25h-122q-25 0 -29.5 -13t-4.5 -28q0 -25 20 -38t49.5 -23t64 -22t64 -34.5t49.5 -60t20 -98.5q0 -93 -52 -143.5t-148 -56.5q-11 -1 -42.5 3.5
t-65.5 14t-61.5 24.5t-30.5 34z" />
    <glyph glyph-name="T" unicode="T" horiz-adv-x="451" 
d="M158 22l11 -22l11 -1t21 -1h12q19 0 39 -0.5t36 3t26 15t10 35.5q0 49 -3.5 98.5t-8 99t-8 98.5t-3.5 97v12q0 7 0.5 16t0.5 17v11q24 21 52 29.5t70 17.5v80l-22 6q-1 0 -14.5 0.5t-20.5 0.5q-11 0 -40 -2t-67 -6t-79.5 -9.5t-77 -12t-60.5 -14.5t-30 -17l-4 -84h104
q3 0 6.5 -4.5t4.5 -6.5q1 -3 3 -12.5t4 -20.5t3.5 -20.5t1.5 -13.5q1 -15 2.5 -45t4 -68.5t4.5 -80.5t4.5 -80.5t4 -69t2.5 -45.5z" />
    <glyph glyph-name="U" unicode="U" horiz-adv-x="498" 
d="M2 586h118l11 -16q1 -11 3 -39.5t3.5 -60t3 -59.5t2.5 -39q1 -22 5.5 -56t15 -66t29 -55t47.5 -23q8 0 22.5 1.5t28 4t23.5 5t10 4.5l12 29q-1 8 -2 24.5t-3 39.5t-3.5 47.5t-3.5 50.5t-4 51.5t-3.5 47.5t-3 39t-1.5 26q0 4 -0.5 15.5t-0.5 18.5v14q0 13 5.5 25.5
t19.5 12.5h96l12 -15q1 -3 5 -28t7.5 -59t7 -69t4.5 -57v-22q0 -21 0.5 -47.5t0.5 -52.5v-41v-34q0 -22 -0.5 -48.5t-10.5 -55.5q-9 -28 -19 -45.5t-39 -27.5q-36 -14 -81.5 -20.5t-96.5 -6.5q-48 0 -83 21.5t-59.5 58t-39.5 84t-23.5 100.5t-11.5 108t-3 105v110z" />
    <glyph glyph-name="V" unicode="V" horiz-adv-x="524" 
d="M11 598v-8q1 -7 6.5 -30t13 -50t14.5 -51.5t11 -34.5q13 -45 22.5 -100.5t20 -112t23.5 -107.5t34 -87q1 -4 4.5 -9t6.5 -7q3 0 9.5 -0.5t14.5 -0.5q9 0 15.5 -1t10.5 -1q49 0 77 24.5t45 64t29.5 88.5t31.5 98q14 38 28.5 74.5t27.5 76.5q2 9 8.5 32.5t13.5 49.5
t13.5 50t8.5 34q-9 19 -26.5 25.5t-34.5 6.5h-20q-27 0 -45 -25t-31 -62t-23 -80.5t-20 -80.5t-21.5 -62t-28.5 -25q-1 0 -3.5 0.5l-2.5 0.5q-2 1 -5.5 5.5t-7.5 9.5t-6.5 9.5t-2.5 5.5q-1 4 -4 20t-7 33.5t-7 33t-4 19.5q-3 13 -10.5 43t-16.5 63t-17 63t-12 43
q-3 0 -9 0.5t-13 0.5q-6 0 -12.5 0.5t-9.5 0.5q-26 0 -47 -3t-42 -29v-8z" />
    <glyph glyph-name="W" unicode="W" horiz-adv-x="851" 
d="M144 11q-18 91 -41.5 178.5t-46.5 177.5q-6 21 -14 52.5t-15 61.5t-11.5 52t-4.5 23l5 33l146 18l71 -285q1 -2 9.5 -10.5t13.5 -11.5l2 -0.5t3 -0.5t3 0.5t3 0.5q10 36 19.5 80t21.5 88t26 84t33 70q3 0 16 0.5t17 0.5h22q20 0 39.5 -4t27.5 -19q13 -43 25.5 -78
t24.5 -67t24.5 -64t25.5 -69q7 5 14 15.5t8 18.5l22 255l11 11q3 0 19.5 0.5t25.5 0.5q12 0 34.5 1.5t44.5 -1t38.5 -11t16.5 -28.5q0 -40 -6 -78.5t-15 -76.5t-18.5 -75.5t-16.5 -75.5q-9 -49 -12 -86t-6.5 -64.5t-10.5 -46t-24.5 -29.5t-48.5 -16t-81 -5h-16q-14 0 -29 1
t-17 1l-22 23l-5.5 16.5t-13 40t-14.5 48t-11 39.5l-23 89l-22 -22l-55 -245l-12 -11l-14 -1.5t-33.5 -3.5t-40 -3.5t-34.5 -2.5h-30h-25q-10 0 -23 11z" />
    <glyph glyph-name="X" unicode="X" horiz-adv-x="569" 
d="M277 427l-16 14q-14 10 -37.5 39t-46.5 65q-12 18 -23.5 35.5t-23.5 30.5t-25.5 21t-28.5 8q-11 0 -22 -4t-21 -14t-16 -25.5t-6 -38.5q0 -26 22 -56t49 -63t49 -67.5t22 -69.5q0 -4 -0.5 -14t-0.5 -12q-5 -8 -18.5 -26.5t-27.5 -42.5t-24.5 -50.5t-23.5 -47.5
q-14 -18 -22.5 -40t-0.5 -34q9 -10 41 -24q21 -8 31.5 -10t12.5 -1l2 1l130 171l15 26h13l19 -26l130 -171l2 -1.5t3 -1.5h20q13 0 28 6q16 7 22.5 20.5t-2.5 53.5q-23 52 -33 78q-11 27 -24 51q-14 24 -27.5 42.5t-18.5 26.5q0 2 -0.5 12t-0.5 14q0 35 22 69.5t49 67.5
t49 63t22 56q0 23 -6.5 38.5t-16 25.5t-20.5 14t-21 4q-16 0 -29.5 -8t-26 -21t-23.5 -30.5t-23 -35.5q-23 -36 -46.5 -65t-34.5 -39z" />
    <glyph glyph-name="Y" unicode="Y" horiz-adv-x="496" 
d="M104 26q2 6 7 23t10.5 35.5t10.5 35.5t7 24l12 25q2 7 6.5 20t4.5 15t-3.5 7.5t-8 11.5t-8 11t-3.5 6l-70 179q-2 1 -5.5 8.5t-7.5 15.5t-7 15t-3 9q-5 15 -11.5 37t-12 43t-9 36t-2.5 16l11 11h117q12 0 21 -17t17.5 -42t16 -54.5t16.5 -54.5t20 -42t26 -17
q6 0 13.5 18.5t15.5 46.5t16 60.5t15 60.5t13 46.5t9 18.5h131q0 -12 -3 -25.5t-7 -26.5t-9 -24.5t-8 -18.5t-12 -30t-21.5 -54t-26 -65.5t-25.5 -65.5t-20.5 -54t-10.5 -30q-5 -11 -15.5 -41.5t-21.5 -65t-20.5 -65.5t-12.5 -42q-6 -23 -22.5 -25t-32.5 -2h-24
q-21 0 -43.5 5t-29.5 22z" />
    <glyph glyph-name="Z" unicode="Z" horiz-adv-x="422" 
d="M199 442l24 35h-191q-1 0 -5.5 12.5t-6.5 20.5q-1 7 -3 18t-3.5 21.5t-3 18.5t-1.5 9q1 3 5.5 8t10 10.5t11 9.5t8.5 5q36 3 66.5 5t60 3.5t59.5 2.5t63 1h16q10 0 20 -0.5t18 -0.5h7l13 -11v-5t1 -16t2 -24.5t2 -30.5q2 -37 -2 -48q-3 -15 -70 -178q-68 -164 -63 -168
q4 -4 24 -13h120l1.5 -6l3.5 -14t3.5 -16.5t2.5 -13.5v-11v-12q-1 -6 -2.5 -15.5t-3.5 -18.5t-3.5 -15l-1.5 -6h-299l-12 11q0 1 -0.5 11.5t-0.5 24.5q0 13 -0.5 26.5t-0.5 20.5z" />
    <glyph glyph-name="bracketleft" unicode="[" horiz-adv-x="344" 
d="M60 -39l-46 561l-5 130q31 10 60 15t66 9t64 5.5t33 1.5h12q9 0 18.5 -0.5t18.5 -0.5h12q8 -22 10.5 -41t2.5 -40q0 -5 -1 -13l-1 -8l-100 -27l-1.5 -4t-3 -10t-3.5 -12.5t-3 -10.5v-12q0 -97 6.5 -193.5t6.5 -193.5q0 -5 -0.5 -17t-1.5 -31q85 15 89 5q2 -5 5.5 -24
t8.5 -53q4 -17 4 -36q-125 -14 -153 -15q-14 -1 -25.5 -1.5t-21.5 -0.5q-8 0 -23 2.5t-17 2.5z" />
    <glyph glyph-name="backslash" unicode="\" horiz-adv-x="507" 
d="M133 600l14 -2q26 0 332 -478q0 -18 -0.5 -37.5t-0.5 -36.5v-24q-21 -15 -49 -19t-53 -4q-8 8 -15 14.5t-12 10.5q-12 10 -338 532q0 2 4.5 14.5t6.5 18.5q1 2 5.5 6.5t5.5 4.5h100z" />
    <glyph glyph-name="bracketright" unicode="]" horiz-adv-x="344" 
d="M260 -39l46 561l5 130q-31 10 -60 15t-66 9t-64 5.5t-33 1.5h-12q-9 0 -18.5 -0.5t-18.5 -0.5h-12q-8 -22 -10.5 -41t-2.5 -40q0 -5 1 -13l1 -8l100 -27l1.5 -4t3 -10t3 -12.5t3.5 -10.5v-12q0 -97 -6.5 -193.5t-6.5 -193.5q0 -5 0.5 -17t1.5 -31q-86 15 -90 5
q-4 -9 -13 -77q-4 -17 -4 -36q124 -13 152 -15q14 -1 26 -1.5t22 -0.5q8 0 23 2.5t17 2.5z" />
    <glyph glyph-name="FL005Eh" unicode="^" horiz-adv-x="529" 
d="M502 132v-5q-21 -20 -42 -22.5t-47 -2.5q-3 0 -9.5 0.5t-13.5 0.5q-6 0 -12 0.5t-9 0.5q-4 9 -12 31t-17 47t-16.5 47t-10.5 31q-1 3 -4 14t-7 24t-7 25t-4 15q-1 2 -9.5 11t-12.5 11l-2.5 0.5t-3.5 0.5q-17 0 -28.5 -18.5t-21.5 -45.5t-20 -59.5t-23 -59.5t-31.5 -45.5
t-44.5 -18.5h-20q-17 0 -35 5t-26 19q2 7 8.5 24t14 36.5t13.5 37t8 24.5q13 29 27.5 56t28.5 55q19 37 31.5 73t29.5 64.5t45 46.5t77 18q4 0 10.5 -0.5t15.5 -0.5q8 0 14.5 -0.5t9.5 -0.5q3 -1 6.5 -5t4.5 -6q20 -27 33 -65t23.5 -79t20.5 -82t23 -74q4 -8 11 -26
t14 -37.5t13 -36.5t7 -22v-6z" />
    <glyph glyph-name="underscore" unicode="_" horiz-adv-x="491" 
d="M0 -66q0 4 0.5 10t0.5 12t1 11t1 6q1 4 8 10t10 6h463v-91h-463l-18 9q0 1 -1.5 11.5t-1.5 15.5z" />
    <glyph glyph-name="FL0060h" unicode="`" 
d="M110 580q8 20 -4 32.5t-35 12.5q-15 0 -24 -2.5t-15 -9t-11.5 -18t-12.5 -29.5q-10 -27 2.5 -49t34.5 -39.5t47 -30t40 -21.5q4 -3 12.5 -2t17.5 2.5t16 3.5t9 2q8 0 -5 7t-32.5 19t-37 27t-17.5 30q0 6 -4.5 6.5t0.5 3.5q14 9 16.5 21t2.5 34z" />
    <glyph glyph-name="a" unicode="a" horiz-adv-x="382" 
d="M10 169q0 34 13.5 56.5t33.5 37.5t43 24t43 16.5t33.5 14.5t13.5 19q0 20 -8 24.5t-26 4.5q-15 0 -28.5 -4t-26 -8.5t-25.5 -8t-28 -3.5q-16 0 -21.5 12.5t-5.5 26.5v18q0 26 20 42.5t48 25.5t57.5 12t47.5 3q15 0 31 -2t31 -8t26.5 -16.5t17.5 -26.5l44 -139
q10 -22 11 -121q3 -98 -11 -137l-22 -21q-1 -1 -12.5 -2.5t-27.5 -3.5t-33 -3.5t-27 -1.5h-8q-6 0 -14.5 -0.5t-17.5 -0.5h-12q-81 0 -120.5 44.5t-39.5 125.5zM121 138q0 -26 16 -32.5t39 -6.5q17 0 26.5 1t14 5.5t5.5 14.5t1 27q0 9 -0.5 18.5t-3.5 17.5t-10 13t-19 5
q-30 0 -49.5 -16t-19.5 -47z" />
    <glyph glyph-name="b" unicode="b" horiz-adv-x="422" 
d="M391 221q0 46 -15 81.5t-41 62.5t-60.5 46t-73.5 33l-17.5 7.5l-10.5 4.5v166h-105q-8 0 -15 -31.5t-13.5 -80.5t-12 -110t-9.5 -120.5t-6 -110.5t-2 -80v-21q0 -20 1 -38t1 -19l45 -11l200 11q30 1 54.5 26t42.5 58.5t27.5 69t9.5 56.5zM268 167q-16 -20 -32 -27.5
t-40 -7.5q-3 0 -9.5 -0.5t-12.5 0.5t-11 3.5t-6 8.5v13q0 9 -0.5 18t-0.5 18v13q0 12 -1 32t1.5 39t11.5 32.5t29 13.5q22 0 36.5 -11.5t22 -28.5t10.5 -36.5t3 -35.5v-9t-0.5 -13t-0.5 -13v-9z" />
    <glyph glyph-name="c" unicode="c" horiz-adv-x="478" 
d="M10 250q0 52 16.5 96.5t47 76t74 49.5t96.5 18q52 0 98 -17q47 -17 110 -79l-102 -72q-30 36 -51.5 46.5t-48.5 10.5q-29 0 -49.5 -10.5t-33.5 -28t-19 -41t-6 -49.5q0 -25 5.5 -48.5t17.5 -41.5t31.5 -28.5t47.5 -10.5q27 0 72 21l138 -36q-58 -69 -103 -88
q-42 -19 -101 -19h-14q-10 0 -22 0.5t-22 0.5h-14q-168 72 -168 250z" />
    <glyph glyph-name="d" unicode="d" horiz-adv-x="422" 
d="M10 221q0 46 15 81.5t41 62.5t60.5 46t73.5 33l17.5 7.5l10.5 4.5v166h105q8 0 15 -31.5t13.5 -80.5t12 -110t9.5 -120.5t6 -110.5t2 -80v-21q0 -20 -1 -38t-1 -19l-45 -11l-200 11q-30 1 -54.5 26t-42.5 58.5t-27.5 69t-9.5 56.5zM133 167q16 -20 32 -27.5t41 -7.5
q3 0 8.5 -0.5t12 0.5t11.5 3.5t6 8.5v13q0 9 1 18t1 18v13q0 12 1 32t-2 39t-12 32.5t-29 13.5q-23 0 -37 -11.5t-21.5 -28.5t-10.5 -36.5t-3 -35.5v-9t0.5 -13t0.5 -13v-9z" />
    <glyph glyph-name="e" unicode="e" horiz-adv-x="456" 
d="M11 171q0 48 8 103.5t30 103.5t61 79.5t101 31.5q75 0 118 -29.5t65 -76t27.5 -105.5t5.5 -117h-260q-1 0 -5 -6.5t-6 -10.5l-1 -2t-1 -3q0 -9 6.5 -16t16 -12t19 -7.5t15.5 -3.5q5 -1 19 -2.5t30.5 -3.5t31 -3.5t19.5 -1.5l11 -11v-82q-51 0 -106 2t-100.5 17.5
t-75 51.5t-29.5 104zM154 293q0 -4 1.5 -15t11.5 -11h122q10 0 11 11t1 15v19q0 17 -4.5 33t-18.5 22q-3 0 -8.5 0.5t-11.5 0.5t-11.5 0.5t-7.5 0.5q-39 0 -62 -16.5t-23 -59.5z" />
    <glyph glyph-name="f" unicode="f" horiz-adv-x="396" 
d="M133 24l-33 209q-27 -3 -44 -2.5t-27 8t-14 24.5t-4 47v4q4 7 11 12t28 17q10 6 18 11t10 7t6 11t5 12q11 46 26 86.5t39.5 71t61 48t90.5 17.5q4 0 19 -1.5t19 -1.5q24 -36 24 -82q1 -14 -5 -21t-17.5 -11.5t-26 -7.5t-30.5 -9q-20 -5 -33 -19q-13 -15 -23.5 -29.5
t-10.5 -40.5q0 -2 4.5 -7t6.5 -5q6 1 20 3t30 4t30.5 3.5t19.5 1.5h7h4q3 -2 7.5 -6t4.5 -6v-92q-9 0 -26.5 -0.5t-36 -3.5t-35.5 -10.5t-25 -21.5v-8q0 -5 -0.5 -11.5t-0.5 -12.5v-8q0 -22 4 -43.5t8.5 -42.5t8.5 -42.5t4 -43.5q0 -16 -9 -23t-21.5 -9.5t-26.5 -1.5t-24 1
q-7 0 -18.5 1t-13.5 1z" />
    <glyph glyph-name="g" unicode="g" horiz-adv-x="473" 
d="M166 -310q0 22 16.5 32.5t36 18.5t35 18t13.5 30q-4 29 -16 55t-26.5 51.5t-27.5 51t-19 53.5q0 2 -1.5 12t-3.5 21t-3.5 21t-2.5 13q-2 6 -14.5 12.5t-30 15.5t-37 23t-36.5 35t-28 50t-11 68q0 69 27.5 112.5t71.5 68t100 32.5t113 5l11 11q2 14 2.5 27.5t1.5 27.5
t1.5 23t-0.5 14q0 10 9 28q22 4 57 -12q36 -15 39 -35q-15 -28 -25.5 -49.5t-17.5 -36.5q-12 -29 -12 -60q0 -14 7 -32t16 -39.5t16 -46.5t7 -53q0 -38 -9 -63.5t-23 -43.5t-30 -30.5t-30 -24t-23 -24t-9 -31.5q0 -33 18 -63t40 -60.5t40 -64.5t18 -74q0 -36 -22 -64.5
t-55 -48.5t-70.5 -31t-67.5 -11q-16 0 -25 6t-13.5 15.5t-5.5 22t-1 24.5zM141 291q0 -37 24.5 -63.5t61.5 -26.5q41 0 67 19t26 66q0 42 -18 63t-60 21q-18 0 -36 -4.5t-32.5 -14t-23.5 -24.5t-9 -36z" />
    <glyph glyph-name="h" unicode="h" horiz-adv-x="496" 
d="M79 623q6 0 16.5 -1t20 -4.5t16.5 -10.5t7 -18v-175q7 0 25 1.5t38.5 3.5t39 3t25.5 0q63 -6 102 -42.5t60.5 -88.5t29.5 -110.5t8 -109.5v-15q-1 -7 -3 -16.5t-3.5 -18.5t-3 -15l-1.5 -6h-123q-7 0 -9.5 11.5t-2.5 30.5t1 43t1 48q0 25 -4.5 49.5t-15.5 43.5t-31 30.5
t-50 11.5h-12t-13.5 -0.5t-12.5 -0.5h-6q-6 -1 -17 -5t-11 -6v-245l-17 -11q-2 0 -17.5 -1t-23.5 -1q-5 0 -14.5 0.5t-19.5 0.5q-9 0 -16.5 0.5t-8.5 0.5q-5 1 -13.5 5t-8.5 6v600q0 4 6 6t15 3.5t18.5 2t16.5 0.5h12z" />
    <glyph glyph-name="i" unicode="i" horiz-adv-x="212" 
d="M40 427l2 -360q0 -3 1.5 -10.5t3 -16.5t3.5 -17.5t3 -11.5q2 -2 5.5 -6.5t6.5 -4.5h114q0 57 -6 107t-8 104q-2 23 -4 59t-3.5 69.5t-3 58l-1.5 24.5l-6 9zM25 629v-100q0 -11 12.5 -16t28 -6.5t28.5 -1t14 0.5h10q7 0 15 0.5t15 0.5h10q20 5 21.5 19t1.5 28
q0 5 -0.5 17.5t-2.5 25t-6.5 22.5t-13.5 10h-133z" />
    <glyph glyph-name="j" unicode="j" horiz-adv-x="276" 
d="M-49 -113q0 16 21 30q21 12 34.5 20.5t29.5 14.5q24 8 43.5 23t19.5 51q0 29 -3 46q-2 8 -6.5 29t-12.5 54q-8 34 -13.5 59.5t-10.5 43.5q-6 22 -12.5 47.5t-13.5 54.5q-14 59 4 60q9 1 42 3.5t91 7.5q27 -116 45 -177t24.5 -99.5t8.5 -47.5q0 -2 1 -14t1 -25v-14
q0 -48 -17 -87.5t-47.5 -68t-72 -44t-89.5 -15.5q-16 0 -30.5 -0.5t-22.5 4.5q-9 4 -9 13q0 8 -5 31zM4 618l140 15q9 0 13.5 -9.5t7 -22.5t3 -25t0.5 -17q0 -15 -2 -28.5t-22 -19.5h-10q-6 0 -14.5 -0.5t-15.5 -0.5q-6 0 -17 -4t-29 -4q-9 0 -15.5 -0.5t-11.5 -1.5
q-9 -2 -20 33z" />
    <glyph glyph-name="k" unicode="k" horiz-adv-x="462" 
d="M11 0v556q0 8 9 10t16 2h7q15 0 29 -0.5t24.5 -5t17.5 -14t8 -26.5q1 -19 3 -48.5t3.5 -57.5t3 -49t1.5 -23q0 -5 1.5 -12.5t3 -14.5t3.5 -12t3 -5h23l144 111l2.5 0.5t3.5 0.5q9 0 18 -7t16.5 -17.5t12 -22.5t4.5 -21q0 -17 -12 -34t-27.5 -32t-30.5 -27t-20 -18
q0 -2 -0.5 -8t-0.5 -8q0 -23 24.5 -45.5t54 -43.5t54 -40.5t24.5 -37.5q0 -14 -7 -24t-18 -16t-23.5 -9t-23.5 -3q-34 0 -61 19t-52 42t-51 42t-59 19v-120h-128z" />
    <glyph glyph-name="l" unicode="l" 
d="M8 622h136q2 0 6 -4.5t6 -6.5q2 -3 6 -16t5 -17v-40q0 -28 0.5 -60t0.5 -61v-39v-172q0 -86 -12 -173l-2 -5t-5.5 -11t-7.5 -11.5t-8 -5.5h-89q-6 0 -10 17t-7 39.5t-4 44.5t-1 32q0 7 -1.5 35t-4 60t-4 60t-1.5 34v34q0 24 -0.5 53.5t-1 62.5t-1 62.5t-0.5 52.5v35z" />
    <glyph glyph-name="m" unicode="m" horiz-adv-x="731" 
d="M11 0v433q0 3 8 11q7 7 48 9q40 3 48 -6q9 -9 29 0q19 9 48 9q14 1 23 1h15q55 0 79 -8q22 -7 38.5 -4.5t38.5 7.5q17 4 35.5 5.5t35.5 2.5t30 1h19q56 0 92.5 -23.5t58.5 -62t31.5 -87.5t12.5 -100t2 -99t-1 -85h-126q0 11 -1 38t-3 57t-4 57t-4 37q-2 23 -6.5 47.5
t-15 44t-28 32t-45.5 12.5h-9q-4 0 -9 -1h-11t-14 -1q-15 0 -9 -47q4 -35 6.5 -73t3 -74.5t0.5 -70.5v-62h-127q0 10 -1.5 37t-3 57.5t-3.5 57t-3 37.5q-2 23 -6.5 47t-15 43.5t-28.5 32t-46 12.5q-7 0 -17 -0.5t-19.5 -3.5t-16.5 -10.5t-7 -20.5v-289h-122z" />
    <glyph glyph-name="n" unicode="n" horiz-adv-x="456" 
d="M11 0v433q0 3 14 6t35 6t47 5t50.5 3.5t44 2.5t28.5 1q56 0 93 -24t58.5 -62.5t31.5 -88t13 -100t2 -98.5t-1 -84h-127q0 10 -1.5 37t-3 57.5t-3.5 57t-3 37.5q-2 23 -6.5 47t-15 43.5t-28.5 32t-46 12.5q-7 0 -17 -0.5t-19.5 -3.5t-16.5 -10.5t-7 -20.5v-289h-122z" />
    <glyph glyph-name="o" unicode="o" horiz-adv-x="522" 
d="M10 256q0 80 39 146t118 98q27 8 38 10t26 1l82 -5q42 -6 69.5 -17t46.5 -30.5t32.5 -50t27.5 -75.5q0 -21 0.5 -36t0.5 -26v-15q0 -54 -14 -100.5t-42 -81t-71.5 -54.5t-101.5 -20q-54 0 -100 19.5t-79.5 54t-52.5 81t-19 101.5zM143 268q0 -28 6 -52.5t19.5 -43
t35.5 -29.5t53 -11q24 0 43 12.5t32 32t19.5 42t6.5 42.5q0 23 -7.5 46t-22 41.5t-34.5 30t-44 11.5t-43.5 -10.5t-33.5 -28t-22 -39.5t-8 -44z" />
    <glyph glyph-name="p" unicode="p" horiz-adv-x="422" 
d="M179 477q57 0 97.5 -12t65.5 -37.5t36.5 -66t11.5 -97.5q0 -71 -13.5 -112.5t-41.5 -67t-69.5 -41t-98.5 -34.5q-20 -7 -23.5 -19.5t-1.5 -26.5q2 -17 6 -50q5 -36 -2 -48q-6 -13 -86 -18q-27 0 -35.5 6.5t-10.5 37.5q-1 30 -2 45.5t-1 27.5v489q0 3 8.5 6t13.5 5
q32 9 55.5 11t50.5 2h40zM133 171q2 -11 14.5 -11.5t20.5 -0.5q26 0 46.5 10t35 27t22 39.5t7.5 46.5q0 41 -27 71t-69 30q-9 0 -19.5 -2.5t-20 -8t-15.5 -13.5t-6 -19v-13q0 -9 1.5 -31.5t3 -47.5t3.5 -46.5t3 -30.5z" />
    <glyph glyph-name="q" unicode="q" horiz-adv-x="460" 
d="M362 -310q0 22 -16.5 32.5t-36 18.5t-35 18t-13.5 30q5 42 27.5 81t41.5 77q6 12 11.5 24.5t11.5 26.5t13 31t16 39q18 45 34.5 94t16.5 109q0 66 -27.5 111.5t-71.5 70.5t-100 31t-112 -6q-45 -22 -67 -55.5t-27 -61.5q-5 -27 -12 -52t-7 -53q0 -29 5.5 -50t14 -37.5
t19.5 -28.5t23 -22q11 -10 21.5 -18.5t20.5 -16.5q19 -16 91 -27q27 4 40 -18q-26 -32 -44 -62t-40 -61q-21 -31 -39.5 -63.5t-18.5 -74.5q0 -36 22 -64.5t55 -48.5t70.5 -31t67.5 -11q16 0 25 6t13.5 15.5t5.5 22t1 24.5zM316 291q0 -37 -24.5 -63.5t-61.5 -26.5
q-41 0 -67 19t-26 66q0 42 17.5 63t59.5 21q18 0 36.5 -4.5t33 -14t23.5 -24.5t9 -36z" />
    <glyph glyph-name="r" unicode="r" horiz-adv-x="442" 
d="M10 267v33q0 23 0.5 50t0.5 50v33q10 8 38 14q14 4 24 6t15 4q9 3 14 -8t16 -5q9 6 111 23q55 0 92 -25t59 -65q23 -41 33 -91q11 -50 -119 -53q0 19 -10 37.5t-25.5 32.5t-34 22.5t-36.5 8.5q-5 0 -14.5 -0.5t-18.5 -2.5t-15.5 -6.5t-6.5 -13.5v-311h-100q-2 0 -6 8.5
t-5 13.5q-14 62 -13 120.5t1 124.5z" />
    <glyph glyph-name="s" unicode="s" horiz-adv-x="333" 
d="M-34 -116q0 21 9 33.5t23 20.5t30 13.5t30 14.5t23 22.5t9 37.5q0 30 -9 58.5t-20 57.5t-20 58t-9 59q0 43 11.5 87.5t35.5 80.5t61 59t88 23h7q6 0 12 -0.5t11.5 -1t8.5 -0.5q11 -6 17.5 -16t10 -21.5t4.5 -24t1 -23.5q0 -8 -21 -15.5t-46 -21.5t-46 -38t-21 -63
q0 -4 0.5 -17t0.5 -16q4 -8 14 -28.5t21 -43t20 -43t11 -29.5q0 -2 1.5 -14t1.5 -25v-14q0 -48 -17.5 -87.5t-48 -68t-72 -44t-89.5 -15.5q-16 0 -24.5 1t-12.5 5.5t-5 13.5t-1 25z" />
    <glyph glyph-name="t" unicode="t" horiz-adv-x="440" 
d="M11 447l22 29h89l17 16v116h128q2 0 6 -13.5t5 -21.5q0 -5 0.5 -16t0.5 -24t-0.5 -24t-0.5 -17l11 -16h122v-109l-11 -11l-111 -12q-1 0 -5.5 1t-5.5 -1q-5 -4 -11 -12.5t-6 -10.5v-298q0 -5 -8.5 -9.5t-19 -7.5t-20.5 -5t-13 -2t-13 0.5t-20.5 2t-19 4t-8.5 6.5v309
q0 7 -18 13t-39.5 11t-40 8t-19.5 3q-2 1 -6.5 4.5t-4.5 6.5v80z" />
    <glyph glyph-name="u" unicode="u" horiz-adv-x="462" 
d="M2 456h109l11 -12q0 -9 1.5 -31t3 -46.5t3.5 -46.5t3 -31q1 -17 5.5 -43.5t14 -51.5t26.5 -43t43 -18q8 0 21.5 1.5t26 3t21.5 3.5t9 3l11 23q-1 9 -2.5 29t-4 45t-4.5 53t-4.5 53t-4 45t-2.5 30q0 2 -0.5 11.5t-0.5 14.5v11q0 11 4.5 20.5t18.5 9.5h89l11 -11
q2 -2 5.5 -21.5t7 -46.5t6.5 -54.5t3 -44.5v-18q0 -15 0.5 -35.5t0.5 -41.5v-33v-25q0 -18 -0.5 -38.5t-0.5 -39.5v-24q-7 -10 -21.5 -19.5t-22.5 -14.5q-52 -9 -94 -16t-89 -7q-67 0 -107 36t-61.5 91t-28.5 120t-7 124v86z" />
    <glyph glyph-name="v" unicode="v" horiz-adv-x="529" 
d="M11 439v5q21 20 42 22.5t47 2.5q3 0 9.5 -0.5t12.5 -0.5q7 0 13 -0.5t9 -0.5q4 -9 12 -31t17 -47t16.5 -47t10.5 -31q1 -3 4 -14t7 -24t7 -25t4 -15q1 -2 9.5 -11t12.5 -11l2.5 -0.5t3.5 -0.5q17 0 28.5 18.5t21.5 45.5t20 59.5t23 59.5t31 45.5t45 18.5h20q17 0 35 -5
t26 -19q-2 -7 -8.5 -24.5t-14 -37t-13.5 -36.5t-8 -24q-13 -29 -27.5 -56t-28.5 -55q-19 -37 -31.5 -73t-29.5 -64.5t-45 -46.5t-77 -18q-4 0 -10.5 0.5t-15.5 0.5q-8 0 -14.5 0.5t-9.5 0.5q-3 1 -6.5 5t-4.5 6q-20 27 -33 65t-23.5 79t-20.5 82t-23 74q-4 8 -11 26
t-14 37.5t-13 36.5t-7 22v6z" />
    <glyph glyph-name="w" unicode="w" horiz-adv-x="731" 
d="M11 457v-434q0 -2 8 -10q7 -7 56 -7q49 1 60 9q12 9 20 -3q9 -11 37 -12h38h118h52t33 -1q25 -2 44.5 -2.5t28.5 -0.5q56 0 92.5 23.5t58.5 62.5t31.5 88t12.5 99.5t2 98.5t-1 84h-126q0 -10 -1 -37t-3 -57.5t-4 -57.5t-4 -37q-2 -23 -6.5 -47t-15 -43.5t-28 -32
t-45.5 -12.5h-18q-8 1 -29 -2q-19 -1 -9 47q7 37 10.5 75.5t4 75.5t0 71t-0.5 62h-127q0 -11 -1.5 -38t-3 -57t-3.5 -57t-3 -37q-2 -23 -6.5 -47.5t-15 -44t-28.5 -32t-46 -12.5q-7 0 -17 0.5t-19.5 4t-16.5 10.5t-7 21v289h-122z" />
    <glyph glyph-name="x" unicode="x" horiz-adv-x="551" 
d="M269 151l-15 -10q-14 -7 -37 -28t-45 -47t-45.5 -47t-53.5 -21q-10 0 -21 3.5t-20 10.5t-15 18.5t-6 27.5q0 19 21.5 40.5t47.5 44.5t47.5 48t21.5 50q0 3 -0.5 10t-0.5 9q-6 6 -18.5 19t-26.5 30q-13 17 -23.5 36t-30.5 48q4 9 16 17.5t18 19.5q7 11 20 16t27 1
l116 -114l14 -17h12l19 17l113 114q23 9 33 1.5t17 -16.5q4 -4 7.5 -7t7.5 -7.5t7.5 -12.5t7.5 -21q-16 -20 -26.5 -39t-24.5 -36q-13 -17 -26 -30t-18 -19q0 -2 -0.5 -9t-0.5 -10q0 -25 21.5 -50t47.5 -48t47.5 -44.5t21.5 -40.5q0 -16 -6.5 -27.5t-16 -18.5t-20.5 -10.5
t-20 -3.5q-30 0 -53 21t-46 47q-22 26 -44.5 47t-33.5 28z" />
    <glyph glyph-name="y" unicode="y" horiz-adv-x="473" 
d="M100 -111q1 7 5.5 22.5t10 33t10.5 33t7 22.5l11 22q3 7 7.5 19.5t4.5 14.5q0 1 -3.5 6t-8 10.5t-8 10.5t-3.5 6l-66 167q-1 1 -4.5 7.5t-7.5 14t-7.5 14.5t-3.5 8q-4 13 -10 33.5t-11.5 40t-9 33.5t-2.5 15l11 11h111q11 0 20 -15.5t16.5 -39t15 -51t16 -51t19 -39
t24.5 -15.5q6 0 13 17.5t15 43.5t16 56t14.5 56t12 43.5t7.5 17.5h125q0 -22 -9.5 -49t-15.5 -40q-3 -7 -12 -28.5t-20.5 -50t-24.5 -60.5t-24.5 -60.5t-19.5 -50t-10 -28.5q-4 -11 -13.5 -39.5t-20 -60.5t-20 -60.5t-13.5 -39.5q-3 -11 -8.5 -15.5t-12.5 -6.5t-15.5 -1.5
t-15.5 0.5h-23q-19 0 -41 4t-28 19z" />
    <glyph glyph-name="z" unicode="z" horiz-adv-x="391" 
d="M189 133l-22 -26h177q2 0 5.5 -9.5t6.5 -15.5q1 -6 4 -18.5t5 -21.5t2 -10q-1 -2 -5.5 -6t-9.5 -7.5t-10.5 -6.5t-8.5 -3q-33 -3 -61.5 -5t-56 -3t-55.5 -1.5t-59 -0.5h-14h-35h-8l-11 10l-0.5 3.5t-1.5 11.5q-2 16 -3 40q-2 27 1 35q4 10 66 132q63 123 58 126
q-3 3 -22 11h-111l-1.5 4t-3.5 10t-3.5 12t-2.5 9v10v8q2 10 6.5 25t4.5 17h278l11 -10q0 -1 0.5 -8t0.5 -17t0.5 -20t0.5 -16z" />
    <glyph glyph-name="FL007Bh" unicode="{" horiz-adv-x="322" 
d="M11 287q0 -48 15 -99t44.5 -93.5t72 -69.5t96.5 -27l18 143q-30 0 -50 14.5t-32 36.5t-16.5 49t-4.5 51q0 21 6.5 52.5t20 61t35 50.5t50.5 21l25 144q-62 0 -113 -30.5t-88.5 -79t-58 -108t-20.5 -116.5z" />
    <glyph glyph-name="bar" unicode="|" horiz-adv-x="196" 
d="M8 770h136q2 0 6 -6t6 -11q1 -5 6 -24q2 -10 3 -16t2 -10v-59q0 -42 0.5 -89.5t0.5 -92.5v-58v-258q0 -129 -12 -258q0 -1 -2 -9t-5.5 -17t-7.5 -16.5t-8 -7.5h-89q-6 0 -10 25.5t-7 59t-4 66.5t-1 49q0 5 -0.5 18.5t-1.5 33t-2 42.5t-2 47t-2 47.5t-1.5 42.5t-1 32.5
t-0.5 19.5v33q0 23 -1 55v66q0 35 -1 71v70t-1 66v88z" />
    <glyph glyph-name="FL007Dh" unicode="}" horiz-adv-x="322" 
d="M291 287q0 -48 -15 -99t-44.5 -93.5t-72 -69.5t-96.5 -27l-17 143q30 0 50 14.5t31.5 36.5t16 49t4.5 51q0 21 -6.5 52.5t-20 61t-34.5 50.5t-50 21l-26 144q62 0 113.5 -30.5t88.5 -79t57.5 -108t20.5 -116.5z" />
    <glyph glyph-name="FL007Eh" unicode="~" horiz-adv-x="459" 
d="M430 372q-10 -79 -40 -128t-78 -49q-20 0 -67 17.5t-108 41.5q-41 0 -50 -52h-70q10 47 12 53q2 7 4.5 17t5 19.5t5.5 18.5t6 14q34 57 98 57q10 0 36 -11t53 -24q52 -24 73 -24q40 0 51 50h69z" />
    <glyph glyph-name="FL20ACh" unicode="&#x20ac;" horiz-adv-x="484" 
d="M100 589q12 21 35 27.5t46 6.5h30q6 0 22.5 -0.5t22.5 -0.5q13 -16 33 -59.5t42 -101.5t44.5 -123.5t40.5 -125t29 -106t11 -67.5v-6q-3 -5 -6.5 -13.5t-5.5 -8.5l-437 -11q0 4 0.5 17t1.5 27t1.5 27t0.5 18q15 125 35.5 252t53.5 248z" />
    <glyph glyph-name="FL201Ah" unicode="&#x201a;" 
d="M10 70q0 1 -0.5 7.5t0 13.5t3.5 13t9 7q3 0 8.5 0.5t11.5 1t11 0.5h8q16 0 30 -1.5t26 -6t24 -14t26 -24.5q1 -3 1.5 -9t0.5 -8q13 -42 -23 -98q-34 -55 -73 -78q-37 -22 20 124q-10 3 -24.5 6t-27.5 10.5t-22 20t-9 35.5z" />
    <glyph glyph-name="FL0192h" unicode="&#x192;" horiz-adv-x="396" 
d="M133 24l-5 -35q1 0 -10.5 -8t-29 -20.5t-38 -27t-37.5 -27.5t-28 -22.5t-10 -11.5l50 -71q7 0 26 9t43.5 23.5t51 33t49 36.5t37 34t14.5 27q0 22 -2 54t-5 66t-5 66t-2 54v8q0 6 0.5 12.5t0.5 11.5v8q8 14 25 21.5t35.5 10.5t36 3.5t26.5 0.5v92q0 2 -4.5 6t-7.5 6h-4
h-7q-5 0 -19.5 -1.5t-30.5 -3.5t-30 -4t-20 -3q-2 0 -6.5 5t-4.5 7q0 26 10.5 40.5t23.5 29.5q15 15 33 19q16 6 30.5 9t26 7.5t17.5 11.5t5 21q0 46 -24 82q-4 0 -19 1.5t-19 1.5q-54 0 -90.5 -17.5t-61 -48t-39.5 -71t-26 -86.5q-1 -3 -5 -12t-6 -11t-10 -7t-18 -11
q-21 -12 -28 -17t-11 -12v-4q0 -30 4 -47t14 -24.5t27 -8t44 2.5z" />
    <glyph glyph-name="FL201Eh" unicode="&#x201e;" horiz-adv-x="421" 
d="M10 70q0 1 -0.5 7.5t0 13.5t3.5 13t9 7q3 0 8.5 0.5t11.5 1t11 0.5h8q16 0 30 -1.5t26 -6t24 -14t26 -24.5q1 -3 1.5 -9t0.5 -8q13 -42 -23 -98q-34 -55 -73 -78q-37 -22 20 124q-10 3 -24.5 6t-27.5 10.5t-22 20t-9 35.5zM224 69q0 1 -0.5 7.5t0 13.5t3.5 13t9 7
q3 0 8.5 0.5t11.5 1t11 0.5h8q16 0 30 -1.5t26 -6t24 -14t26 -24.5q1 -3 1.5 -9t0.5 -8q13 -42 -23 -98q-34 -55 -73 -78q-37 -22 20 124q-10 3 -24.5 6t-27.5 10.5t-22 20t-9 35.5z" />
    <glyph glyph-name="FL2026h" unicode="&#x2026;" horiz-adv-x="683" 
d="M10 70q0 1 -0.5 7.5t0 13.5t3.5 13t9 7q3 0 8.5 0.5t11.5 1t11 0.5h8q16 0 30 -1.5t26 -6t24 -14t26 -24.5q1 -3 1.5 -9t0.5 -8q0 -26 -18.5 -38.5t-41.5 -12.5q-18 0 -35.5 3.5t-31.5 11.5t-23 21.5t-9 34.5zM219 70q0 1 -0.5 7.5t0 13.5t3.5 13t9 7q3 0 8.5 0.5t11.5 1
t11 0.5h8q16 0 30 -1.5t26 -6t24 -14t26 -24.5q1 -3 1.5 -9t0.5 -8q0 -26 -18.5 -38.5t-41.5 -12.5q-18 0 -35.5 3.5t-31.5 11.5t-23 21.5t-9 34.5zM432 71q0 1 -0.5 7.5t0 13.5t3.5 13t9 7q3 0 8.5 0.5t11.5 1t11 0.5h8q16 0 30 -1.5t26 -6t24 -14t26 -24.5q1 -3 1.5 -9
t0.5 -8q0 -26 -18.5 -38.5t-41.5 -12.5q-18 0 -35.5 3.5t-31.5 11.5t-23 21.5t-9 34.5z" />
    <glyph glyph-name="FL2020h" unicode="&#x2020;" horiz-adv-x="440" 
d="M11 427l22 29h89l17 16v136h128q2 0 6 -13.5t5 -21.5v-10t0.5 -16t0.5 -19v-15q0 -13 -0.5 -24t-0.5 -17l11 -16h122v-109l-11 -11l-111 -12q-1 0 -5.5 1t-5.5 -1q-5 -4 -11 -12.5t-6 -10.5v-278q0 -5 -8.5 -9.5t-19 -7.5t-20.5 -5t-13 -2t-13 0.5t-20.5 2t-19 4
t-8.5 6.5v289q0 7 -18 13t-39.5 11t-40 8t-19.5 3q-2 1 -6.5 4.5t-4.5 6.5v80z" />
    <glyph glyph-name="FL2021h" unicode="&#x2021;" horiz-adv-x="440" 
d="M8 124l131 -22v-90q0 -4 8.5 -6.5t19 -4t20.5 -2t13 -0.5t13 2t20.5 5t19 7.5t8.5 9.5v96h22l111 12l11 11v109h-122l-22 8v62q0 2 6 10.5t11 12.5q1 2 5.5 1t5.5 -1l111 12l11 11v109h-122l-11 16q0 6 0.5 17t0.5 24t-0.5 24t-0.5 16q-1 8 -5 21.5t-6 13.5h-128v-116
l-17 -16h-89l-22 -29v-80q0 -3 4.5 -6.5t6.5 -4.5q1 0 19.5 -1.5t40.5 -4.5t40 -7.5t18 -11.5l-1 -74l-112 -6l-22 -29q-2 0 -2 1q-1 0 -1 -15t1 -33.5t2 -34.5t3 -16z" />
    <glyph glyph-name="FL02C6h" unicode="&#x2c6;" horiz-adv-x="338" 
d="M316 673v-3q-14 -14 -27.5 -15t-30.5 -1h-28q-9 20 -16 30.5t-14 18.5t-15 16.5t-18 25.5l-1.5 0.5t-2.5 0.5q-16 0 -25.5 -13.5t-19.5 -29t-24.5 -29t-39.5 -13.5h-13q-11 0 -22.5 3.5t-16.5 11.5q21 29 35.5 64.5t32 67t43.5 52.5t72 21h16h16q2 -1 4 -3.5t3 -4.5
q16 -29 26.5 -52t20 -45t20 -46t25.5 -54v-3z" />
    <glyph glyph-name="FL2030h" unicode="&#x2030;" horiz-adv-x="1223" 
d="M535 604h100q1 0 5.5 -4.5t5.5 -6.5q2 -6 6.5 -18.5t4.5 -14.5q-324 -520 -338 -532q-5 -4 -12 -10.5t-15 -14.5q-25 0 -53 4t-49 19v24q0 17 -0.5 36.5t-0.5 37.5q306 478 332 478zM315 454q0 -35 -12.5 -70.5t-34.5 -64.5t-53 -47.5t-68 -18.5q-36 0 -63 15t-45 39
t-27.5 55.5t-9.5 64.5q0 38 12.5 74t35.5 64t55.5 45t73.5 17q33 0 58 -16t42.5 -41.5t26.5 -56t9 -59.5zM230 451q0 15 -3 30.5t-10 29t-19 22t-30 8.5q-20 0 -33 -12t-20.5 -29t-10 -36t-2.5 -34q0 -14 3 -29.5t9.5 -29t18.5 -22.5t30 -9q17 0 29.5 12.5t21 30t12.5 36.5
t4 32zM815 205q0 -35 -12.5 -70.5t-34.5 -64.5t-53 -47.5t-68 -18.5q-36 0 -63 15t-45 39t-27.5 55.5t-9.5 64.5q0 38 12.5 74t35.5 64t55.5 45t73.5 17q33 0 58 -16t42.5 -41.5t26.5 -56t9 -59.5zM730 202q0 15 -3 30.5t-10 29t-19 22t-30 8.5q-20 0 -33 -12t-20.5 -29
t-10 -36t-2.5 -34q0 -14 3 -29.5t9.5 -29t18.5 -22.5t30 -9q17 0 29.5 12.5t21 30t12.5 36.5t4 32zM1176 201q0 -35 -12.5 -70.5t-34.5 -64.5t-53 -47.5t-68 -18.5q-36 0 -63 15t-45 39t-27.5 55.5t-9.5 64.5q0 38 12.5 74t35.5 64t55.5 45t73.5 17q33 0 58 -16t42.5 -41.5
t26.5 -56t9 -59.5zM1091 198q0 15 -3 30.5t-10 29t-19 22t-30 8.5q-20 0 -33 -12t-20.5 -29t-10 -36t-2.5 -34q0 -14 3 -29.5t9.5 -29t18.5 -22.5t30 -9q17 0 29.5 12.5t21 30t12.5 36.5t4 32z" />
    <glyph glyph-name="FL0160h" unicode="&#x160;" horiz-adv-x="496" 
d="M44 76q3 -20 30.5 -34.5t61.5 -24t65.5 -14t42.5 -3.5q97 6 148.5 56t51.5 144q0 61 -20 98.5t-49.5 60t-64 34.5t-64 22t-49.5 23t-20 38q0 15 4.5 28t29.5 13h122q18 -16 39 -25t45 -9q2 0 8 0.5t8 0.5q3 6 7.5 20t9.5 29.5t9.5 29t7.5 18.5q0 1 0.5 5.5t0.5 6.5
q0 14 -13.5 25.5t-34 20t-45.5 14t-48.5 9t-42 5t-26.5 1.5q-46 0 -89 -11.5t-77 -35.5t-56 -61t-25 -87q-5 -63 13.5 -103.5t49.5 -66.5t68.5 -40.5t70 -26.5t54.5 -24.5t22 -33.5q0 -23 -17.5 -31t-35.5 -8h-25q-17 0 -31.5 3.5t-28.5 8t-28.5 8.5t-30.5 4q-8 0 -16.5 -12
t-15.5 -27.5t-11.5 -29.5t-4.5 -18zM106 936v-3q15 -30 25.5 -54t20 -46t20 -45t26.5 -52q2 -6 7 -8h16h16q45 0 71.5 21t44.5 52t32 67t35 65q-5 8 -16.5 11.5t-22.5 3.5h-13q-26 0 -40 -13.5t-24 -29t-19.5 -29t-25.5 -13.5q-1 0 -2.5 0.5l-1.5 0.5q-10 17 -18 25.5
t-15 16.5t-14 18.5t-16 30.5h-28q-17 0 -30.5 -1t-27.5 -15v-3z" />
    <glyph glyph-name="FL2039h" unicode="&#x2039;" horiz-adv-x="320" 
d="M241 143h-3q-30 15 -54 25.5t-46 20t-45 20t-52 26.5q-6 2 -8 7v16v16q0 45 21 71.5t52 44.5t67 32t65 35q8 -5 11.5 -16.5t3.5 -22.5v-13q0 -26 -13.5 -40t-29 -24t-29 -19.5t-13.5 -25.5q0 -1 0.5 -2.5l0.5 -1.5q17 -10 25.5 -18t16.5 -15t18.5 -14t30.5 -16v-28
q0 -17 -1 -30.5t-15 -27.5h-3z" />
    <glyph glyph-name="FL0152h" unicode="&#x152;" horiz-adv-x="847" 
d="M454 525v-21q0 -12 1 -27q-4 37 -5.5 61t-3.5 36l-1.5 19.5l-0.5 6.5l-22 22l-16.5 -1t-40 -2.5t-48 -3.5t-39.5 -4q-129 -13 -198.5 -81t-69.5 -197q0 -40 4.5 -80.5t17 -78t34 -71t56.5 -59.5q7 -4 19.5 -11.5t24.5 -14.5t21.5 -12.5t12.5 -5.5h211q14 0 34.5 10
t30.5 21q1 -10 1.5 -16.5l0.5 -6.5l11 -11h8q7 0 16.5 -0.5t18.5 -0.5h14q31 0 59 0.5t55.5 2t56 4t61.5 5.5q3 1 8.5 5t10.5 9t9.5 10.5t5.5 8.5q0 1 -1.5 9t-3 18.5t-3.5 21.5t-3 18q-3 8 -6.5 20.5t-5.5 12.5h-177v117h127q0 6 -1 21t-1.5 32t-1.5 32t-1 21
q-2 19 -7.5 21t-18.5 2q-3 0 -10 -0.5t-9 -0.5q-4 0 -15 -1.5t-24 -3.5t-24 -3.5t-14 -2.5q-11 3 -16 9t-7 14t-2 16v16v15q0 14 5.5 30t19.5 16h133q0 1 2 9.5t5 21t4 19.5v23q-1 6 -2.5 15.5t-3.5 18.5t-3.5 15l-1.5 6h-278l-11 -11q0 -1 -0.5 -11.5t-0.5 -23.5
q0 -14 -0.5 -27t-0.5 -21zM455 468v-13q0 -20 0.5 -37t0.5 -21q1 -23 2.5 -53t3 -64t3.5 -69t4 -67h-158q-2 -1 -15 -2t-18 -1q-16 0 -37 6.5t-40 18.5t-32 29t-13 38v123q0 20 13.5 37t33.5 31t44 24t44 16q16 2 56.5 3.5t107.5 0.5z" />
    <glyph glyph-name="FL017Dh" unicode="&#x17d;" horiz-adv-x="422" 
d="M199 442l-131 -349q0 -7 0.5 -20.5t0.5 -26.5q0 -14 0.5 -24.5t0.5 -11.5l12 -11h299l1.5 6t3.5 15t3.5 18.5t2.5 15.5v12v11q-1 7 -4 19.5t-5 21t-2 9.5h-120q-20 9 -24 13q-5 4 63 168q67 162 70 178q4 8 2 48q-2 25 -3.5 44t-1.5 27v5l-13 11h-7q-8 0 -18 0.5t-20 0.5
h-16q-33 0 -63 -1t-59.5 -2.5t-60 -3.5t-66.5 -5q-3 -1 -8.5 -5t-11 -9.5t-10 -10.5t-5.5 -8q0 -1 1.5 -9t3 -18.5t3.5 -21.5t3 -18q2 -8 6.5 -20.5t5.5 -12.5h191zM73 913v-3q15 -30 25.5 -54t20 -46t20 -45t26.5 -52q2 -6 7 -8h16h16q45 0 71.5 21t44.5 52t32 67t35 65
q-5 8 -16.5 11.5t-22.5 3.5h-13q-26 0 -40 -13.5t-24 -29t-19.5 -29t-25.5 -13.5q-1 0 -2.5 0.5l-1.5 0.5q-10 17 -18 25.5t-15 16.5t-14 18.5t-16 30.5h-28q-17 0 -30.5 -1t-27.5 -15v-3z" />
    <glyph glyph-name="FL2018h" unicode="&#x2018;" 
d="M166 586q0 1 1 7.5t0.5 13.5t-3.5 13t-10 7q-2 0 -7.5 0.5t-11.5 1t-12 0.5h-8q-33 0 -56 -8t-49 -39q-1 -2 -1.5 -8t-0.5 -8q-14 -45 22 -100q17 -28 35.5 -47t37.5 -30q39 -24 -20 124q13 5 25.5 6.5t26.5 9.5q14 9 22.5 22t8.5 35z" />
    <glyph glyph-name="FL2019h" unicode="&#x2019;" 
d="M6 586q0 1 -1 7.5t-0.5 13.5t3.5 13t10 7q2 0 7.5 0.5t11.5 1t11 0.5h9q33 0 56 -8t49 -39q1 -2 1.5 -8t0.5 -8q14 -45 -22 -100q-17 -28 -35.5 -47t-37.5 -30q-39 -24 20 124q-13 5 -25.5 6.5t-26.5 9.5q-14 9 -22.5 22t-8.5 35z" />
    <glyph glyph-name="FL201Ch" unicode="&#x201c;" horiz-adv-x="400" 
d="M166 581q0 2 0.5 8.5t0 13t-3.5 12.5t-9 7q-3 0 -8.5 0.5t-11.5 1t-12 0.5h-7q-17 0 -30.5 -1.5t-25.5 -6t-24.5 -14t-25.5 -24.5q-1 -2 -1.5 -8.5t-0.5 -8.5q-13 -43 23 -99q34 -55 73 -78q37 -22 -20 125q10 3 24.5 6t27.5 10.5t22 20t9 35.5zM370 581q0 2 1 8t0.5 13
t-3.5 13t-10 7q-2 0 -7.5 0.5t-11.5 1t-12 0.5h-8q-33 0 -56 -7.5t-49 -38.5q-1 -2 -1.5 -8.5t-0.5 -8.5q-14 -44 22 -99q34 -55 73 -78t-20 125q11 3 25.5 6.5t27 10.5t21.5 19.5t9 35.5z" />
    <glyph glyph-name="FL201Dh" unicode="&#x201d;" horiz-adv-x="400" 
d="M210 581q0 2 -0.5 8.5t0 13t3.5 12.5t9 7q3 0 8.5 0.5t11.5 1t11 0.5h8q16 0 30 -1.5t26 -6t24 -14t26 -24.5q1 -2 1.5 -8.5t0.5 -8.5q13 -43 -23 -99q-34 -55 -73 -78q-37 -22 20 125q-10 3 -24.5 6t-27.5 10.5t-22 20t-9 35.5zM6 581q0 2 -1 8t-0.5 13t3.5 13t10 7
q2 0 7.5 0.5t11.5 1t11 0.5h9q33 0 56 -7.5t49 -38.5q1 -2 1.5 -8.5t0.5 -8.5q14 -44 -22 -99q-34 -55 -73 -78t20 125q-11 3 -25.5 6.5t-27 10.5t-21.5 19.5t-9 35.5z" />
    <glyph glyph-name="FL2022h" unicode="&#x2022;" horiz-adv-x="522" 
d="M9 304q0 80 39 146t118 98l51 5l4.5 -1t10 -1.5t10 -1.5l4.5 -1q42 0 80 -9.5t69.5 -30t55 -52t37.5 -75.5v-15v-47l1 -15q0 -54 -14 -100.5t-42 -81t-71.5 -54.5t-101.5 -20q-54 0 -100 19.5t-79.5 54t-52.5 81t-19 101.5z" />
    <glyph glyph-name="FL2013h" unicode="&#x2013;" horiz-adv-x="344" 
d="M13 243q0 5 0.5 13t0.5 16q0 9 1 15.5t1 8.5q1 5 4.5 13.5t6.5 8.5h289v-122h-289l-11 11q0 1 -0.5 5.5t-1 10.5t-1 11.5t-0.5 8.5z" />
    <glyph glyph-name="FL2014h" unicode="&#x2014;" horiz-adv-x="524" 
d="M13 243q0 5 0.5 13t0.5 16q0 9 1 15.5t1 8.5q1 5 4.5 13.5t6.5 8.5h460v-122h-460l-11 11q0 1 -0.5 5.5t-1 10.5t-1 11.5t-0.5 8.5z" />
    <glyph glyph-name="FL02DCh" unicode="&#x2dc;" horiz-adv-x="459" 
d="M428 824q-10 -79 -40 -128t-78 -49q-20 0 -67 17.5t-108 41.5q-41 0 -50 -52h-70q10 47 12 53q2 7 4.5 17t5 19.5t5.5 18.5t6 14q34 57 98 57q10 0 36 -11t53 -24q52 -24 73 -24q40 0 51 50h69z" />
    <glyph glyph-name="FL2122h" unicode="&#x2122;" horiz-adv-x="696" 
d="M88 331l5 -11l5.5 -0.5t10.5 -0.5h6q10 0 20 -0.5t18 1.5t13 7.5t5 17.5q0 50 -6 99.5t-6 97.5v6q0 3 0.5 7.5t0.5 8.5v6q12 11 26 14.5t35 8.5v40l-11 3q-1 0 -7.5 0.5t-10.5 0.5q-8 0 -35.5 -2.5t-57.5 -6.5t-55 -9.5t-29 -12.5l-2 -42h52q2 0 3.5 -2t2.5 -3
q1 -4 3.5 -17t2.5 -17q1 -11 2.5 -38.5t3 -58.5t3 -58.5t2.5 -38.5zM307 618q-9 -46 -21 -89.5t-23 -88.5q-3 -11 -7 -26.5t-7.5 -30.5t-6 -26t-2.5 -12l3 -16l73 -9l35 142q1 2 5 5.5t7 5.5l2 1q1 0 2 -0.5l1 -0.5q5 -18 10 -40t11 -44t13 -42t16 -35q2 0 8.5 -0.5
t8.5 -0.5h11q10 0 19.5 2t13.5 10q7 22 13 39.5t12 33.5t12.5 32t12.5 34q4 -2 7.5 -7t3.5 -10l11 -127l6 -6q2 0 9.5 -0.5t12.5 -0.5q6 0 17 -0.5t22.5 1t19.5 5.5t8 14q0 40 -10 77.5t-18 75.5q-7 36 -7.5 60t-6.5 38t-22.5 20t-54.5 6h-8q-8 0 -15 -1t-8 -1l-11 -11
l-2.5 -8t-6.5 -20t-7.5 -24.5t-5.5 -19.5l-12 -44l-11 11l-27 122l-6 6q-2 0 -12 1l-25 2.5t-24 1.5h-15h-13q-4 0 -11 -5z" />
    <glyph glyph-name="FL0161h" unicode="&#x161;" horiz-adv-x="333" 
d="M-34 -116q0 -16 1 -25t5 -13.5t12.5 -5.5t24.5 -1q48 0 89.5 15.5t72 44t48 68t17.5 87.5v14q0 13 -1.5 25t-1.5 14q-2 9 -11 29.5t-20 43t-21 43t-14 28.5q0 3 -0.5 16t-0.5 17q0 39 21 63t46 38t46 21.5t21 15.5q0 11 -1 23.5t-4.5 24t-10 21.5t-17.5 16q-5 0 -14.5 1
t-17.5 1h-7q-51 0 -88 -23t-61 -59t-35.5 -80.5t-11.5 -87.5q0 -30 9 -59t20 -58t20 -57.5t9 -58.5q0 -24 -9 -37.5t-23 -22.5t-30 -14.5t-30 -13.5t-23 -20.5t-9 -33.5zM24 793v-3q15 -30 25.5 -54t20 -46t20 -45t26.5 -52q2 -6 7 -8h16h16q45 0 71.5 21t44.5 52t32 67
t35 65q-5 8 -16.5 11.5t-22.5 3.5h-13q-26 0 -40 -13.5t-24 -29t-19.5 -29t-25.5 -13.5q-1 0 -2.5 0.5l-1.5 0.5q-10 17 -18 25.5t-15 16.5t-14 18.5t-16 30.5h-28q-17 0 -30.5 -1t-27.5 -15v-3z" />
    <glyph glyph-name="FL203Ah" unicode="&#x203a;" horiz-adv-x="320" 
d="M53 143h3q30 15 54 25.5t46 20t45 20t52 26.5q6 2 8 7v16v16q0 45 -21 71.5t-52 44.5t-67 32t-65 35q-8 -5 -11.5 -16.5t-3.5 -22.5v-13q0 -26 13.5 -40t29 -24t29 -19.5t13.5 -25.5q0 -1 -0.5 -2.5l-0.5 -1.5q-17 -10 -25.5 -18t-16.5 -15t-18.5 -14t-30.5 -16v-28
q0 -17 1 -30.5t15 -27.5h3z" />
    <glyph glyph-name="FL0153h" unicode="&#x153;" horiz-adv-x="826" 
d="M10 250q0 -178 168 -250h14q10 0 22 -0.5t22 -0.5h14q59 0 101 19q26 11 62 44q22 -25 53.5 -38t68.5 -18.5t76.5 -6t76.5 -0.5v82l-11 11q-5 0 -19.5 1.5t-31 3.5t-30.5 3.5t-19 2.5q-6 1 -15.5 3.5t-19 7.5t-16 12t-6.5 16q0 1 1 3l1 2q2 4 6 10.5t5 6.5h260
q0 58 -5.5 117t-27.5 105.5t-65 76t-118 29.5q-51 0 -86.5 -22.5t-58.5 -57.5q-26 24 -48.5 38.5t-41.5 22.5q-46 17 -98 17q-53 0 -96.5 -18t-74 -49.5t-47 -76t-16.5 -96.5zM377 174q0 -14 1 -26t4 -23l-66 17q-45 -21 -72 -21q-28 0 -47.5 10.5t-31.5 28.5t-17.5 41.5
t-5.5 48.5q0 26 6 49.5t19 41t33.5 28t49.5 10.5q27 0 48.5 -10.5t51.5 -46.5l57 40q-17 -45 -23.5 -94.5t-6.5 -93.5zM520 296q0 43 23 59.5t62 16.5q2 0 7.5 -0.5t11.5 -0.5t11.5 -0.5t8.5 -0.5q14 -6 18.5 -22t4.5 -33v-19q0 -4 -1 -15t-11 -11h-122q-10 0 -11.5 11
t-1.5 15z" />
    <glyph glyph-name="FL017Eh" unicode="&#x17e;" horiz-adv-x="391" 
d="M189 133l122 259q0 6 -0.5 16t-0.5 20t-0.5 17t-0.5 8l-11 10h-278q0 -1 -1.5 -6t-3 -11.5t-3.5 -13t-3 -11.5v-8v-10q1 -3 2.5 -9t3.5 -12t3.5 -10l1.5 -4h111q18 -7 22 -11q5 -3 -58 -126q-62 -122 -66 -132q-3 -6 -1 -35q1 -22 3 -40q1 -8 1.5 -11.5l0.5 -3.5l11 -10
h8h35h14q62 0 114.5 2t117.5 8q3 0 8.5 2.5t10.5 6.5t9.5 8t5.5 6q0 1 -2 10t-5 21.5t-4 18.5q-3 6 -6.5 15.5t-5.5 9.5h-177zM28 772v-3q15 -30 25.5 -54t20 -46t20 -45t26.5 -52q2 -6 7 -8h16h16q45 0 71.5 21t44.5 52t32 67t35 65q-5 8 -16.5 11.5t-22.5 3.5h-13
q-26 0 -40 -13.5t-24 -29t-19.5 -29t-25.5 -13.5q-1 0 -2.5 0.5l-1.5 0.5q-10 17 -18 25.5t-15 16.5t-14 18.5t-16 30.5h-28q-17 0 -30.5 -1t-27.5 -15v-3z" />
    <glyph glyph-name="FL0178h" unicode="&#x178;" horiz-adv-x="496" 
d="M104 26q2 6 7 23t10.5 35.5t10.5 35.5t7 24l12 25q2 7 6.5 20t4.5 15t-3.5 7.5t-8 11.5t-8 11t-3.5 6l-70 179q-2 1 -5.5 8.5t-7.5 15.5t-7 15t-3 9q-5 15 -11.5 37t-12 43t-9 36t-2.5 16l11 11h117q12 0 21 -17t17.5 -42t16 -54.5t16.5 -54.5t20 -42t26 -17
q6 0 13.5 18.5t15.5 46.5t16 60.5t15 60.5t13 46.5t9 18.5h131q0 -12 -3 -25.5t-7 -26.5t-9 -24.5t-8 -18.5t-12 -30t-21.5 -54t-26 -65.5t-25.5 -65.5t-20.5 -54t-10.5 -30q-5 -11 -15.5 -41.5t-21.5 -65t-20.5 -65.5t-12.5 -42q-6 -23 -22.5 -25t-32.5 -2h-24
q-21 0 -43.5 5t-29.5 22zM45 785q0 1 -0.5 7.5t0 13.5t3.5 13t9 7q3 0 8.5 0.5t11.5 1t11 0.5h8q16 0 30 -1.5t26 -6t24 -14t26 -24.5q1 -3 1.5 -9t0.5 -8q0 -26 -18.5 -38.5t-41.5 -12.5q-18 0 -35.5 3.5t-31.5 11.5t-23 21.5t-9 34.5zM281 785q0 1 -0.5 7.5t0 13.5t3.5 13
t9 7q3 0 8.5 0.5t11.5 1t11 0.5h8q16 0 30 -1.5t26 -6t24 -14t26 -24.5q1 -3 1.5 -9t0.5 -8q0 -26 -18.5 -38.5t-41.5 -12.5q-18 0 -35.5 3.5t-31.5 11.5t-23 21.5t-9 34.5z" />
    <glyph glyph-name="FL00A0h" unicode="&#xa0;" horiz-adv-x="422" 
 />
    <glyph glyph-name="FL00A1h" unicode="&#xa1;" horiz-adv-x="456" 
d="M420 530q0 -2 0.5 -8t0 -13t-3.5 -13t-9 -7q-3 0 -8.5 -0.5t-11.5 -1t-12 -0.5h-7q-17 0 -30.5 1.5t-25.5 6t-24.5 14t-25.5 24.5q-1 3 -1.5 9t-0.5 8q0 26 18.5 38.5t41.5 12.5q18 0 35.5 -3.5t31.5 -11.5t23 -21.5t9 -34.5zM286 356l-9.5 -28.5t-14 -43.5t-16 -51
t-16 -51t-13.5 -43t-9 -28q-5 -15 -10 -34.5t-13 -37t-21 -29t-34 -11.5q-4 0 -12.5 0.5t-9.5 0.5q-11 2 -28 7t-33 10.5t-27.5 10t-11.5 5.5v11q0 2 9 16t21 33.5t25.5 39.5t22.5 34l66 89l22 33q4 4 9.5 11t10.5 14t9 12.5t5 6.5q6 7 17 18.5t22 22.5t19 18.5l8 7.5l20 -9
z" />
    <glyph glyph-name="FL00A2h" unicode="&#xa2;" horiz-adv-x="478" 
d="M204 614v-35v-65q-44 -6 -79 -22t-60 -40.5t-38 -57t-13 -69.5q0 -143 168 -200h14h10q6 0 12 -1q0 -10 1 -32t4 -44t7 -39t10 -17l19 4q5 0 10.5 9t9 16t3.5 8q3 24 5.5 48t4.5 48q33 3 63 14q46 17 103 71l-138 29q-13 -6 -26 -9v183v10q14 -5 28 -14t32 -26l102 57
q-32 25 -59.5 41t-50.5 22q-13 4 -26 6.5t-27 4.5v20v40q-1 4 -5 17t-6 16q-2 2 -6 6.5t-6 4.5zM146 325q0 32 14 57.5t46 37.5q1 -20 1 -39v-33v-34q0 -6 1.5 -31.5t3.5 -56.5q-36 11 -51 38t-15 61z" />
    <glyph glyph-name="FL00A3h" unicode="&#xa3;" horiz-adv-x="506" 
d="M310 583q-5 28 -15 36t-39 8h-21t2 0q5 0 11.5 0.5t3.5 0.5q-14 0 -23.5 -1.5t-18 -3.5t-18 -3.5t-23.5 -2.5q-37 -11 -52 -26t-28 -63q-8 -29 -8 -46l7 -50q0 -9 -11 -9t-23.5 1.5t-23.5 0.5t-11 -10q0 -2 -2.5 -7t-5.5 -10.5t-4.5 -11t1.5 -7.5q-3 -5 -3 -13
q0 -12 3.5 -26.5t3.5 -22.5q0 -3 -1 -4t5 -1q8 0 27 1t36 1h7q6 0 11.5 -0.5t9.5 -1t3 -1.5q-8 -8 -14 -19.5t-14 -19.5q0 -20 -1.5 -38t-1.5 -34q0 -23 -2.5 -49.5t-3 -52.5t3.5 -49t17 -38q7 -8 19.5 -9.5t28 -1t33 2.5t34.5 1q66 -3 120 -3l45 -1q15 0 30 1t28 5t23 10
t15 17q5 25 7.5 42.5t3.5 33.5v1q0 11 -34 11q-19 0 -46 -3q-40 -4 -62 -6.5t-27 -4.5l-8.5 0.5t-18.5 1t-18.5 1l-8.5 0.5q-27 0 -35 20t-7 46t6.5 51.5t5.5 36.5q0 16 5.5 23.5t18 10.5t33.5 2.5t52 -0.5q45 22 47 61v5q0 35 -20 41q-15 4 -29 4h-7q-14 -2 -19.5 -5
t-11.5 -3h-2q-26 8 -39.5 29.5t-24.5 44.5q-1 2 -2 4.5t-2 4.5q-2 3 -2 8t-2.5 11t2.5 13t22.5 16t58.5 20z" />
    <glyph glyph-name="FL00A4h" unicode="&#xa4;" horiz-adv-x="500" 
d="M63 0v858h375v-858h-375zM125 63h250v733h-250v-733z" />
    <glyph glyph-name="FL00A5h" unicode="&#xa5;" horiz-adv-x="496" 
d="M63 255l11 -11h63l2 -4q0 -1 3.5 -6t8 -11t8 -11.5t3.5 -7.5t-2.5 -8.5t-4.5 -14.5h-87q-3 0 -6.5 -8.5t-4.5 -13.5v-58l11 -11h55q-6 -20 -11.5 -38.5t-7.5 -25.5q7 -17 29.5 -22t43.5 -5h24q16 0 32.5 2t22.5 25q2 8 7 25t12 39h115v91h-86q7 20 13 35.5t9 23.5
q0 2 1 4h69v91h-35q9 22 18.5 46.5t18.5 47.5t17.5 43.5t14.5 36.5q9 23 12 30t8 18q8 17 13.5 38t5.5 39h-131q-4 0 -9.5 -18.5t-12.5 -46.5t-15 -60.5t-16 -60.5t-15.5 -46.5t-13.5 -18.5q-15 0 -26 17t-20 42t-16.5 54.5t-16 54.5t-17.5 42t-21 17h-117l-11 -11
q-1 -1 2.5 -16t9 -36t12 -43t11.5 -37q0 -1 3 -8.5t6.5 -16t7.5 -15.5t6 -8l33 -84h-28q-3 0 -6.5 -8.5t-4.5 -13.5v-58z" />
    <glyph glyph-name="FL00A6h" unicode="&#xa6;" horiz-adv-x="196" 
d="M8 770h136q2 0 6 -6t6 -11q1 -5 6 -24q2 -10 3 -16t2 -10v-59q0 -42 0.5 -89.5t0.5 -92.5v-58v-258q0 -129 -12 -258q0 -1 -2 -9t-5.5 -17t-7.5 -16.5t-8 -7.5h-89q-6 0 -10 25.5t-7 59t-4 66.5t-1 49q0 5 -0.5 18.5t-1.5 33t-2 42.5t-2 47t-2 47.5t-1.5 42.5t-1 32.5
t-0.5 19.5v33q0 23 -1 55v66q0 35 -1 71v70t-1 66v88z" />
    <glyph glyph-name="FL00A7h" unicode="&#xa7;" horiz-adv-x="496" 
d="M434 590q-3 19 -30.5 34t-61.5 24.5t-65.5 14t-42.5 3.5q-97 -6 -148.5 -56t-51.5 -144q0 -63 20 -100t51 -60q4 -30 18 -56t35 -44.5t48.5 -29t59.5 -10.5q18 0 33 3q-2 -9 -9 -14.5t-23 -5.5h-122q-18 16 -39 25t-45 9q-2 0 -8 -0.5t-8 -0.5q-3 -6 -7.5 -20t-9.5 -29.5
t-9.5 -29t-7.5 -18.5q0 -1 -0.5 -5.5t-0.5 -6.5q0 -15 13.5 -26t34 -19.5t45.5 -14t48.5 -9t42 -5t26.5 -1.5q46 0 89 11.5t77 35.5t56 61t25 87q5 58 -10.5 96.5t-42.5 64.5v29q-18 57 -60 82.5t-97 25.5q0 1 -9.5 2l-9.5 1l-33 -3q-5 -2 -8.5 -4t-7.5 -4v5q0 23 17.5 31
t35.5 8h25q17 0 31.5 -4t28.5 -8.5t28.5 -8t30.5 -3.5q8 0 16.5 12t15.5 27.5t11.5 29.5t4.5 18zM334 348q0 -13 -3 -29t-10 -30.5t-18.5 -24t-28.5 -9.5q-36 0 -52 22.5t-16 49.5q0 15 2 28.5t9 24.5t19.5 17.5t32.5 6.5q36 0 50.5 -13.5t14.5 -42.5z" />
    <glyph glyph-name="FL00A8h" unicode="&#xa8;" horiz-adv-x="454" 
d="M15 750q0 1 -0.5 7.5t0 13.5t3.5 13t9 7q3 0 8.5 0.5t11.5 1t11 0.5h8q16 0 30 -1.5t26 -6t24 -14t26 -24.5q1 -3 1.5 -9t0.5 -8q0 -26 -18.5 -38.5t-41.5 -12.5q-18 0 -35.5 3.5t-31.5 11.5t-23 21.5t-9 34.5zM251 750q0 1 -0.5 7.5t0 13.5t3.5 13t9 7q3 0 8.5 0.5
t11.5 1t11 0.5h8q16 0 30 -1.5t26 -6t24 -14t26 -24.5q1 -3 1.5 -9t0.5 -8q0 -26 -18.5 -38.5t-41.5 -12.5q-18 0 -35.5 3.5t-31.5 11.5t-23 21.5t-9 34.5z" />
    <glyph glyph-name="FL00A9h" unicode="&#xa9;" horiz-adv-x="562" 
d="M11 333q0 -57 20.5 -116.5t58 -108t88.5 -79t113 -30.5q60 0 105 24.5t76 65t46.5 92.5t15.5 108q0 63 -21 123t-59 106.5t-93 75t-122 28.5q-54 0 -96.5 -27t-72 -69.5t-44.5 -93.5t-15 -99zM96 331q0 24 13 55.5t35 59.5t50.5 47.5t58.5 19.5q38 0 64.5 -12t44.5 -31.5
t28 -44t15 -49t6.5 -47t1.5 -37.5q0 -17 -8.5 -46t-25.5 -58.5t-42.5 -52t-58.5 -25.5q-35 -3 -69.5 14t-61 48t-41 72.5t-10.5 86.5zM148 319q0 -89 84 -125h7q5 0 11 -0.5t11 -0.5h7q30 0 50 10q21 8 52 44l-69 18q-24 -11 -36 -11q-29 0 -40 19.5t-11 45.5t12.5 45
t41.5 19q14 0 24.5 -5t25.5 -23l51 36q-33 32 -55 39q-24 9 -49 9q-54 0 -85.5 -33.5t-31.5 -86.5z" />
    <glyph glyph-name="FL00AAh" unicode="&#xaa;" horiz-adv-x="285" 
d="M9 415q0 -57 27.5 -88t84.5 -31h8q7 0 12.5 0.5t10.5 0.5h5q7 0 19 1t23 2.5t19.5 2.5t8.5 2l16 14q9 30 8 96q-2 72 -8 85l-31 97q-8 22 -30.5 29.5t-43.5 7.5q-13 0 -33.5 -2t-40 -8.5t-33.5 -18t-14 -29.5v-12q0 -11 4 -19.5t15 -8.5q21 0 37.5 8.5t37.5 8.5
q13 0 18.5 -3t5.5 -17q0 -12 -19.5 -18.5t-43.5 -16.5t-43.5 -28.5t-19.5 -54.5zM87 394q0 21 13.5 32.5t34.5 11.5q17 0 20 -12.5t3 -25.5q0 -24 -4.5 -29t-28.5 -5q-16 0 -27 4.5t-11 23.5z" />
    <glyph glyph-name="FL00ABh" unicode="&#xab;" horiz-adv-x="614" 
d="M241 143h-3q-30 15 -54 25.5t-46 20t-45 20t-52 26.5q-6 2 -8 7v16v16q0 45 21 71.5t52 44.5t67 32t65 35q8 -5 11.5 -16.5t3.5 -22.5v-13q0 -26 -13.5 -40t-29 -24t-29 -19.5t-13.5 -25.5q0 -1 0.5 -2.5l0.5 -1.5q17 -10 25.5 -18t16.5 -15t18.5 -14t30.5 -16v-28
q0 -17 -1 -30.5t-15 -27.5h-3zM508 143h-3q-30 15 -54 25.5t-46 20t-45 20t-52 26.5q-6 2 -8 7v16v16q0 45 21 71.5t52 44.5t67 32t65 35q8 -5 11.5 -16.5t3.5 -22.5v-13q0 -26 -13.5 -40t-29 -24t-29 -19.5t-13.5 -25.5q0 -1 0.5 -2.5l0.5 -1.5q17 -10 25.5 -18t16.5 -15
t18.5 -14t30.5 -16v-28q0 -17 -1 -30.5t-15 -27.5h-3z" />
    <glyph glyph-name="FL00ACh" unicode="&#xac;" horiz-adv-x="524" 
d="M485 59q0 -2 -8 -2q-5 0 -17 -0.5t-27 -1t-30.5 -1t-27.5 -0.5q-14 0 -20 1t9 4v141h-351v118h460q3 0 6.5 -8.5t4.5 -13.5q0 -2 1 -8.5t1 -15.5z" />
    <glyph glyph-name="FL00ADh" unicode="&#xad;" horiz-adv-x="261" 
d="M13 243q0 5 0.5 13t0.5 16q0 9 1 15.5t1 8.5q1 5 4.5 13.5t6.5 8.5h203v-123h-203l-11 12q0 1 -0.5 5.5t-1 10.5t-1 11.5t-0.5 8.5z" />
    <glyph glyph-name="FL00AEh" unicode="&#xae;" horiz-adv-x="562" 
d="M11 333q0 -57 20.5 -116.5t58 -108t88.5 -79t113 -30.5q60 0 105 24.5t76 65t46.5 92.5t15.5 108q0 63 -21 123t-59 106.5t-93 75t-122 28.5q-54 0 -96.5 -27t-72 -69.5t-44.5 -93.5t-15 -99zM96 331q0 24 13 55.5t35 59.5t50.5 47.5t58.5 19.5q38 0 64.5 -12t44.5 -31.5
t28 -44t15 -49t6.5 -47t1.5 -37.5q0 -17 -8.5 -46t-25.5 -58.5t-42.5 -52t-58.5 -25.5q-35 -3 -69.5 14t-61 48t-41 72.5t-10.5 86.5zM190 205q2 -11 5 -14.5t14 -3.5h10q8 0 16 2.5t8 10.5v49q0 2 4.5 9t9.5 5q10 -5 15 -16t9.5 -22.5t10 -20.5t17.5 -9q7 0 19.5 3t12.5 11
q0 11 -5.5 21.5t-11.5 21t-10.5 21t-3.5 21.5q0 1 3.5 8t5.5 9l4 5q5 12 7 26t2 27q0 39 -26 62t-65 23q-6 0 -13.5 0.5t-15 -0.5t-13.5 -4t-9 -10q-2 -15 -3.5 -25t-1.5 -21v-16q0 -44 1.5 -88.5t3.5 -84.5zM254 410q9 0 14 -5.5t7.5 -13t3 -15.5t0.5 -13q0 -17 -7.5 -34
t-28.5 -17v88q0 2 3.5 4.5t5.5 4.5z" />
    <glyph glyph-name="FL00AFh" unicode="&#xaf;" horiz-adv-x="491" 
d="M1 702q0 4 0.5 10t0.5 12t1 11t1 6q1 4 8 10t10 6h463v-91h-463l-18 9q0 1 -1.5 11.5t-1.5 15.5z" />
    <glyph glyph-name="FL00B0h" unicode="&#xb0;" horiz-adv-x="352" 
d="M319 461q0 -35 -12.5 -70.5t-34.5 -64.5t-53 -47.5t-68 -18.5q-36 0 -63 15t-45 39t-27.5 55.5t-9.5 64.5q0 38 12.5 74t35.5 64t55.5 45t73.5 17q33 0 58 -16t42.5 -41.5t26.5 -56t9 -59.5zM234 458q0 15 -3 30.5t-10 29t-19 22t-30 8.5q-20 0 -33 -12t-20.5 -29
t-10 -36t-2.5 -34q0 -14 3 -29.5t9.5 -29t18.5 -22.5t30 -9q17 0 29.5 12.5t21 30t12.5 36.5t4 32z" />
    <glyph glyph-name="FL00B1h" unicode="&#xb1;" horiz-adv-x="440" 
d="M11 402l22 28h89l17 17v111h128q2 0 6 -13t5 -21q0 -4 0.5 -15t0.5 -23q0 -13 -0.5 -24t-0.5 -15l11 -17h122l-1 -92l-11 -11l-111 -11q-1 0 -5.5 0.5t-5.5 -0.5q-5 -3 -10.5 -9t-5.5 -24l-3 -65q-5 -5 -9 -8.5t-9 -7.5q-7 -7 -44 -5q-36 3 -45 3q-8 0 -17 26l4 68
q0 7 -18 13t-39.5 10.5t-40 7t-19.5 2.5q-2 1 -6.5 5t-4.5 6zM43 71q0 5 0.5 2.5t0.5 5.5q0 9 1 15.5t1 8.5q1 5 4.5 13.5t6.5 8.5h285v-102h-285l-11 12q0 1 -0.5 5.5t-1 10.5t-1 11.5t-0.5 8.5z" />
    <glyph glyph-name="FL00B2h" unicode="&#xb2;" horiz-adv-x="307" 
d="M23 590q2 10 18.5 18t37 13.5t39.5 8t25 2.5q58 -4 89 -32.5t31 -79.5q0 -25 -7 -43t-18 -30.5t-25 -20.5t-29 -13q-11 -3 -20.5 -6t-18.5 -7q-18 -6 -30 -12t-15 -45q5 3 24 1h73q20 19 50 19h10q2 -3 4.5 -11t5.5 -17l5.5 -16.5t4.5 -9.5q0 -1 0.5 -3.5t0.5 -4.5
q0 -11 -17 -19t-39 -13t-42.5 -7.5t-27.5 -2.5q-29 0 -87 6q-60 8 -61 36q-3 30 0 67q-3 35 8 58t29.5 37t41 22.5t42 15t32.5 13t13 18.5q0 14 -10 18t-21 4h-15q-20 0 -36 -6.5t-36 -6.5q-5 0 -10 6.5t-9 15t-7 16.5t-3 11z" />
    <glyph glyph-name="FL00B3h" unicode="&#xb3;" horiz-adv-x="285" 
d="M15 602q3 17 9 21.5t23 4.5h16h11q8 0 12 1h18q12 0 29 -2t32.5 -2.5t29.5 -2.5q21 -6 32 -15q4 -5 8 -14t8 -24q9 -28 2 -43q-7 -14 -16 -26t-31 -30q5 -6 8.5 -10t5.5 -6q4 -5 21 -18q11 -20 13.5 -33.5t2.5 -30.5q0 -28 -2.5 -53.5t-19.5 -43.5q-14 -18 -56 -21
q-20 -1 -38 -1h-34q-9 0 -21.5 -0.5t-25 0.5t-23 5.5t-14.5 13.5q-6 28 -7 45q0 10 48 6q49 -5 54 -7h4q16 0 25 6.5t13 15.5t5 18.5t1 15.5q0 10 -3 20.5t-10 19.5t-19.5 14.5t-30.5 5.5q-27 13 -29 37q0 24 12 27q7 2 12 2.5t10 0.5q8 -2 11.5 -4t8.5 -1q17 5 25 20l16 30
q7 14 -32 28l-112 12z" />
    <glyph glyph-name="FL00B4h" unicode="&#xb4;" 
d="M82 580q-8 20 4 32.5t35 12.5q15 0 24 -2.5t15 -9t11 -18t13 -29.5q10 -27 -2.5 -49t-34.5 -39.5t-47 -30t-40 -21.5q-4 -3 -12.5 -2t-17.5 2.5t-16.5 3.5t-8.5 2q-8 0 5 7t32.5 19t37 27t17.5 30q0 6 4.5 6.5t-0.5 3.5q-14 9 -16.5 21t-2.5 34z" />
    <glyph glyph-name="FL00B5h" unicode="&#xb5;" horiz-adv-x="586" 
d="M2 456v-86q0 -51 13.5 -104t28.5 -101.5t24.5 -89t0.5 -64.5l-50 -140q3 0 12 -3t22 -7t27 -7t27 -3q8 0 18 2.5t18.5 6t15 8t6.5 8.5l8 132q48 0 106 2.5t110 11.5q3 2 16.5 0t32 -5t40 -7t40 -6.5t31.5 -3t15 2.5q6 25 -3.5 57.5t-27.5 60.5q-2 3 -19 -1.5t-37.5 -10
t-37 -9.5t-16.5 -1q0 14 5.5 30.5t5.5 28.5v25v33q0 21 -0.5 41.5t-0.5 35.5v18q0 17 -3 44.5t-6.5 54.5t-7.5 46.5t-5 21.5l-11 11h-89q-14 0 -18.5 -9.5t-4.5 -20.5v-11q0 -5 0.5 -14.5t0.5 -11.5q1 -10 2.5 -30t4 -45t4.5 -53t4.5 -53t4 -45t2.5 -29l-11 -23q0 -1 -9 -3
t-21.5 -3.5t-26 -3t-21.5 -1.5q-26 0 -43 18t-26.5 43t-14 51.5t-5.5 43.5q-1 9 -3 31t-3.5 46.5t-3 46.5t-1.5 31l-11 12h-109z" />
    <glyph glyph-name="FL00B6h" unicode="&#xb6;" horiz-adv-x="520" 
d="M216 598h-100l-8 -1.5t-17.5 -4t-17.5 -4.5t-8 -3q-1 -3 -6 -6.5t-11 -6.5t-11 -5t-6 -3q-4 -6 -7.5 -17.5t-7 -25t-7 -25t-7.5 -17.5l16 -104q0 -1 11.5 -6.5t26 -11.5t28 -11.5t16.5 -5.5q1 0 4 -30.5t7.5 -75.5t10.5 -98.5t11 -98.5t9.5 -75.5t7.5 -30.5q9 0 17 -0.5
t14 -0.5t20 1t15 1l34 33l-6 439q0 16 3.5 23.5t9.5 10t13.5 2t15.5 -0.5q7 0 20.5 -1t15.5 -1l11 -11q0 -5 1 -34.5t2.5 -71.5t3.5 -90.5t4 -90.5t3.5 -72t2.5 -35q1 -17 2 -34.5t5.5 -32.5t15 -24.5t31.5 -9.5q25 0 39.5 4t35.5 19v24v28q0 20 0.5 41.5t0.5 41.5v29v24
q0 112 -3.5 222.5t-19.5 222.5q-14 12 -30 12h-32h-30q-19 0 -48.5 4.5t-55.5 3.5z" />
    <glyph glyph-name="FL00B7h" unicode="&#xb7;" 
d="M10 363q0 2 -0.5 8.5t0 13t3.5 12.5t9 7q3 1 8.5 1.5t11.5 1t11 0.5h8q33 0 56 -8t50 -39q1 -2 1.5 -8t0.5 -9q0 -25 -18.5 -38t-41.5 -13q-18 0 -35.5 3.5t-31.5 11.5t-23 22t-9 34z" />
    <glyph glyph-name="FL00B8h" unicode="&#xb8;" 
d="M-32 -145q0 22 14.5 33.5t34.5 16.5t39.5 6.5t30.5 4.5q-9 22 -14 37.5t-7.5 27t-3.5 19t-1 14.5q0 6 9.5 7t12.5 1h11q11 0 23 -0.5t21 -1t8 -0.5q-2 0 -3 -7t0.5 -17.5t5.5 -22t10 -21.5q13 -20 10.5 -34.5t-2.5 -30.5q0 -6 -1 -12t-3 -11q0 -2 -0.5 -8t-1.5 -9
q-14 -15 -26 -24.5t-24 -14t-25.5 -6t-30.5 -1.5h-8q-4 0 -14 2t-21 4.5t-20.5 4.5t-11.5 2q-8 2 -10.5 10.5t-2.5 16.5q0 5 0.5 9t0.5 5z" />
    <glyph glyph-name="FL00B9h" unicode="&#xb9;" horiz-adv-x="131" 
d="M5 635v-21q0 -13 0.5 -31t0.5 -38q0 -19 0.5 -37.5t0.5 -31.5v-21q0 -4 1 -20.5t2 -35.5t2 -36t1 -21q0 -6 1 -19.5t2.5 -27t4 -23.5t5.5 -10h54q5 1 9.5 10.5l4.5 9.5q3 26 5 52t2 52v103v23q0 18 -0.5 37t-0.5 36v24q0 2 -2.5 10t-3.5 10q-2 1 -4 3.5t-4 2.5h-81z" />
    <glyph glyph-name="FL00BAh" unicode="&#xba;" horiz-adv-x="352" 
d="M319 461q0 -35 -12.5 -70.5t-34.5 -64.5t-53 -47.5t-68 -18.5q-36 0 -63 15t-45 39t-27.5 55.5t-9.5 64.5q0 38 12.5 74t35.5 64t55.5 45t73.5 17q33 0 58 -16t42.5 -41.5t26.5 -56t9 -59.5zM234 458q0 15 -3 30.5t-10 29t-19 22t-30 8.5q-20 0 -33 -12t-20.5 -29
t-10 -36t-2.5 -34q0 -14 3 -29.5t9.5 -29t18.5 -22.5t30 -9q17 0 29.5 12.5t21 30t12.5 36.5t4 32z" />
    <glyph glyph-name="FL00BBh" unicode="&#xbb;" horiz-adv-x="614" 
d="M319 143h3q30 15 54 25.5t46 20t45 20t52 26.5q6 2 8 7v16v16q0 45 -21 71.5t-52 44.5t-67 32t-65 35q-8 -5 -11.5 -16.5t-3.5 -22.5v-13q0 -26 13.5 -40t29 -24t29 -19.5t13.5 -25.5q0 -1 -0.5 -2.5l-0.5 -1.5q-17 -10 -25.5 -18t-16.5 -15t-18.5 -14t-30.5 -16v-28
q0 -17 1 -30.5t15 -27.5h3zM52 143h3q30 15 54 25.5t46 20t45 20t52 26.5q6 2 8 7v16v16q0 45 -21 71.5t-52 44.5t-67 32t-65 35q-8 -5 -11.5 -16.5t-3.5 -22.5v-13q0 -26 13.5 -40t29 -24t29 -19.5t13.5 -25.5q0 -1 -0.5 -2.5l-0.5 -1.5q-17 -10 -25.5 -18t-16.5 -15
t-18.5 -14t-30.5 -16v-28q0 -17 1 -30.5t15 -27.5h3z" />
    <glyph glyph-name="FL00BCh" unicode="&#xbc;" horiz-adv-x="803" 
d="M430 596q-26 0 -332 -478q0 -18 0.5 -37.5t0.5 -36.5v-24q21 -15 49 -19t53 -4q8 8 15 14.5t12 10.5q14 12 338 532q0 2 -4.5 14.5t-6.5 18.5q-1 2 -5.5 6.5t-5.5 4.5h-100zM556 362h-60q-1 0 -3.5 -2.5t-3.5 -4.5q-2 -3 -4 -6.5t-2 -12.5v-170q7 -19 21 -19q13 0 64 3
h33h18h15q5 0 12.5 -1t9.5 -1l7 -6q0 -5 0.5 -16t1.5 -23.5t2 -24t2 -16.5q1 -10 1.5 -20.5t3.5 -19.5t9.5 -15t18.5 -6q14 0 31 2.5t30 11.5v15v44v14q0 68 -2 134.5t-11 132.5q-10 8 -18 8h-20h-18q-11 0 -20 -5.5t-11 -21.5q-1 -6 -2 -19t-2 -28t-2 -28.5t-1 -18.5
q-11 -8 -28 -8h-28q-5 0 -13.5 0.5t-10.5 0.5l-6 7zM16 636v-21q0 -13 0.5 -31t0.5 -38q0 -19 0.5 -37.5t0.5 -31.5v-21q0 -4 1 -20.5t2 -35.5t2 -36t1 -21q0 -6 1 -19.5t2.5 -27t4 -23.5t5.5 -10h54q5 1 9.5 10.5l4.5 9.5q3 26 5 52t2 52v103v23q0 18 -0.5 37t-0.5 36v24
q0 2 -2.5 10t-3.5 10q-2 1 -4 3.5t-4 2.5h-81z" />
    <glyph glyph-name="FL00BDh" unicode="&#xbd;" horiz-adv-x="781" 
d="M430 596q-26 0 -332 -478q0 -18 0.5 -37.5t0.5 -36.5v-24q21 -15 49 -19t53 -4q8 8 15 14.5t12 10.5q14 12 338 532q0 2 -4.5 14.5t-6.5 18.5q-1 2 -5.5 6.5t-5.5 4.5h-100zM16 636v-21q0 -13 0.5 -31t0.5 -38q0 -19 0.5 -37.5t0.5 -31.5v-21q0 -4 1 -20.5t2 -35.5t2 -36
t1 -21q0 -6 1 -19.5t2.5 -27t4 -23.5t5.5 -10h54q5 1 9.5 10.5l4.5 9.5q3 26 5 52t2 52v103v23q0 18 -0.5 37t-0.5 36v24q0 2 -2.5 10t-3.5 10q-2 1 -4 3.5t-4 2.5h-81zM487 342q0 -3 3 -11t7 -16.5t9 -15t10 -6.5q20 0 36 6.5t36 6.5h15q11 0 21 -4t10 -18q0 -12 -13 -18.5
t-32.5 -13t-42 -15t-41 -22.5t-29.5 -37t-8 -58q-3 -37 0 -67q1 -28 61 -36q58 -6 87 -6q7 0 27.5 2.5t42.5 7.5t39 13t17 19q0 2 -0.5 4.5t-0.5 3.5q-2 2 -4.5 9.5l-5.5 16.5t-5.5 17t-4.5 11h-10q-30 0 -50 -19h-73q-19 2 -24 -1q3 39 15 45t30 12q9 4 18.5 7t20.5 6
q15 5 29 13t25 20.5t18 30.5t7 43q0 51 -31 79.5t-89 32.5q-6 0 -25 -2.5t-39.5 -8t-37 -13.5t-18.5 -18z" />
    <glyph glyph-name="FL00BEh" unicode="&#xbe;" horiz-adv-x="897" 
d="M521 602q-26 0 -332 -478q0 -18 0.5 -37.5t0.5 -36.5v-24q21 -15 49 -19t53 -4q8 8 15 14.5t12 10.5q14 12 338 532q0 2 -4.5 14.5t-6.5 18.5q-1 2 -5.5 6.5t-5.5 4.5h-100zM647 368h-60q-1 0 -3.5 -2.5t-3.5 -4.5q-2 -3 -4 -6.5t-2 -12.5v-170q7 -19 21 -19q13 0 64 3
h33h18h15q5 0 12.5 -1t9.5 -1l7 -6q0 -5 0.5 -16t1.5 -23.5t2 -24t2 -16.5q1 -10 1.5 -20.5t3.5 -19.5t9.5 -15t18.5 -6q14 0 31 2.5t30 11.5v15v44v14q0 68 -2 134.5t-11 132.5q-10 8 -18 8h-20h-18q-11 0 -20 -5.5t-11 -21.5q-1 -6 -2 -19t-2 -28t-2 -28.5t-1 -18.5
q-11 -8 -28 -8h-28q-5 0 -13.5 0.5t-10.5 0.5l-6 7zM15 581l112 -12q39 -14 32 -28l-16 -30t-25 -20q-5 -1 -8.5 1t-11.5 4q-5 0 -10 -0.5t-12 -2.5q-12 -3 -12 -27q2 -24 29 -37q18 0 30.5 -5.5t19.5 -14.5t10 -19.5t3 -20.5q0 -6 -1 -15.5t-5 -18.5t-13 -15.5t-25 -6.5h-4
q-5 2 -54 7q-48 4 -48 -6q1 -17 7 -45q4 -9 14.5 -13.5t23 -5.5t25 -0.5t21.5 0.5h34q18 0 38 1q42 3 56 21q17 18 19.5 43.5t2.5 53.5q0 17 -2.5 30.5t-13.5 33.5q-17 13 -21 18q-2 2 -5.5 6t-8.5 10q22 18 31 30t16 26q7 15 -2 43q-4 15 -8 24t-8 14q-11 9 -32 15
q-14 2 -29.5 2.5t-32.5 2.5t-29 2h-18q-4 -1 -12 -1h-11h-16q-17 0 -23 -4.5t-9 -21.5z" />
    <glyph glyph-name="FL00BFh" unicode="&#xbf;" horiz-adv-x="411" 
d="M368 446q0 -32 3 -90q1 -59 -141 -75q-26 0 -43.5 -9.5t-28 -24.5t-14.5 -32.5t-4 -33.5q0 -11 1.5 -27t7.5 -30.5t18.5 -25t35.5 -10.5h5q5 2 87 10q81 8 79 -7q-1 -14 -3.5 -29t-6.5 -35q-7 -14 -22.5 -20t-34.5 -7.5t-38 -1t-34 0.5q-48 0 -89.5 12t-72 34t-48 53
t-17.5 70q0 26 5 54t17 52l12 8q2 4 6 9.5t7 11.5q3 5 6 9.5t15 10.5q6 3 24.5 11.5t50.5 22.5q64 29 68 33q5 4 8 9t3 7v44q4 12 10 17t15.5 6.5t23.5 1.5q15 0 36 2q48 -4 53 -31zM376 598q0 -2 0.5 -8t0 -13t-3.5 -13t-9 -7q-3 0 -8.5 -0.5t-11.5 -1t-12 -0.5h-7
q-17 0 -30.5 1.5t-25.5 6t-24.5 14t-25.5 24.5q-1 3 -1.5 9t-0.5 8q0 26 18.5 38.5t41.5 12.5q18 0 35.5 -3.5t31.5 -11.5t23 -21.5t9 -34.5z" />
    <glyph glyph-name="FL00C0h" unicode="&#xc0;" horiz-adv-x="484" 
d="M100 589q-33 -121 -53.5 -247.5t-35.5 -252.5q0 -5 -0.5 -18t-1.5 -27.5t-1.5 -27t-0.5 -16.5h115q9 0 11.5 14t3.5 30.5t4 30.5t15 14h111q12 0 18 -12t11 -27t10.5 -27t15.5 -12h122q2 0 5.5 8.5t6.5 13.5v6q0 21 -11 67.5t-29 106t-40.5 125t-44.5 123.5t-42 101.5
t-33 59.5q-6 0 -22.5 0.5t-22.5 0.5h-30q-23 0 -46 -6.5t-35 -27.5zM236 274q0 -26 -14 -32t-48 -6q0 4 0.5 14.5t1.5 22.5t1.5 22.5t0.5 14.5q0 7 2 17t4.5 19t4.5 15t3 6h28q4 0 7 -11.5t5 -27t3 -31t1 -23.5zM194 845q8 20 -4 32.5t-35 12.5q-15 0 -24 -2.5t-15 -9
t-11.5 -18t-12.5 -29.5q-10 -27 2.5 -49t34.5 -39.5t47 -30t40 -21.5q4 -3 12.5 -2t17.5 2.5t16 3.5t9 2q4 0 7.5 5t3.5 6q0 -1 -9 3.5t-22.5 12.5t-28.5 18t-27 19.5t-18.5 17.5t-1.5 11q14 9 16.5 21t2.5 34z" />
    <glyph glyph-name="FL00C1h" unicode="&#xc1;" horiz-adv-x="484" 
d="M100 589q-33 -121 -53.5 -247.5t-35.5 -252.5q0 -5 -0.5 -18t-1.5 -27.5t-1.5 -27t-0.5 -16.5h115q9 0 11.5 14t3.5 30.5t4 30.5t15 14h111q12 0 18 -12t11 -27t10.5 -27t15.5 -12h122q2 0 5.5 8.5t6.5 13.5v6q0 21 -11 67.5t-29 106t-40.5 125t-44.5 123.5t-42 101.5
t-33 59.5q-6 0 -22.5 0.5t-22.5 0.5h-30q-23 0 -46 -6.5t-35 -27.5zM236 274q0 -26 -14 -32t-48 -6q0 4 0.5 14.5t1.5 22.5t1.5 22.5t0.5 14.5q0 7 2 17t4.5 19t4.5 15t3 6h28q4 0 7 -11.5t5 -27t3 -31t1 -23.5zM203 837q0 -22 2.5 -34t16.5 -21q7 -5 -9 -19.5t-38 -29
t-41 -25.5t-19 -8q0 -1 3.5 -6t7.5 -5q1 0 8.5 -2t16.5 -3.5t17.5 -2.5t12.5 2q15 9 40 21.5t47 30t34.5 39.5t2.5 49q-8 18 -13 29.5t-11 18t-15 9t-24 2.5q-23 0 -35 -12.5t-4 -32.5z" />
    <glyph glyph-name="FL00C2h" unicode="&#xc2;" horiz-adv-x="484" 
d="M100 589q-33 -121 -53.5 -247.5t-35.5 -252.5q0 -5 -0.5 -18t-1.5 -27.5t-1.5 -27t-0.5 -16.5h115q9 0 11.5 14t3.5 30.5t4 30.5t15 14h111q12 0 18 -12t11 -27t10.5 -27t15.5 -12h122q2 0 5.5 8.5t6.5 13.5v6q0 21 -11 67.5t-29 106t-40.5 125t-44.5 123.5t-42 101.5
t-33 59.5q-6 0 -22.5 0.5t-22.5 0.5h-30q-23 0 -46 -6.5t-35 -27.5zM236 274q0 -26 -14 -32t-48 -6q0 4 0.5 14.5t1.5 22.5t1.5 22.5t0.5 14.5q0 7 2 17t4.5 19t4.5 15t3 6h28q4 0 7 -11.5t5 -27t3 -31t1 -23.5zM358 718v3q-15 30 -25.5 54t-20 46t-20 45t-26.5 52
q-2 6 -7 8h-16h-16q-45 0 -71.5 -21t-44.5 -52t-32 -67t-35 -65q5 -8 16.5 -11.5t22.5 -3.5h13q25 0 39.5 13.5t24.5 29t19.5 29t25.5 13.5q1 0 2.5 -0.5l1.5 -0.5q10 -17 18 -25.5t15 -16.5t14 -18.5t16 -30.5h28q17 0 30.5 1t27.5 15v3z" />
    <glyph glyph-name="FL00C3h" unicode="&#xc3;" horiz-adv-x="484" 
d="M100 589q-33 -121 -53.5 -247.5t-35.5 -252.5q0 -5 -0.5 -18t-1.5 -27.5t-1.5 -27t-0.5 -16.5h115q9 0 11.5 14t3.5 30.5t4 30.5t15 14h111q12 0 18 -12t11 -27t10.5 -27t15.5 -12h122q2 0 5.5 8.5t6.5 13.5v6q0 21 -11 67.5t-29 106t-40.5 125t-44.5 123.5t-42 101.5
t-33 59.5q-6 0 -22.5 0.5t-22.5 0.5h-30q-23 0 -46 -6.5t-35 -27.5zM236 274q0 -26 -14 -32t-48 -6q0 4 0.5 14.5t1.5 22.5t1.5 22.5t0.5 14.5q0 7 2 17t4.5 19t4.5 15t3 6h28q4 0 7 -11.5t5 -27t3 -31t1 -23.5zM332 876q-11 -50 -51 -50q-21 0 -73 24q-27 13 -53 24t-36 11
q-64 0 -98 -57q-3 -5 -6 -14t-5.5 -18.5t-5 -19.5t-4.5 -17q-2 -6 -12 -53h70q9 52 50 52q61 -24 108 -41.5t67 -17.5q48 0 78 49t40 128h-69z" />
    <glyph glyph-name="FL00C4h" unicode="&#xc4;" horiz-adv-x="484" 
d="M100 589q-33 -121 -53.5 -247.5t-35.5 -252.5q0 -5 -0.5 -18t-1.5 -27.5t-1.5 -27t-0.5 -16.5h115q9 0 11.5 14t3.5 30.5t4 30.5t15 14h111q12 0 18 -12t11 -27t10.5 -27t15.5 -12h122q2 0 5.5 8.5t6.5 13.5v6q0 21 -11 67.5t-29 106t-40.5 125t-44.5 123.5t-42 101.5
t-33 59.5q-6 0 -22.5 0.5t-22.5 0.5h-30q-23 0 -46 -6.5t-35 -27.5zM236 274q0 -26 -14 -32t-48 -6q0 4 0.5 14.5t1.5 22.5t1.5 22.5t0.5 14.5q0 7 2 17t4.5 19t4.5 15t3 6h28q4 0 7 -11.5t5 -27t3 -31t1 -23.5zM15 804q0 -21 9 -34.5t23 -21.5t31.5 -11.5t35.5 -3.5
q23 0 41.5 12.5t18.5 38.5q0 2 -0.5 8t-1.5 9q-14 15 -26 24.5t-24 14t-25.5 6t-30.5 1.5h-8q-8 0 -17 -1t-14 -1q-6 -1 -9 -7t-3.5 -13t0 -13.5t0.5 -7.5zM251 804q0 -21 9 -34.5t23 -21.5t31.5 -11.5t35.5 -3.5q23 0 41.5 12.5t18.5 38.5q0 2 -0.5 8t-1.5 9
q-14 15 -26 24.5t-24 14t-25.5 6t-30.5 1.5h-8q-8 0 -17 -1t-14 -1q-6 -1 -9 -7t-3.5 -13t0 -13.5t0.5 -7.5z" />
    <glyph glyph-name="FL00C5h" unicode="&#xc5;" horiz-adv-x="484" 
d="M100 589q-33 -121 -53.5 -247.5t-35.5 -252.5q0 -5 -0.5 -18t-1.5 -27.5t-1.5 -27t-0.5 -16.5h115q9 0 11.5 14t3.5 30.5t4 30.5t15 14h111q12 0 18 -12t11 -27t10.5 -27t15.5 -12h122q2 0 5.5 8.5t6.5 13.5v6q0 21 -11 67.5t-29 106t-40.5 125t-44.5 123.5t-42 101.5
t-33 59.5q-6 0 -22.5 0.5t-22.5 0.5h-30q-23 0 -46 -6.5t-35 -27.5zM236 274q0 -26 -14 -32t-48 -6q0 4 0.5 14.5t1.5 22.5t1.5 22.5t0.5 14.5q0 7 2 17t4.5 19t4.5 15t3 6h28q4 0 7 -11.5t5 -27t3 -31t1 -23.5zM283 807q0 16 -5 32.5t-14.5 30.5t-23 23t-31.5 9
q-23 0 -41 -9.5t-30.5 -25t-19.5 -35t-7 -40.5q0 -18 5 -35.5t15.5 -31t25 -21.5t34.5 -8t37 10t29 26t19 36t7 39zM237 805q0 -7 -2.5 -17.5t-7 -20t-11.5 -16.5t-16 -7q-10 0 -16.5 5t-10.5 12.5t-5.5 16t-1.5 15.5q0 8 1.5 18.5t5.5 20t11.5 16t18.5 6.5q20 0 27 -16.5
t7 -32.5z" />
    <glyph glyph-name="FL00C6h" unicode="&#xc6;" horiz-adv-x="683" 
d="M100 589q-33 -121 -53.5 -248t-35.5 -252q0 -5 -0.5 -18t-1.5 -27t-1.5 -27t-0.5 -17h115q9 0 11.5 14t3.5 30.5t4 30.5t15 14h111q12 0 18 -12t11 -27t10.5 -27t15.5 -12h2l5 -5h8q7 0 16.5 -0.5t18.5 -0.5h14q31 0 59 0.5t55.5 2t56 4t61.5 5.5q3 1 8.5 5t10.5 9
t9.5 10.5t5.5 8.5q0 1 -1.5 9t-3 18.5t-3.5 21.5t-3 18q-3 8 -6.5 20.5t-5.5 12.5h-177v117h127q0 6 -1 21t-1.5 32t-1.5 32t-1 21q-2 19 -7.5 21t-18.5 2q-3 0 -10 -0.5t-9 -0.5q-4 0 -15 -1.5t-24 -3.5t-24 -3.5t-14 -2.5q-11 3 -16 9t-7 14t-2 16v16v15q0 14 5.5 30
t19.5 16h133q0 1 2 9.5t5 21t4 19.5v23q-1 6 -2.5 15.5t-3.5 18.5t-3.5 15l-1.5 6h-278l-11 -11q0 -1 -0.5 -11.5t-0.5 -23.5v-16t-1 -15q-11 25 -20.5 43.5t-17.5 27.5q-6 0 -22.5 0.5t-22.5 0.5h-30q-23 0 -46 -6.5t-35 -27.5zM236 274q0 -26 -14 -32t-48 -6q0 4 0.5 14.5
t1.5 22.5t1.5 22.5t0.5 14.5q0 7 2 17t4.5 19t4.5 15t3 6h28q4 0 7 -11.5t5 -27t3 -31t1 -23.5z" />
    <glyph glyph-name="FL00C7h" unicode="&#xc7;" horiz-adv-x="511" 
d="M155 -140q0 -1 -0.5 -5t-0.5 -9q0 -8 2.5 -16.5t10.5 -10.5q2 0 11.5 -2t20.5 -4.5t21 -4.5t14 -2h8q17 0 30.5 1.5t25.5 6t24 14t26 24.5q1 3 1.5 9t0.5 8q2 5 3 11t1 12q0 16 2.5 30.5t-10.5 34.5q-7 10 -10 21.5t-5 21.5h80q7 0 16.5 3t19.5 8t18 10.5t13 11.5v10
q0 7 0.5 15.5t0.5 14.5v23q0 7 -0.5 15.5t-0.5 15.5v17h-167q-2 -1 -15 -2t-18 -1q-16 0 -37 6.5t-40 18.5t-32 29t-13 38v123q0 20 13.5 37t33.5 31t44 24t44 16q16 2 57 3.5t108 0.5q-4 42 -6 67.5t-4 38.5l-1.5 19.5l-0.5 6.5l-22 22l-16.5 -1t-40 -2.5t-48 -3.5
t-39.5 -4q-130 -13 -199 -80.5t-69 -197.5q0 -40 4.5 -80.5t16.5 -78t34 -71t57 -59.5q7 -4 19 -11.5t24.5 -14.5t22 -12.5t12.5 -5.5h49q2 -12 7.5 -30t17.5 -49q-11 -3 -30.5 -4.5t-39.5 -6.5t-34.5 -16.5t-14.5 -33.5z" />
    <glyph glyph-name="FL00C8h" unicode="&#xc8;" horiz-adv-x="400" 
d="M9 528q0 -10 0.5 -30t0.5 -40t0.5 -37t0.5 -21q1 -28 3 -68t4.5 -83t5 -85.5l4.5 -76.5t3.5 -55l1.5 -21l11 -11h8q7 0 16.5 -0.5t18.5 -0.5h14q31 0 59 0.5t55.5 2t56 4t61.5 5.5q3 1 8.5 5t10.5 9t9.5 10.5t5.5 8.5q0 1 -1.5 9t-3 18.5t-3.5 21.5t-3 18q-3 8 -6.5 20.5
t-5.5 12.5h-177v117h127q0 6 -1 21t-1.5 32t-1.5 32t-1 21q-2 19 -7.5 21t-18.5 2q-3 0 -10 -0.5t-9 -0.5q-3 0 -14.5 -1.5t-24.5 -3.5t-24 -3.5t-14 -2.5q-16 5 -20.5 16t-4.5 23v16v15q0 14 5.5 30t19.5 16h133q0 1 2 9.5t5 21t4 19.5v12v11q-1 6 -2.5 15.5t-3.5 18.5
t-3.5 15l-1.5 6h-278l-11 -11q0 -1 -0.5 -11.5t-0.5 -23.5q0 -14 -0.5 -27t-0.5 -21zM186 849q8 20 -4 32.5t-35 12.5q-15 0 -24 -2.5t-15 -9t-11.5 -18t-12.5 -29.5q-10 -27 2.5 -49t34.5 -39.5t47 -30t40 -21.5q4 -3 12.5 -2t17.5 2.5t16 3.5t9 2q4 0 7.5 5t3.5 6
q0 -1 -9 3.5t-22.5 12.5t-28.5 18t-27 19.5t-18.5 17t-1.5 11.5q14 9 16.5 21t2.5 34z" />
    <glyph glyph-name="FL00C9h" unicode="&#xc9;" horiz-adv-x="400" 
d="M9 528q0 -10 0.5 -30t0.5 -40t0.5 -37t0.5 -21q1 -28 3 -68t4.5 -83t5 -85.5l4.5 -76.5t3.5 -55l1.5 -21l11 -11h8q7 0 16.5 -0.5t18.5 -0.5h14q31 0 59 0.5t55.5 2t56 4t61.5 5.5q3 1 8.5 5t10.5 9t9.5 10.5t5.5 8.5q0 1 -1.5 9t-3 18.5t-3.5 21.5t-3 18q-3 8 -6.5 20.5
t-5.5 12.5h-177v117h127q0 6 -1 21t-1.5 32t-1.5 32t-1 21q-2 19 -7.5 21t-18.5 2q-3 0 -10 -0.5t-9 -0.5q-3 0 -14.5 -1.5t-24.5 -3.5t-24 -3.5t-14 -2.5q-16 5 -20.5 16t-4.5 23v16v15q0 14 5.5 30t19.5 16h133q0 1 2 9.5t5 21t4 19.5v12v11q-1 6 -2.5 15.5t-3.5 18.5
t-3.5 15l-1.5 6h-278l-11 -11q0 -1 -0.5 -11.5t-0.5 -23.5q0 -14 -0.5 -27t-0.5 -21zM182 834q0 -22 2.5 -34t16.5 -21q7 -5 -9 -19.5t-38 -29t-41 -25.5t-19 -8q0 -1 3.5 -6t7.5 -5q1 0 8.5 -2t16.5 -3.5t17.5 -2.5t12.5 2q15 9 40 21.5t47 30t34.5 39.5t2.5 49
q-8 18 -13 29.5t-11 18t-15 9t-24 2.5q-23 0 -35 -12.5t-4 -32.5z" />
    <glyph glyph-name="FL00CAh" unicode="&#xca;" horiz-adv-x="400" 
d="M9 528q0 -10 0.5 -30t0.5 -40t0.5 -37t0.5 -21q1 -28 3 -68t4.5 -83t5 -85.5l4.5 -76.5t3.5 -55l1.5 -21l11 -11h8q7 0 16.5 -0.5t18.5 -0.5h14q31 0 59 0.5t55.5 2t56 4t61.5 5.5q3 1 8.5 5t10.5 9t9.5 10.5t5.5 8.5q0 1 -1.5 9t-3 18.5t-3.5 21.5t-3 18q-3 8 -6.5 20.5
t-5.5 12.5h-177v117h127q0 6 -1 21t-1.5 32t-1.5 32t-1 21q-2 19 -7.5 21t-18.5 2q-3 0 -10 -0.5t-9 -0.5q-3 0 -14.5 -1.5t-24.5 -3.5t-24 -3.5t-14 -2.5q-16 5 -20.5 16t-4.5 23v16v15q0 14 5.5 30t19.5 16h133q0 1 2 9.5t5 21t4 19.5v12v11q-1 6 -2.5 15.5t-3.5 18.5
t-3.5 15l-1.5 6h-278l-11 -11q0 -1 -0.5 -11.5t-0.5 -23.5q0 -14 -0.5 -27t-0.5 -21zM322 707v3q-15 30 -25.5 54t-20 46t-20 45t-26.5 52q-2 6 -7 8h-16h-16q-45 0 -71.5 -21t-44.5 -52t-32 -67t-35 -65q5 -8 16.5 -11.5t22.5 -3.5h13q25 0 39.5 13.5t24.5 29t19.5 29
t25.5 13.5q1 0 2.5 -0.5l1.5 -0.5q10 -17 18 -25.5t15 -16.5t14 -18.5t16 -30.5h28q17 0 30.5 1t27.5 15v3z" />
    <glyph glyph-name="FL00CBh" unicode="&#xcb;" horiz-adv-x="400" 
d="M9 528q0 -10 0.5 -30t0.5 -40t0.5 -37t0.5 -21q1 -28 3 -68t4.5 -83t5 -85.5l4.5 -76.5t3.5 -55l1.5 -21l11 -11h8q7 0 16.5 -0.5t18.5 -0.5h14q31 0 59 0.5t55.5 2t56 4t61.5 5.5q3 1 8.5 5t10.5 9t9.5 10.5t5.5 8.5q0 1 -1.5 9t-3 18.5t-3.5 21.5t-3 18q-3 8 -6.5 20.5
t-5.5 12.5h-177v117h127q0 6 -1 21t-1.5 32t-1.5 32t-1 21q-2 19 -7.5 21t-18.5 2q-3 0 -10 -0.5t-9 -0.5q-3 0 -14.5 -1.5t-24.5 -3.5t-24 -3.5t-14 -2.5q-16 5 -20.5 16t-4.5 23v16v15q0 14 5.5 30t19.5 16h133q0 1 2 9.5t5 21t4 19.5v12v11q-1 6 -6.5 15.5t-11.5 18.5
t-11 15.5l-5 6.5l-255 -1l-11 -11q0 -1 -0.5 -11.5t-0.5 -23.5q0 -14 -0.5 -27t-0.5 -21zM-6 797q0 -21 9 -34.5t23 -21.5t31.5 -11.5t35.5 -3.5q23 0 41.5 12.5t18.5 38.5q0 2 -0.5 8t-1.5 9q-14 15 -26 24.5t-24 14t-25.5 6t-30.5 1.5h-8q-8 0 -17 -1t-14 -1q-6 -1 -9 -7
t-3.5 -13t0 -13.5t0.5 -7.5zM220 798q0 -21 9 -34.5t23 -21.5t31.5 -11.5t35.5 -3.5q23 0 41.5 12.5t18.5 38.5q0 2 -0.5 8t-1.5 9q-14 15 -26 24.5t-24 14t-25.5 6t-30.5 1.5h-8q-8 0 -17 -1t-14 -1q-6 -1 -9 -7t-3.5 -13t0 -13.5t0.5 -7.5z" />
    <glyph glyph-name="FL00CCh" unicode="&#xcc;" horiz-adv-x="263" 
d="M20 521v-26q0 -13 0.5 -27t0.5 -27t0.5 -22t0.5 -11q1 -25 3.5 -62t6 -78l7 -82t7 -75t6 -56t3.5 -25l12 -33h160q0 10 -1 33.5t-1.5 50t-1.5 50.5t-1 33q-1 16 -3.5 50.5t-5.5 78.5t-6 92.5t-6.5 92t-6.5 78.5t-5 52h-156l-11 -11q0 -4 -1 -21.5t-1 -35.5v-19zM115 837
q8 20 -4 32.5t-35 12.5q-15 0 -24 -2.5t-15 -9t-11.5 -18t-12.5 -29.5q-10 -27 2.5 -49t34.5 -39.5t47 -30t40 -21.5q4 -3 12.5 -2t17.5 2.5t16 3.5t9 2q4 0 7.5 5t3.5 6q0 -1 -9 3.5t-22.5 12.5t-28.5 18t-27 19.5t-18.5 17t-1.5 11.5q14 9 16.5 21t2.5 34z" />
    <glyph glyph-name="FL00CDh" unicode="&#xcd;" horiz-adv-x="263" 
d="M20 521v-26q0 -13 0.5 -27t0.5 -27t0.5 -22t0.5 -11q1 -25 3.5 -62t6 -78l7 -82t7 -75t6 -56t3.5 -25l12 -33h160q0 10 -1 33.5t-1.5 50t-1.5 50.5t-1 33q-1 16 -3.5 50.5t-5.5 78.5t-6 92.5t-6.5 92t-6.5 78.5t-5 52h-156l-11 -11q0 -4 -1 -21.5t-1 -35.5v-19zM123 832
q0 -22 2.5 -34t16.5 -21q7 -5 -9 -19.5t-38 -29t-41 -25.5t-19 -8q0 -1 3.5 -6t7.5 -5q1 0 8.5 -2t16.5 -3.5t17.5 -2.5t12.5 2q15 9 40 21.5t47 30t34.5 39.5t2.5 49q-8 18 -13 29.5t-11 18t-15 9t-24 2.5q-23 0 -35 -12.5t-4 -32.5z" />
    <glyph glyph-name="FL00CEh" unicode="&#xce;" horiz-adv-x="263" 
d="M20 521v-26q0 -13 0.5 -27t0.5 -27t0.5 -22t0.5 -11q1 -25 3.5 -62t6 -78l7 -82t7 -75t6 -56t3.5 -25l12 -33h160q0 10 -1 33.5t-1.5 50t-1.5 50.5t-1 33q-1 16 -3.5 50.5t-5.5 78.5t-6 92.5t-6.5 92t-6.5 78.5t-5 52h-156l-11 -11q0 -4 -1 -21.5t-1 -35.5v-19zM258 717
v3q-15 30 -25.5 54t-20 46t-20 45t-26.5 52q-2 6 -7 8h-16h-16q-45 0 -71.5 -21t-44.5 -52t-32 -67t-35 -65q5 -8 16.5 -11.5t22.5 -3.5h13q25 0 39.5 13.5t24.5 29t19.5 29t25.5 13.5q1 0 2.5 -0.5l1.5 -0.5q10 -17 18 -25.5t15 -16.5t14 -18.5t16 -30.5h28q17 0 30.5 1
t27.5 15v3z" />
    <glyph glyph-name="FL00CFh" unicode="&#xcf;" horiz-adv-x="263" 
d="M20 521v-26q0 -13 0.5 -27t0.5 -27t0.5 -22t0.5 -11q1 -25 3.5 -62t6 -78l7 -82t7 -75t6 -56t3.5 -25l12 -33h160q0 10 -1 33.5t-1.5 50t-1.5 50.5t-1 33q-1 16 -3.5 50.5t-5.5 78.5t-6 92.5t-6.5 92t-6.5 78.5t-5 52h-156l-11 -11q0 -4 -1 -21.5t-1 -35.5v-19zM-79 805
q0 -21 9 -34.5t23 -21.5t31.5 -11.5t35.5 -3.5q23 0 41.5 12.5t18.5 38.5q0 2 -0.5 8t-1.5 9q-14 15 -26 24.5t-24 14t-25.5 6t-30.5 1.5h-8q-8 0 -17 -1t-14 -1q-6 -1 -9 -7t-3.5 -13t0 -13.5t0.5 -7.5zM135 805q0 -21 9 -34.5t23 -21.5t31.5 -11.5t35.5 -3.5
q23 0 41.5 12.5t18.5 38.5q0 2 -0.5 8t-1.5 9q-14 15 -26 24.5t-24 14t-25.5 6t-30.5 1.5h-8q-8 0 -17 -1t-14 -1q-6 -1 -9 -7t-3.5 -13t0 -13.5t0.5 -7.5z" />
    <glyph glyph-name="FL00D0h" unicode="&#xd0;" horiz-adv-x="572" 
d="M9 302q0 -3 0.5 -8.5t1 -11.5t1 -10.5t0.5 -5.5l11 -11h73q3 -45 6.5 -86.5t5.5 -74t4 -52l2 -19.5l23 -22l16.5 1t40 3t48 3.5t39.5 3.5q129 13 198.5 81t69.5 197q0 40 -5 80.5t-17.5 78t-34 71t-55.5 59.5q-8 4 -20 11.5t-24 14.5t-21.5 12.5t-12.5 5.5h-211
q-7 0 -16.5 -3t-19.5 -7.5t-18.5 -10.5t-12.5 -12v-10q0 -7 -0.5 -15t-0.5 -15v-22q0 -8 0.5 -16.5t0.5 -14.5v-7q1 -23 3 -52t4 -61h-65q-3 0 -6.5 -8.5t-4.5 -13.5q0 -2 -1 -8.5t-1 -15.5q0 -8 -0.5 -16t-0.5 -13zM248 190q-4 16 -6 32t-4 33h74v122h-76v16v19
q0 12 0.5 24t0.5 21v11l11 11q2 1 15 2t18 1q16 0 37 -6.5t40 -18.5t32 -29t13 -38v-122q0 -19 -14.5 -37t-34.5 -32.5t-41.5 -23t-36.5 -8.5q-3 0 -4.5 0.5l-1.5 0.5q-3 2 -11.5 10.5t-10.5 11.5z" />
    <glyph glyph-name="FL00D1h" unicode="&#xd1;" horiz-adv-x="507" 
d="M133 600h-100q-1 0 -5.5 -4.5t-5.5 -6.5q-2 -6 -6.5 -18.5t-4.5 -14.5v-545q0 -2 13 -6t20 -5q2 0 8.5 -0.5t14.5 -0.5q9 0 17 -0.5t14 -0.5t20 1t15 1l34 33v178q-7 76 8 73q16 -2 38 -40t72 -132q25 -48 39.5 -73.5t19.5 -30.5q10 -9 32 -9q25 0 53 4t49 19v24
q0 17 0.5 36.5t0.5 37.5v24q0 112 -3.5 222.5t-19.5 222.5q-14 12 -30 12h-32h-30q-19 0 -34.5 -9.5t-18.5 -35.5q-1 -9 -3 -31.5t-3.5 -47t-3 -46.5t-1.5 -31q2 -42 -20 -25q-23 18 -147 225zM393 878q-11 -50 -51 -50q-21 0 -73 24q-27 13 -53 24t-36 11q-64 0 -98 -57
q-3 -5 -6 -14t-5.5 -18.5t-5 -19.5t-4.5 -17q-2 -6 -12 -53h70q9 52 50 52q61 -24 108 -41.5t67 -17.5q48 0 78 49t40 128h-69z" />
    <glyph glyph-name="FL00D2h" unicode="&#xd2;" horiz-adv-x="562" 
d="M11 333q0 48 15 99t44.5 93.5t72 69.5t96.5 27q67 0 122 -28.5t93 -75t59 -106.5t21 -123q0 -56 -15.5 -108t-46.5 -92.5t-76 -65t-105 -24.5q-62 0 -113 30.5t-88.5 79t-58 108t-20.5 116.5zM154 328q0 -21 6.5 -52.5t20 -61t35 -50.5t50.5 -21q30 0 49.5 15t31 38
t16 49t4.5 49q0 24 -4.5 56t-17 60.5t-34 48.5t-54.5 20q-30 0 -50 -14.5t-32 -36.5t-16.5 -49t-4.5 -51zM263 850q0 -22 -2.5 -34t-16.5 -21q-5 -4 1.5 -11.5t18.5 -17t27 -19.5t28.5 -18t22.5 -12.5t9 -3.5q0 -1 -3.5 -6t-7.5 -5q-2 0 -9 -2t-16 -3.5t-17.5 -2.5t-12.5 2
q-15 9 -40 21.5t-47 30t-34.5 39.5t-2.5 49q7 18 12.5 29.5t11.5 18t15 9t24 2.5q23 0 35 -12.5t4 -32.5z" />
    <glyph glyph-name="FL00D3h" unicode="&#xd3;" horiz-adv-x="562" 
d="M11 333q0 48 15 99t44.5 93.5t72 69.5t96.5 27q67 0 122 -28.5t93 -75t59 -106.5t21 -123q0 -56 -15.5 -108t-46.5 -92.5t-76 -65t-105 -24.5q-62 0 -113 30.5t-88.5 79t-58 108t-20.5 116.5zM154 328q0 -21 6.5 -52.5t20 -61t35 -50.5t50.5 -21q30 0 49.5 15t31 38
t16 49t4.5 49q0 24 -4.5 56t-17 60.5t-34 48.5t-54.5 20q-30 0 -50 -14.5t-32 -36.5t-16.5 -49t-4.5 -51zM272 866q-8 20 4 32.5t35 12.5q15 0 24 -2.5t15 -9t11 -18t13 -29.5q10 -27 -2.5 -49t-34.5 -39.5t-47 -30t-40 -21.5q-4 -3 -12.5 -2t-17.5 2.5t-16.5 3.5t-8.5 2
q-4 0 -7.5 5t-3.5 6q0 -2 19 8.5t41 25t38 29t9 19.5q-14 9 -16.5 21t-2.5 34z" />
    <glyph glyph-name="FL00D4h" unicode="&#xd4;" horiz-adv-x="562" 
d="M11 333q0 48 15 99t44.5 93.5t72 69.5t96.5 27q67 0 122 -28.5t93 -75t59 -106.5t21 -123q0 -56 -15.5 -108t-46.5 -92.5t-76 -65t-105 -24.5q-62 0 -113 30.5t-88.5 79t-58 108t-20.5 116.5zM154 328q0 -21 6.5 -52.5t20 -61t35 -50.5t50.5 -21q30 0 49.5 15t31 38
t16 49t4.5 49q0 24 -4.5 56t-17 60.5t-34 48.5t-54.5 20q-30 0 -50 -14.5t-32 -36.5t-16.5 -49t-4.5 -51zM411 714v-3q-14 -14 -27.5 -15t-30.5 -1h-28q-9 20 -16 30.5t-14 18.5t-15 16.5t-18 25.5l-1.5 0.5t-2.5 0.5q-16 0 -25.5 -13.5t-19.5 -29t-24.5 -29t-39.5 -13.5
h-13q-11 0 -22.5 3.5t-16.5 11.5q21 29 35.5 64.5t32 67t43.5 52.5t72 21h16h16q2 -1 4 -3.5t3 -4.5q16 -29 26.5 -52t20 -45t20 -46t25.5 -54v-3z" />
    <glyph glyph-name="FL00D5h" unicode="&#xd5;" horiz-adv-x="562" 
d="M11 333q0 -57 20.5 -116.5t58 -108t88.5 -79t113 -30.5q60 0 105 24.5t76 65t46.5 92.5t15.5 108q0 63 -21 123t-59 106.5t-93 75t-122 28.5q-54 0 -96.5 -27t-72 -69.5t-44.5 -93.5t-15 -99zM154 328q0 24 4.5 51t16.5 49t32 36.5t50 14.5q33 0 54.5 -20t34 -48.5
t17 -60.5t4.5 -56q0 -23 -4.5 -49t-16 -49t-31 -38t-49.5 -15q-29 0 -50.5 21t-35 50.5t-20 61t-6.5 52.5zM386 865q-11 -50 -51 -50q-21 0 -73 24q-27 13 -53 24t-36 11q-64 0 -98 -57q-3 -5 -6 -14t-5.5 -18.5t-5 -19.5t-4.5 -17q-2 -6 -12 -53h70q9 52 50 52
q61 -24 108 -41.5t67 -17.5q48 0 78 49t40 128h-69z" />
    <glyph glyph-name="FL00D6h" unicode="&#xd6;" horiz-adv-x="562" 
d="M11 333q0 48 15 99t44.5 93.5t72 69.5t96.5 27q67 0 122 -28.5t93 -75t59 -106.5t21 -123q0 -56 -15.5 -108t-46.5 -92.5t-76 -65t-105 -24.5q-62 0 -113 30.5t-88.5 79t-58 108t-20.5 116.5zM154 328q0 -21 6.5 -52.5t20 -61t35 -50.5t50.5 -21q30 0 49.5 15t31 38
t16 49t4.5 49q0 24 -4.5 56t-17 60.5t-34 48.5t-54.5 20q-30 0 -50 -14.5t-32 -36.5t-16.5 -49t-4.5 -51zM60 788q0 1 -0.5 7.5t0 13.5t3.5 13t9 7q3 0 8.5 0.5t11.5 1t11 0.5h8q16 0 30 -1.5t26 -6t24 -14t26 -24.5q1 -3 1.5 -9t0.5 -8q0 -26 -18.5 -38.5t-41.5 -12.5
q-18 0 -35.5 3.5t-31.5 11.5t-23 21.5t-9 34.5zM296 788q0 1 -0.5 7.5t0 13.5t3.5 13t9 7q3 0 8.5 0.5t11.5 1t11 0.5h8q16 0 30 -1.5t26 -6t24 -14t26 -24.5q1 -3 1.5 -9t0.5 -8q0 -26 -18.5 -38.5t-41.5 -12.5q-18 0 -35.5 3.5t-31.5 11.5t-23 21.5t-9 34.5z" />
    <glyph glyph-name="FL00D7h" unicode="&#xd7;" horiz-adv-x="440" 
d="M80 459l35 4l63 -63h24l79 79l90 -91q2 -2 -4.5 -13.5t-11.5 -18.5q-2 -2 -10 -10.5t-16 -16.5q-9 -9 -17.5 -16.5t-10.5 -10.5l-5 -20l87 -86l-75 -75h-16l-86 71q-1 0 -3.5 3.5t-4.5 3.5q-6 2 -13.5 1.5t-20.5 -13.5l-66 -65h-13q-5 0 -11 1q-10 0 -35 28
q-11 14 -18.5 22t-11.5 12q-5 5 7 30l68 67q5 5 -3 22t-20.5 35.5t-23.5 33t-12 15.5q-1 2 -1.5 8t1.5 8z" />
    <glyph glyph-name="FL00D8h" unicode="&#xd8;" horiz-adv-x="562" 
d="M534 333q0 41 -11 84t-32 81l16 26t17 27q0 2 -4.5 14.5t-6.5 18.5q-1 2 -5.5 6.5t-5.5 4.5h-99q-44 27 -96 27q-68 0 -122.5 -28.5t-93 -75t-59.5 -106.5t-21 -123q0 -48 11 -93t34 -83q0 -17 0.5 -36t0.5 -36v-24q21 -15 49 -19t53 -4l9 9t9 8q34 -12 77 -12
q62 0 113.5 30.5t88.5 79t57.5 108t20.5 116.5zM391 328q2 -36 -3 -69.5t-18.5 -59t-36 -41t-53.5 -15.5h-12q10 33 23 68.5t29 66t35 52t41 26.5zM289 479h6q-10 -36 -23 -71t-28.5 -64.5t-34 -49.5t-38.5 -25q-7 27 -4 64t17.5 70t40 55.5t64.5 20.5z" />
    <glyph glyph-name="FL00D9h" unicode="&#xd9;" horiz-adv-x="498" 
d="M2 586h118l11 -16q1 -11 3 -39.5t3.5 -60t3 -59.5t2.5 -39q1 -22 5.5 -56t15 -66t29 -55t47.5 -23q8 0 22.5 1.5t28 4t23.5 5t10 4.5l12 29q-1 8 -2 24.5t-3 39.5t-3.5 47.5t-3.5 50.5t-4 51.5t-3.5 47.5t-3 39t-1.5 26q0 4 -0.5 15.5t-0.5 18.5v14q0 13 5.5 25.5
t19.5 12.5h96l12 -15q1 -3 5 -28t7.5 -59t7 -69t4.5 -57v-22q0 -21 0.5 -47.5t0.5 -52.5v-41v-34q0 -22 -0.5 -48.5t-10.5 -55.5q-9 -28 -19 -45.5t-39 -27.5q-36 -14 -81.5 -20.5t-96.5 -6.5q-48 0 -83 21.5t-59.5 58t-39.5 84t-23.5 100.5t-11.5 108t-3 105v110zM223 852
q0 -22 -2.5 -34t-16.5 -21q-5 -4 1.5 -11.5t18.5 -17t27 -19.5t28.5 -18t22.5 -12.5t9 -3.5q0 -1 -3.5 -6t-7.5 -5q-2 0 -9 -2t-16 -3.5t-17.5 -2.5t-12.5 2q-15 9 -40 21.5t-47 30t-34.5 39.5t-2.5 49q7 18 12.5 29.5t11.5 18t15 9t24 2.5q23 0 35 -12.5t4 -32.5z" />
    <glyph glyph-name="FL00DAh" unicode="&#xda;" horiz-adv-x="498" 
d="M2 586h118l11 -16q1 -11 3 -39.5t3.5 -60t3 -59.5t2.5 -39q1 -22 5.5 -56t15 -66t29 -55t47.5 -23q8 0 22.5 1.5t28 4t23.5 5t10 4.5l12 29q-1 8 -2 24.5t-3 39.5t-3.5 47.5t-3.5 50.5t-4 51.5t-3.5 47.5t-3 39t-1.5 26q0 4 -0.5 15.5t-0.5 18.5v14q0 13 5.5 25.5
t19.5 12.5h96l12 -15q1 -3 5 -28t7.5 -59t7 -69t4.5 -57v-22q0 -21 0.5 -47.5t0.5 -52.5v-41v-34q0 -22 -0.5 -48.5t-10.5 -55.5q-9 -28 -19 -45.5t-39 -27.5q-36 -14 -81.5 -20.5t-96.5 -6.5q-48 0 -83 21.5t-59.5 58t-39.5 84t-23.5 100.5t-11.5 108t-3 105v110zM239 887
q-8 20 4 32.5t35 12.5q15 0 24 -2.5t15 -9t11 -18t13 -29.5q10 -27 -2.5 -49t-34.5 -39.5t-47 -30t-40 -21.5q-4 -3 -12.5 -2t-17.5 2.5t-16.5 3.5t-8.5 2q-4 0 -7.5 5t-3.5 6q0 -2 19 8.5t41 25t38 29t9 19.5q-14 9 -16.5 21t-2.5 34z" />
    <glyph glyph-name="FL00DBh" unicode="&#xdb;" horiz-adv-x="498" 
d="M2 586h118l11 -16q1 -11 3 -39.5t3.5 -60t3 -59.5t2.5 -39q1 -22 5.5 -56t15 -66t29 -55t47.5 -23q8 0 22.5 1.5t28 4t23.5 5t10 4.5l12 29q-1 8 -2 24.5t-3 39.5t-3.5 47.5t-3.5 50.5t-4 51.5t-3.5 47.5t-3 39t-1.5 26q0 4 -0.5 15.5t-0.5 18.5v14q0 13 5.5 25.5
t19.5 12.5h96l12 -15q1 -3 5 -28t7.5 -59t7 -69t4.5 -57v-22q0 -21 0.5 -47.5t0.5 -52.5v-41v-34q0 -22 -0.5 -48.5t-10.5 -55.5q-9 -28 -19 -45.5t-39 -27.5q-36 -14 -81.5 -20.5t-96.5 -6.5q-48 0 -83 21.5t-59.5 58t-39.5 84t-23.5 100.5t-11.5 108t-3 105v110zM386 721
v-3q-14 -14 -27.5 -15t-30.5 -1h-28q-9 20 -16 30.5t-14 18.5t-15 16.5t-18 25.5l-1.5 0.5t-2.5 0.5q-16 0 -25.5 -13.5t-19.5 -29t-24.5 -29t-39.5 -13.5h-13q-11 0 -22.5 3.5t-16.5 11.5q21 29 35.5 64.5t32 67t43.5 52.5t72 21h16h16q2 -1 4 -3.5t3 -4.5q16 -29 26.5 -52
t20 -45t20 -46t25.5 -54v-3z" />
    <glyph glyph-name="FL00DCh" unicode="&#xdc;" horiz-adv-x="498" 
d="M2 586h118l11 -16q1 -11 3 -39.5t3.5 -60t3 -59.5t2.5 -39q1 -22 5.5 -56t15 -66t29 -55t47.5 -23q8 0 22.5 1.5t28 4t23.5 5t10 4.5l12 29q-1 8 -2 24.5t-3 39.5t-3.5 47.5t-3.5 50.5t-4 51.5t-3.5 47.5t-3 39t-1.5 26q0 4 -0.5 15.5t-0.5 18.5v14q0 13 5.5 25.5
t19.5 12.5h96l12 -15q1 -3 5 -28t7.5 -59t7 -69t4.5 -57v-22q0 -21 0.5 -47.5t0.5 -52.5v-41v-34q0 -22 -0.5 -48.5t-10.5 -55.5q-9 -28 -19 -45.5t-39 -27.5q-36 -14 -81.5 -20.5t-96.5 -6.5q-48 0 -83 21.5t-59.5 58t-39.5 84t-23.5 100.5t-11.5 108t-3 105v110zM38 798
q0 1 -0.5 7.5t0 13.5t3.5 13t9 7q3 0 8.5 0.5t11.5 1t11 0.5h8q16 0 30 -1.5t26 -6t24 -14t26 -24.5q1 -3 1.5 -9t0.5 -8q0 -26 -18.5 -38.5t-41.5 -12.5q-18 0 -35.5 3.5t-31.5 11.5t-23 21.5t-9 34.5zM274 798q0 1 -0.5 7.5t0 13.5t3.5 13t9 7q3 0 8.5 0.5t11.5 1t11 0.5
h8q16 0 30 -1.5t26 -6t24 -14t26 -24.5q1 -3 1.5 -9t0.5 -8q0 -26 -18.5 -38.5t-41.5 -12.5q-18 0 -35.5 3.5t-31.5 11.5t-23 21.5t-9 34.5z" />
    <glyph glyph-name="FL00DDh" unicode="&#xdd;" horiz-adv-x="496" 
d="M104 26q2 6 7 23t10.5 35.5t10.5 35.5t7 24l12 25q2 7 6.5 20t4.5 15t-3.5 7.5t-8 11.5t-8 11t-3.5 6l-70 179q-2 1 -5.5 8.5t-7.5 15.5t-7 15t-3 9q-5 15 -11.5 37t-12 43t-9 36t-2.5 16l11 11h117q12 0 21 -17t17.5 -42t16 -54.5t16.5 -54.5t20 -42t26 -17
q6 0 13.5 18.5t15.5 46.5t16 60.5t15 60.5t13 46.5t9 18.5h131q0 -12 -3 -25.5t-7 -26.5t-9 -24.5t-8 -18.5t-12 -30t-21.5 -54t-26 -65.5t-25.5 -65.5t-20.5 -54t-10.5 -30q-5 -11 -15.5 -41.5t-21.5 -65t-20.5 -65.5t-12.5 -42q-6 -23 -22.5 -25t-32.5 -2h-24
q-21 0 -43.5 5t-29.5 22zM250 838q-8 20 4 32.5t35 12.5q15 0 24 -2.5t15 -9t11 -18t13 -29.5q10 -27 -2.5 -49t-34.5 -39.5t-47 -30t-40 -21.5q-4 -3 -12.5 -2t-17.5 2.5t-16.5 3.5t-8.5 2q-4 0 -7.5 5t-3.5 6q0 -2 19 8.5t41 25t38 29t9 19.5q-14 9 -16.5 21t-2.5 34z" />
    <glyph glyph-name="FL00DEh" unicode="&#xde;" horiz-adv-x="407" 
d="M22 44q-4 100 -7.5 212.5t-3.5 221.5v40q0 28 2.5 52.5t8.5 62.5q1 2 15 2.5t31 0.5t31 -0.5t16 -0.5q11 0 11.5 -15.5t0.5 -32.5q0 -14 2 -17.5t13 -3.5q48 0 91 1t75 -7.5t51 -32t19 -71.5q0 -17 -1 -48.5t-4 -66.5t-7 -66t-10 -46l-12 -11q-2 -3 -6 -10t-7.5 -14.5
t-6 -13t-2.5 -6.5q-32 -36 -133 -78q-6 2 -11.5 -2t-10.5 -10t-8 -12t-3 -9v-30q0 -11 -5.5 -17.5t-14.5 -10.5t-19.5 -5t-20.5 -1h-25q-27 0 -35.5 8.5t-13.5 36.5zM183 464q-1 0 -3 -0.5l-2 -0.5q-6 -4 -14 -12t-8 -11v-220q26 0 43.5 12t28 30.5t14.5 41t4 42.5
q0 13 -1.5 33.5t-7.5 39t-19 32t-35 13.5z" />
    <glyph glyph-name="FL00DFh" unicode="&#xdf;" horiz-adv-x="447" 
d="M234 118q10 16 18 33t9 26q2 5 5 16t8 27q5 32 -6.5 56.5t-37.5 54.5q-16 20 -10 61q6 40 28 50t18 64q13 25 -53 48q-50 -36 -52 -101l-7 -43l2 -278q-7 -129 -27 -158q-19 -28 -43 -28q-25 0 -45 7q-22 8 -23 53q-2 32 -3 54.5t-2 33.5t-1.5 23.5t-0.5 25.5v38
q0 51 0.5 112.5t1.5 134.5q3 145 108 204h10q6 0 11 1q22 1 78 -3q28 -2 54 -4t50 -4q37 -10 52 -27q15 -15 28 -63q14 -48 3 -71t-27 -43.5t-51 -50.5q7 -10 12.5 -16.5t9.5 -10.5q5 -4 14 -11.5t22 -19.5q17 -32 22 -54t5 -54q0 -44 -5 -87t-32 -75q-25 -31 -93 -34
q-61 47 -50 113z" />
    <glyph glyph-name="FL00E0h" unicode="&#xe0;" horiz-adv-x="382" 
d="M10 169q0 -81 39.5 -125.5t120.5 -44.5h12q9 0 17.5 0.5t14.5 0.5h8q10 0 27 1.5t33 3.5t27.5 3.5t12.5 2.5l22 21q14 40 11 137q-1 50 -3.5 80t-7.5 41l-44 139q-6 16 -17.5 26.5t-26.5 16.5t-31 8t-31 2q-18 0 -47.5 -3t-57.5 -12t-48 -25.5t-20 -42.5v-18
q0 -14 5.5 -26.5t21.5 -12.5q15 0 28 3.5t25.5 8t26 8.5t28.5 4q18 0 26 -4.5t8 -24.5q0 -12 -13.5 -19t-33.5 -14.5t-43 -16.5t-43 -24t-33.5 -37.5t-13.5 -56.5zM121 138q0 31 19.5 47t49.5 16q12 0 19 -5t10 -13t3.5 -17.5t0.5 -18.5q0 -17 -1 -27t-5.5 -14.5t-14 -5.5
t-26.5 -1q-23 0 -39 6.5t-16 32.5zM176 709q8 20 -4 32.5t-35 12.5q-15 0 -24 -2.5t-15 -9t-11.5 -18t-12.5 -29.5q-10 -27 2.5 -49t34.5 -39.5t47 -30t40 -21.5q4 -3 12.5 -2t17.5 2.5t16 3.5t9 2q4 0 7.5 5t3.5 6q0 -1 -9 3.5t-22.5 12.5t-28.5 18t-27 19.5t-18.5 17.5
t-1.5 11q14 9 16.5 21t2.5 34z" />
    <glyph glyph-name="FL00E1h" unicode="&#xe1;" horiz-adv-x="382" 
d="M10 169q0 -81 39.5 -125.5t120.5 -44.5h12q9 0 17.5 0.5t14.5 0.5h8q10 0 27 1.5t33 3.5t27.5 3.5t12.5 2.5l22 21q14 40 11 137q-1 50 -3.5 80t-7.5 41l-44 139q-6 16 -17.5 26.5t-26.5 16.5t-31 8t-31 2q-18 0 -47.5 -3t-57.5 -12t-48 -25.5t-20 -42.5v-18
q0 -14 5.5 -26.5t21.5 -12.5q15 0 28 3.5t25.5 8t26 8.5t28.5 4q18 0 26 -4.5t8 -24.5q0 -12 -13.5 -19t-33.5 -14.5t-43 -16.5t-43 -24t-33.5 -37.5t-13.5 -56.5zM121 138q0 31 19.5 47t49.5 16q12 0 19 -5t10 -13t3.5 -17.5t0.5 -18.5q0 -17 -1 -27t-5.5 -14.5t-14 -5.5
t-26.5 -1q-23 0 -39 6.5t-16 32.5zM177 724q0 -22 2.5 -34t16.5 -21q7 -5 -9 -19.5t-38 -29t-41 -25.5t-19 -8q0 -1 3.5 -6t7.5 -5q1 0 8.5 -2t16.5 -3.5t17.5 -2.5t12.5 2q15 9 40 21.5t47 30t34.5 39.5t2.5 49q-8 18 -13 29.5t-11 18t-15 9t-24 2.5q-23 0 -35 -12.5
t-4 -32.5z" />
    <glyph glyph-name="FL00E2h" unicode="&#xe2;" horiz-adv-x="382" 
d="M10 169q0 -81 39.5 -125.5t120.5 -44.5h12q9 0 17.5 0.5t14.5 0.5h8q10 0 27 1.5t33 3.5t27.5 3.5t12.5 2.5l22 21q14 40 11 137q-1 50 -3.5 80t-7.5 41l-44 139q-6 16 -17.5 26.5t-26.5 16.5t-31 8t-31 2q-18 0 -47.5 -3t-57.5 -12t-48 -25.5t-20 -42.5v-18
q0 -14 5.5 -26.5t21.5 -12.5q15 0 28 3.5t25.5 8t26 8.5t28.5 4q18 0 26 -4.5t8 -24.5q0 -12 -13.5 -19t-33.5 -14.5t-43 -16.5t-43 -24t-33.5 -37.5t-13.5 -56.5zM121 138q0 31 19.5 47t49.5 16q12 0 19 -5t10 -13t3.5 -17.5t0.5 -18.5q0 -17 -1 -27t-5.5 -14.5t-14 -5.5
t-26.5 -1q-23 0 -39 6.5t-16 32.5zM342 582v3q-15 30 -25.5 54t-20 46t-20 45t-26.5 52q-2 6 -7 8h-16h-16q-45 0 -71.5 -21t-44.5 -52t-32 -67t-35 -65q5 -8 16.5 -11.5t22.5 -3.5h13q25 0 39.5 13.5t24.5 29t19.5 29t25.5 13.5q1 0 2.5 -0.5l1.5 -0.5q10 -17 18 -25.5
t15 -16.5t14 -18.5t16 -30.5h28q17 0 30.5 1t27.5 15v3z" />
    <glyph glyph-name="FL00E3h" unicode="&#xe3;" horiz-adv-x="382" 
d="M10 169q0 -81 39.5 -125.5t120.5 -44.5h12q9 0 17.5 0.5t14.5 0.5h8q10 0 27 1.5t33 3.5t27.5 3.5t12.5 2.5l22 21q14 40 11 137q-1 50 -3.5 80t-7.5 41l-44 139q-6 16 -17.5 26.5t-26.5 16.5t-31 8t-31 2q-18 0 -47.5 -3t-57.5 -12t-48 -25.5t-20 -42.5v-18
q0 -14 5.5 -26.5t21.5 -12.5q15 0 28 3.5t25.5 8t26 8.5t28.5 4q18 0 26 -4.5t8 -24.5q0 -12 -13.5 -19t-33.5 -14.5t-43 -16.5t-43 -24t-33.5 -37.5t-13.5 -56.5zM121 138q0 31 19.5 47t49.5 16q12 0 19 -5t10 -13t3.5 -17.5t0.5 -18.5q0 -17 -1 -27t-5.5 -14.5t-14 -5.5
t-26.5 -1q-23 0 -39 6.5t-16 32.5zM325 766q-11 -50 -51 -50q-21 0 -73 24q-27 13 -53 24t-36 11q-64 0 -98 -57q-3 -5 -6 -14t-5.5 -18.5t-5 -19.5t-4.5 -17q-2 -6 -12 -53h70q9 52 50 52q61 -24 108 -41.5t67 -17.5q48 0 78 49t40 128h-69z" />
    <glyph glyph-name="FL00E4h" unicode="&#xe4;" horiz-adv-x="382" 
d="M10 169q0 -81 39.5 -125.5t120.5 -44.5h12q9 0 17.5 0.5t14.5 0.5h8q10 0 27 1.5t33 3.5t27.5 3.5t12.5 2.5l22 21q14 40 11 137q-1 50 -3.5 80t-7.5 41l-44 139q-6 16 -17.5 26.5t-26.5 16.5t-31 8t-31 2q-18 0 -47.5 -3t-57.5 -12t-48 -25.5t-20 -42.5v-18
q0 -14 5.5 -26.5t21.5 -12.5q15 0 28 3.5t25.5 8t26 8.5t28.5 4q18 0 26 -4.5t8 -24.5q0 -12 -13.5 -19t-33.5 -14.5t-43 -16.5t-43 -24t-33.5 -37.5t-13.5 -56.5zM121 138q0 31 19.5 47t49.5 16q12 0 19 -5t10 -13t3.5 -17.5t0.5 -18.5q0 -17 -1 -27t-5.5 -14.5t-14 -5.5
t-26.5 -1q-23 0 -39 6.5t-16 32.5zM11 655q0 -21 9 -34.5t23 -21.5t31.5 -11.5t35.5 -3.5q23 0 41.5 12.5t18.5 38.5q0 2 -0.5 8t-1.5 9q-14 15 -26 24.5t-24 14t-25.5 6t-30.5 1.5h-8q-8 0 -17 -1t-14 -1q-6 -1 -9 -7t-3.5 -13t0 -13.5t0.5 -7.5zM224 654q0 -21 9 -34.5
t23 -21.5t31.5 -11.5t35.5 -3.5q23 0 41.5 12.5t18.5 38.5q0 2 -0.5 8t-1.5 9q-14 15 -26 24.5t-24 14t-25.5 6t-30.5 1.5h-8q-8 0 -17 -1t-14 -1q-6 -1 -9 -7t-3.5 -13t0 -13.5t0.5 -7.5z" />
    <glyph glyph-name="FL00E5h" unicode="&#xe5;" horiz-adv-x="382" 
d="M10 169q0 -81 39.5 -125.5t120.5 -44.5h12q9 0 17.5 0.5t14.5 0.5h8q10 0 27 1.5t33 3.5t27.5 3.5t12.5 2.5l22 21q14 40 11 137q-1 50 -3.5 80t-7.5 41l-44 139q-6 16 -17.5 26.5t-26.5 16.5t-31 8t-31 2q-18 0 -47.5 -3t-57.5 -12t-48 -25.5t-20 -42.5v-18
q0 -14 5.5 -26.5t21.5 -12.5q15 0 28 3.5t25.5 8t26 8.5t28.5 4q18 0 26 -4.5t8 -24.5q0 -12 -13.5 -19t-33.5 -14.5t-43 -16.5t-43 -24t-33.5 -37.5t-13.5 -56.5zM121 138q0 31 19.5 47t49.5 16q12 0 19 -5t10 -13t3.5 -17.5t0.5 -18.5q0 -17 -1 -27t-5.5 -14.5t-14 -5.5
t-26.5 -1q-23 0 -39 6.5t-16 32.5zM270 694q0 16 -5 32.5t-14.5 30.5t-23 23t-31.5 9q-23 0 -41 -9.5t-30.5 -25t-19.5 -35t-7 -40.5q0 -18 5 -35.5t15.5 -31t25 -21.5t34.5 -8t37 10t29 26t19 36t7 39zM224 692q0 -7 -2.5 -17.5t-7 -20t-11.5 -16.5t-16 -7q-10 0 -16.5 5
t-10.5 12.5t-5.5 16t-1.5 15.5q0 8 1.5 18.5t5.5 20t11.5 16t18.5 6.5q20 0 27 -16.5t7 -32.5z" />
    <glyph glyph-name="FL00E6h" unicode="&#xe6;" horiz-adv-x="688" 
d="M10 169q0 -81 39.5 -125.5t120.5 -44.5h12q9 0 17.5 0.5t14.5 0.5h8q10 0 27 1.5t33 3.5t27.5 3.5t12.5 2.5l10 10q47 -18 104.5 -20.5t111.5 -2.5v82l-11 11q-5 0 -19.5 1.5t-31 3.5t-30.5 3.5t-19 2.5q-6 1 -15.5 3.5t-19 7.5t-16 12t-6.5 16q0 1 1 3l1 2q2 4 6 10.5
t5 6.5h260q0 58 -5.5 117t-27.5 105.5t-65 76t-118 29.5q-47 0 -80 -18.5t-56 -48.5l-1 5q-6 16 -17.5 26.5t-26.5 16.5t-31 8t-31 2q-18 0 -47.5 -3t-57.5 -12t-48 -25.5t-20 -42.5v-18q0 -14 5.5 -26.5t21.5 -12.5q15 0 28 3.5t25.5 8t26 8.5t28.5 4q18 0 26 -4.5t8 -24.5
q0 -12 -13.5 -19t-33.5 -14.5t-43 -16.5t-43 -24t-33.5 -37.5t-13.5 -56.5zM380 295q0 43 23 59.5t62 16.5q2 0 7.5 -0.5t11.5 -0.5t11.5 -0.5t8.5 -0.5q14 -6 18.5 -22t4.5 -33v-19q0 -4 -1 -15t-11 -11h-122q-10 0 -11.5 11t-1.5 15zM121 138q0 31 19.5 47t49.5 16
q12 0 19 -5t10 -13t3.5 -17.5t0.5 -18.5q0 -17 -1 -27t-5.5 -14.5t-14 -5.5t-26.5 -1q-23 0 -39 6.5t-16 32.5z" />
    <glyph glyph-name="FL00E7h" unicode="&#xe7;" horiz-adv-x="478" 
d="M94 -144q0 -1 -0.5 -5t-0.5 -9q0 -8 2.5 -16.5t10.5 -10.5q2 0 11.5 -2t20.5 -4.5t21 -4.5t14 -2h8q17 0 30.5 1.5t25.5 6t24 14t26 24.5q1 3 1.5 9t0.5 8q2 5 3 11t1 12q0 16 2.5 30.5t-10.5 34.5q-7 11 -10.5 23.5t-5.5 23.5q46 1 82 18q45 19 103 88l-138 36
q-45 -21 -72 -21q-28 0 -47.5 10.5t-31.5 28.5t-17.5 41t-5.5 49t6 49.5t19 41t33.5 28t49.5 10.5q27 0 48.5 -10.5t51.5 -46.5l102 72q-64 63 -110 79q-48 17 -98 17q-53 0 -96.5 -18t-74 -49.5t-47 -76t-16.5 -96.5q0 -178 168 -250h10q2 -12 7 -31t18 -52
q-11 -3 -30.5 -4.5t-39.5 -6.5t-34.5 -16.5t-14.5 -33.5z" />
    <glyph glyph-name="FL00E8h" unicode="&#xe8;" horiz-adv-x="456" 
d="M11 171q0 -68 29.5 -104t75 -51.5t100.5 -17.5t106 -2v82l-11 11q-5 0 -19.5 1.5t-31 3.5t-31 3.5t-18.5 2.5q-6 1 -15.5 4t-19 7.5t-16 11.5t-6.5 16q0 1 1 3l1 2q2 4 6 10.5t5 6.5h260q0 58 -5.5 117t-27.5 105.5t-65 76t-118 29.5q-62 0 -101 -31.5t-61 -79.5
t-30 -103.5t-8 -103.5zM154 293q0 43 23 59.5t62 16.5q2 0 7.5 -0.5t11.5 -0.5t11.5 -0.5t8.5 -0.5q14 -6 18.5 -22t4.5 -33v-19q0 -4 -1 -15t-11 -11h-122q-10 0 -11.5 11t-1.5 15zM219 712q8 20 -4 32.5t-35 12.5q-15 0 -24 -2.5t-15 -9t-11.5 -18t-12.5 -29.5
q-10 -27 2.5 -49t34.5 -39.5t47 -30t40 -21.5q4 -3 12.5 -2t17.5 2.5t16 3.5t9 2q4 0 7.5 5t3.5 6q0 -1 -9 3.5t-22.5 12.5t-28.5 18t-27 19.5t-18.5 17t-1.5 11.5q14 9 16.5 21t2.5 34z" />
    <glyph glyph-name="FL00E9h" unicode="&#xe9;" horiz-adv-x="456" 
d="M11 171q0 -68 29.5 -104t75 -51.5t100.5 -17.5t106 -2v82l-11 11q-5 0 -19.5 1.5t-31 3.5t-31 3.5t-18.5 2.5q-6 1 -15.5 4t-19 7.5t-16 11.5t-6.5 16q0 1 1 3l1 2q2 4 6 10.5t5 6.5h260q0 58 -5.5 117t-27.5 105.5t-65 76t-118 29.5q-62 0 -101 -31.5t-61 -79.5
t-30 -103.5t-8 -103.5zM154 293q0 43 23 59.5t62 16.5q2 0 7.5 -0.5t11.5 -0.5t11.5 -0.5t8.5 -0.5q14 -6 18.5 -22t4.5 -33v-19q0 -4 -1 -15t-11 -11h-122q-10 0 -11.5 11t-1.5 15zM243 705q0 -22 2.5 -34t16.5 -21q7 -5 -9 -19.5t-38 -29t-41 -25.5t-19 -8q0 -1 3.5 -6
t7.5 -5q1 0 8.5 -2t16.5 -3.5t17.5 -2.5t12.5 2q15 9 40 21.5t47 30t34.5 39.5t2.5 49q-8 18 -13 29.5t-11 18t-15 9t-24 2.5q-23 0 -35 -12.5t-4 -32.5z" />
    <glyph glyph-name="FL00EAh" unicode="&#xea;" horiz-adv-x="456" 
d="M11 171q0 -68 29.5 -104t75 -51.5t100.5 -17.5t106 -2v82l-11 11q-5 0 -19.5 1.5t-31 3.5t-31 3.5t-18.5 2.5q-6 1 -15.5 4t-19 7.5t-16 11.5t-6.5 16q0 1 1 3l1 2q2 4 6 10.5t5 6.5h260q0 58 -5.5 117t-27.5 105.5t-65 76t-118 29.5q-62 0 -101 -31.5t-61 -79.5
t-30 -103.5t-8 -103.5zM154 293q0 43 23 59.5t62 16.5q2 0 7.5 -0.5t11.5 -0.5t11.5 -0.5t8.5 -0.5q14 -6 18.5 -22t4.5 -33v-19q0 -4 -1 -15t-11 -11h-122q-10 0 -11.5 11t-1.5 15zM375 559v3q-15 30 -25.5 54t-20 46t-20 45t-26.5 52q-2 6 -7 8h-16h-16q-45 0 -71.5 -21
t-44.5 -52t-32 -67t-35 -65q5 -8 16.5 -11.5t22.5 -3.5h13q25 0 39.5 13.5t24.5 29t19.5 29t25.5 13.5q1 0 2.5 -0.5l1.5 -0.5q10 -17 18 -25.5t15 -16.5t14 -18.5t16 -30.5h28q17 0 30.5 1t27.5 15v3z" />
    <glyph glyph-name="FL00EBh" unicode="&#xeb;" horiz-adv-x="456" 
d="M11 171q0 -68 29.5 -104t75 -51.5t100.5 -17.5t106 -2v82l-11 11q-5 0 -19.5 1.5t-31 3.5t-31 3.5t-18.5 2.5q-6 1 -15.5 4t-19 7.5t-16 11.5t-6.5 16q0 1 1 3l1 2q2 4 6 10.5t5 6.5h260q0 58 -5.5 117t-27.5 105.5t-65 76t-118 29.5q-62 0 -101 -31.5t-61 -79.5
t-30 -103.5t-8 -103.5zM154 293q0 43 23 59.5t62 16.5q2 0 7.5 -0.5t11.5 -0.5t11.5 -0.5t8.5 -0.5q14 -6 18.5 -22t4.5 -33v-19q0 -4 -1 -15t-11 -11h-122q-10 0 -11.5 11t-1.5 15zM21 648q0 -21 9 -34.5t23 -21.5t31.5 -11.5t35.5 -3.5q23 0 41.5 12.5t18.5 38.5
q0 2 -0.5 8t-1.5 9q-14 15 -26 24.5t-24 14t-25.5 6t-30.5 1.5h-8q-8 0 -17 -1t-14 -1q-6 -1 -9 -7t-3.5 -13t0 -13.5t0.5 -7.5zM257 648q0 -21 9 -34.5t23 -21.5t31.5 -11.5t35.5 -3.5q23 0 41.5 12.5t18.5 38.5q0 2 -0.5 8t-1.5 9q-14 15 -26 24.5t-24 14t-25.5 6
t-30.5 1.5h-8q-8 0 -17 -1t-14 -1q-6 -1 -9 -7t-3.5 -13t0 -13.5t0.5 -7.5z" />
    <glyph glyph-name="FL00ECh" unicode="&#xec;" horiz-adv-x="212" 
d="M40 427l2 -360q0 -3 1.5 -10.5t3 -16.5t3.5 -17.5t3 -11.5q2 -2 5.5 -6.5t6.5 -4.5h114q0 57 -6 107t-8 104q-2 23 -4 59t-3.5 69.5t-3 58l-1.5 24.5l-6 9zM103 707q8 20 -4 32.5t-35 12.5q-15 0 -24 -2.5t-15 -9t-11.5 -18t-12.5 -29.5q-10 -27 2.5 -49t34.5 -39.5
t47 -30t40 -21.5q4 -3 12.5 -2t17.5 2.5t16 3.5t9 2q4 0 7.5 5t3.5 6q0 -1 -9 3.5t-22.5 12.5t-28.5 18t-27 19.5t-18 17t-2 11.5q14 9 16.5 21t2.5 34z" />
    <glyph glyph-name="FL00EDh" unicode="&#xed;" horiz-adv-x="212" 
d="M40 427l2 -360q0 -3 1.5 -10.5t3 -16.5t3.5 -17.5t3 -11.5q2 -2 5.5 -6.5t6.5 -4.5h114q0 57 -6 107t-8 104q-2 23 -4 59t-3.5 69.5t-3 58l-1.5 24.5l-6 9zM102 716q0 -22 2.5 -34t16.5 -21q7 -5 -9 -19.5t-38 -29t-41 -25.5t-19 -8q0 -1 3.5 -6t7.5 -5q1 0 8.5 -2
t16.5 -3.5t17.5 -2.5t12.5 2q15 9 40 21.5t47 30t34.5 39.5t2.5 49q-8 18 -13 29.5t-11 18t-15 9t-24 2.5q-23 0 -35 -12.5t-4 -32.5z" />
    <glyph glyph-name="FL00EEh" unicode="&#xee;" horiz-adv-x="260" 
d="M67 427l2 -360q0 -3 1.5 -10.5t3 -16.5t3.5 -17.5t3 -11.5q2 -2 5.5 -6.5t6.5 -4.5h114q0 57 -6 107t-8 104q-2 23 -4 59t-3.5 69.5t-3 58l-1.5 24.5l-6 9zM281 555v3q-15 30 -25.5 54t-20 46t-20 45t-26.5 52q-2 6 -7 8h-16h-16q-45 0 -71.5 -21t-44.5 -52t-32 -67
t-35 -65q5 -8 16.5 -11.5t22.5 -3.5h13q25 0 39.5 13.5t24.5 29t19.5 29t25.5 13.5q1 0 2.5 -0.5l1.5 -0.5q10 -17 18 -25.5t15 -16.5t14 -18.5t16 -30.5h28q17 0 30.5 1t27.5 15v3z" />
    <glyph glyph-name="FL00EFh" unicode="&#xef;" horiz-adv-x="285" 
d="M72 427l2 -360q0 -3 1.5 -10.5t3 -16.5t3.5 -17.5t3 -11.5q2 -2 5.5 -6.5t6.5 -4.5h114q0 57 -6 107t-8 104q-2 23 -4 59t-3.5 69.5t-3 58l-1.5 24.5l-6 9zM-54 629q0 -21 9 -34.5t23 -21.5t31.5 -11.5t35.5 -3.5q23 0 41.5 12.5t18.5 38.5q0 2 -0.5 8t-1.5 9
q-14 15 -26 24.5t-24 14t-25.5 6t-30.5 1.5h-8q-8 0 -17 -1t-14 -1q-6 -1 -9 -7t-3.5 -13t0 -13.5t0.5 -7.5zM160 629q0 -21 9 -34.5t23 -21.5t31.5 -11.5t35.5 -3.5q23 0 41.5 12.5t18.5 38.5q0 2 -0.5 8t-1.5 9q-14 15 -26 24.5t-24 14t-25.5 6t-30.5 1.5h-8q-8 0 -17 -1
t-14 -1q-6 -1 -9 -7t-3.5 -13t0 -13.5t0.5 -7.5z" />
    <glyph glyph-name="FL00F0h" unicode="&#xf0;" horiz-adv-x="491" 
d="M36 550q1 13 20.5 25t47.5 21.5t60 15.5t59 6q20 0 35 -4t20 -12h4q21 0 38.5 7.5t33.5 16t31 16t29 7.5q6 0 13 -5q7 -6 7 -15q0 -14 -9.5 -25.5t-20.5 -21.5t-20.5 -20t-9.5 -22v-2q4 -23 18.5 -54.5t30.5 -64t28.5 -61.5t12.5 -45v-32q0 -52 -3 -113q-2 -35 -7 -58
t-15.5 -39.5t-27.5 -29t-44 -26.5q-36 -8 -71 -12t-47 -4q-23 0 -59 2.5t-85 7.5q-98 10 -102 60q-2 12 -2 25v27v28q0 15 2 31q-1 6 -1 11v11q0 53 20.5 87t51.5 55.5t67 34.5t67 23t51.5 21.5t20.5 30.5q0 7 -9 7q-10 0 -25 -7.5t-29.5 -16.5t-26.5 -16.5t-16 -7.5l-7 5
t-14.5 10.5t-13 9t-4.5 0.5l68 52q3 2 3.5 4.5t0.5 4.5q0 3 -5 3q-7 0 -22 -5t-32 -11.5t-34.5 -11.5t-29.5 -5q-9 0 -17.5 11t-15 25t-11 27t-4.5 18zM331 269q-2 15 -3.5 21t-6.5 6q-3 0 -7 -2l-10 -5l-3 -1q-19 -7 -35.5 -13.5t-31.5 -12.5q-29 -12 -52 -27
q-22 -15 -28 -96q10 3 29 3h13l98 21q28 10 30 19q1 5 1.5 12t0.5 17t1.5 24.5t3.5 33.5z" />
    <glyph glyph-name="FL00F1h" unicode="&#xf1;" horiz-adv-x="456" 
d="M11 0h122v289q0 13 7 20.5t16.5 10.5t19.5 3.5t17 0.5q28 0 46 -12.5t28.5 -32t15 -43.5t6.5 -47q1 -11 3 -38t3.5 -57t3 -57t1.5 -37h127q0 36 1 84t-2 98.5t-13 100t-31.5 88t-58.5 62.5t-93 24q-9 0 -28.5 -1t-44 -2.5t-50.5 -3.5t-47 -5t-35 -6t-14 -6v-433zM340 747
q-11 -50 -51 -50q-21 0 -73 24q-27 13 -53 24t-36 11q-64 0 -98 -57q-3 -5 -6 -14t-5.5 -18.5t-5 -19.5t-4.5 -17q-2 -6 -12 -53h70q9 52 50 52q61 -24 108 -41.5t67 -17.5q48 0 78 49t40 128h-69z" />
    <glyph glyph-name="FL00F2h" unicode="&#xf2;" horiz-adv-x="522" 
d="M10 256q0 -55 19 -101.5t52.5 -81t79.5 -54t100 -19.5q58 0 101.5 20t71.5 54.5t42 81t14 100.5v15q0 11 -0.5 26t-0.5 36q-14 45 -27.5 75.5t-32.5 50t-46.5 30.5t-69.5 17l-82 5q-15 1 -26 -1t-38 -10q-79 -32 -118 -98t-39 -146zM143 268q0 22 8 44t22 39.5t33.5 28
t43.5 10.5t44 -11.5t34.5 -30t22 -41.5t7.5 -46q0 -20 -6.5 -42.5t-19.5 -42t-32 -32t-43 -12.5q-32 0 -53.5 11t-35 29.5t-19.5 43t-6 52.5zM262 707q8 20 -4 32.5t-35 12.5q-15 0 -24 -2.5t-15 -9t-11.5 -18t-12.5 -29.5q-10 -27 2.5 -49t34.5 -39.5t47 -30t40 -21.5
q4 -3 12.5 -2t17.5 2.5t16 3.5t9 2q4 0 7.5 5t3.5 6q0 -1 -9 3.5t-22.5 12.5t-28.5 18t-27 19.5t-18.5 17t-1.5 11.5q14 9 16.5 21t2.5 34z" />
    <glyph glyph-name="FL00F3h" unicode="&#xf3;" horiz-adv-x="522" 
d="M10 256q0 -55 19 -101.5t52.5 -81t79.5 -54t100 -19.5q58 0 101.5 20t71.5 54.5t42 81t14 100.5v15q0 11 -0.5 26t-0.5 36q-14 45 -27.5 75.5t-32.5 50t-46.5 30.5t-69.5 17l-82 5q-15 1 -26 -1t-38 -10q-79 -32 -118 -98t-39 -146zM143 268q0 22 8 44t22 39.5t33.5 28
t43.5 10.5t44 -11.5t34.5 -30t22 -41.5t7.5 -46q0 -20 -6.5 -42.5t-19.5 -42t-32 -32t-43 -12.5q-32 0 -53.5 11t-35 29.5t-19.5 43t-6 52.5zM270 715q0 -22 2.5 -34t16.5 -21q7 -5 -9 -19.5t-38 -29t-41 -25.5t-19 -8q0 -1 3.5 -6t7.5 -5q1 0 8.5 -2t16.5 -3.5t17.5 -2.5
t12.5 2q15 9 40 21.5t47 30t34.5 39.5t2.5 49q-8 18 -13 29.5t-11 18t-15 9t-24 2.5q-23 0 -35 -12.5t-4 -32.5z" />
    <glyph glyph-name="FL00F4h" unicode="&#xf4;" horiz-adv-x="522" 
d="M10 256q0 -55 19 -101.5t52.5 -81t79.5 -54t100 -19.5q58 0 101.5 20t71.5 54.5t42 81t14 100.5v15q0 11 -0.5 26t-0.5 36q-14 45 -27.5 75.5t-32.5 50t-46.5 30.5t-69.5 17l-82 5q-15 1 -26 -1t-38 -10q-79 -32 -118 -98t-39 -146zM143 268q0 22 8 44t22 39.5t33.5 28
t43.5 10.5t44 -11.5t34.5 -30t22 -41.5t7.5 -46q0 -20 -6.5 -42.5t-19.5 -42t-32 -32t-43 -12.5q-32 0 -53.5 11t-35 29.5t-19.5 43t-6 52.5zM408 601v3q-15 30 -25.5 54t-20 46t-20 45t-26.5 52q-2 6 -7 8h-16h-16q-45 0 -71.5 -21t-44.5 -52t-32 -67t-35 -65
q5 -8 16.5 -11.5t22.5 -3.5h13q25 0 39.5 13.5t24.5 29t19.5 29t25.5 13.5q1 0 2.5 -0.5l1.5 -0.5q10 -17 18 -25.5t15 -16.5t14 -18.5t16 -30.5h28q17 0 30.5 1t27.5 15v3z" />
    <glyph glyph-name="FL00F5h" unicode="&#xf5;" horiz-adv-x="522" 
d="M10 256q0 -55 19 -101.5t52.5 -81t79.5 -54t100 -19.5q58 0 101.5 20t71.5 54.5t42 81t14 100.5v15q0 11 -0.5 26t-0.5 36q-14 45 -27.5 75.5t-32.5 50t-46.5 30.5t-69.5 17l-82 5q-15 1 -26 -1t-38 -10q-79 -32 -118 -98t-39 -146zM143 268q0 22 8 44t22 39.5t33.5 28
t43.5 10.5t44 -11.5t34.5 -30t22 -41.5t7.5 -46q0 -20 -6.5 -42.5t-19.5 -42t-32 -32t-43 -12.5q-32 0 -53.5 11t-35 29.5t-19.5 43t-6 52.5zM387 787q-11 -50 -51 -50q-21 0 -73 24q-27 13 -53 24t-36 11q-64 0 -98 -57q-3 -5 -6 -14t-5.5 -18.5t-5 -19.5t-4.5 -17
q-2 -6 -12 -53h70q9 52 50 52q61 -24 108 -41.5t67 -17.5q48 0 78 49t40 128h-69z" />
    <glyph glyph-name="FL00F6h" unicode="&#xf6;" horiz-adv-x="522" 
d="M10 256q0 -55 19 -101.5t52.5 -81t79.5 -54t100 -19.5q58 0 101.5 20t71.5 54.5t42 81t14 100.5v15q0 11 -0.5 26t-0.5 36q-14 45 -27.5 75.5t-32.5 50t-46.5 30.5t-69.5 17l-82 5q-15 1 -26 -1t-38 -10q-79 -32 -118 -98t-39 -146zM143 268q0 22 8 44t22 39.5t33.5 28
t43.5 10.5t44 -11.5t34.5 -30t22 -41.5t7.5 -46q0 -20 -6.5 -42.5t-19.5 -42t-32 -32t-43 -12.5q-32 0 -53.5 11t-35 29.5t-19.5 43t-6 52.5zM50 655q0 -21 9 -34.5t23 -21.5t31.5 -11.5t35.5 -3.5q23 0 41.5 12.5t18.5 38.5q0 2 -0.5 8t-1.5 9q-14 15 -26 24.5t-24 14
t-25.5 6t-30.5 1.5h-8q-8 0 -17 -1t-14 -1q-6 -1 -9 -7t-3.5 -13t0 -13.5t0.5 -7.5zM286 655q0 -21 9 -34.5t23 -21.5t31.5 -11.5t35.5 -3.5q23 0 41.5 12.5t18.5 38.5q0 2 -0.5 8t-1.5 9q-14 15 -26 24.5t-24 14t-25.5 6t-30.5 1.5h-8q-8 0 -17 -1t-14 -1q-6 -1 -9 -7
t-3.5 -13t0 -13.5t0.5 -7.5z" />
    <glyph glyph-name="FL00F7h" unicode="&#xf7;" horiz-adv-x="524" 
d="M13 243q0 5 0.5 13t0.5 16q0 9 1 15.5t1 8.5q1 5 4.5 13.5t6.5 8.5h460v-122h-460l-11 11q0 1 -0.5 5.5t-1 10.5t-1 11.5t-0.5 8.5zM171 458q0 1 -0.5 7.5t0 13.5t3.5 13t9 7q3 0 8.5 0.5t11.5 1t11 0.5h8q16 0 30 -1.5t26 -6t24 -14t26 -24.5q1 -3 1.5 -9t0.5 -8
q0 -26 -18.5 -38.5t-41.5 -12.5q-18 0 -35.5 3.5t-31.5 11.5t-23 21.5t-9 34.5zM186 85q0 1 -0.5 7.5t0 13.5t3.5 13t9 7q3 0 8.5 0.5t11.5 1t11 0.5h8q16 0 30 -1.5t26 -6t24 -14t26 -24.5q1 -3 1.5 -9t0.5 -8q0 -26 -18.5 -38.5t-41.5 -12.5q-18 0 -35.5 3.5t-31.5 11.5
t-23 21.5t-9 34.5z" />
    <glyph glyph-name="FL00F8h" unicode="&#xf8;" horiz-adv-x="522" 
d="M478 548h-100l-14 -2q-4 -10 -23 -45q-7 2 -13.5 2.5t-14.5 2.5l-82 5q-15 1 -26 -1t-38 -10q-79 -32 -118 -98t-39 -146q0 -50 15 -92t43 -76q-7 -8 -13 -16.5t-13 -16.5q0 -18 -4.5 -31t-4.5 -30v-24q21 -15 53.5 -21t57.5 -6q4 4 9.5 7.5t10 6.5t7 6t0.5 5
q-3 3 -4.5 15t3.5 33q21 -8 43.5 -12t47.5 -4q58 0 101.5 20t71.5 54.5t42 81t14 100.5v15q0 11 -0.5 26t-0.5 36q-11 36 -22 63t-25 46q14 15 28 30.5t30 31.5q0 2 -4.5 14.5t-6.5 18.5q-1 2 -5.5 6.5t-5.5 4.5zM342 326q16 -32 16 -65q0 -20 -6.5 -42.5t-19.5 -42t-32 -32
t-43 -12.5t-40 6q20 38 50 84.5t75 103.5zM143 268q0 22 8 44t22 39.5t33.5 28t43.5 10.5q6 0 12.5 -1t11.5 -3q-23 -38 -53 -83.5t-68 -99.5q-10 29 -10 65z" />
    <glyph glyph-name="FL00F9h" unicode="&#xf9;" horiz-adv-x="462" 
d="M2 456h109l11 -12q0 -9 1.5 -31t3 -46.5t3.5 -46.5t3 -31q1 -17 5.5 -43.5t14 -51.5t26.5 -43t43 -18q8 0 21.5 1.5t26 3t21.5 3.5t9 3l11 23q-1 9 -2.5 29t-4 45t-4.5 53t-4.5 53t-4 45t-2.5 30q0 2 -0.5 11.5t-0.5 14.5v11q0 11 4.5 20.5t18.5 9.5h89l11 -11
q2 -2 5.5 -21.5t7 -46.5t6.5 -54.5t3 -44.5v-18q0 -15 0.5 -35.5t0.5 -41.5v-33v-25q0 -18 -0.5 -38.5t-0.5 -39.5v-24q-7 -10 -21.5 -19.5t-22.5 -14.5q-52 -9 -94 -16t-89 -7q-67 0 -107 36t-61.5 91t-28.5 120t-7 124v86zM216 750q0 -22 -2.5 -34t-16.5 -21
q-5 -4 1.5 -11.5t18.5 -17t27 -19.5t28.5 -18t22.5 -12.5t9 -3.5q0 -1 -3.5 -6t-7.5 -5q-2 0 -9 -2t-16 -3.5t-17.5 -2.5t-12.5 2q-15 9 -40 21.5t-47 30t-34.5 39.5t-2.5 49q7 18 12.5 29.5t11.5 18t15 9t24 2.5q23 0 35 -12.5t4 -32.5z" />
    <glyph glyph-name="FL00FAh" unicode="&#xfa;" horiz-adv-x="462" 
d="M2 456h109l11 -12q0 -9 1.5 -31t3 -46.5t3.5 -46.5t3 -31q1 -17 5.5 -43.5t14 -51.5t26.5 -43t43 -18q8 0 21.5 1.5t26 3t21.5 3.5t9 3l11 23q-1 9 -2.5 29t-4 45t-4.5 53t-4.5 53t-4 45t-2.5 30q0 2 -0.5 11.5t-0.5 14.5v11q0 11 4.5 20.5t18.5 9.5h89l11 -11
q2 -2 5.5 -21.5t7 -46.5t6.5 -54.5t3 -44.5v-18q0 -15 0.5 -35.5t0.5 -41.5v-33v-25q0 -18 -0.5 -38.5t-0.5 -39.5v-24q-7 -10 -21.5 -19.5t-22.5 -14.5q-52 -9 -94 -16t-89 -7q-67 0 -107 36t-61.5 91t-28.5 120t-7 124v86zM224 750q-8 20 4 32.5t35 12.5q15 0 24 -2.5
t15 -9t11 -18t13 -29.5q10 -27 -2.5 -49t-34.5 -39.5t-47 -30t-40 -21.5q-4 -3 -12.5 -2t-17.5 2.5t-16.5 3.5t-8.5 2q-4 0 -7.5 5t-3.5 6q0 -2 19 8.5t41 25t38 29t9 19.5q-14 9 -16.5 21t-2.5 34z" />
    <glyph glyph-name="FL00FBh" unicode="&#xfb;" horiz-adv-x="462" 
d="M2 456h109l11 -12q0 -9 1.5 -31t3 -46.5t3.5 -46.5t3 -31q1 -17 5.5 -43.5t14 -51.5t26.5 -43t43 -18q8 0 21.5 1.5t26 3t21.5 3.5t9 3l11 23q-1 9 -2.5 29t-4 45t-4.5 53t-4.5 53t-4 45t-2.5 30q0 2 -0.5 11.5t-0.5 14.5v11q0 11 4.5 20.5t18.5 9.5h89l11 -11
q2 -2 5.5 -21.5t7 -46.5t6.5 -54.5t3 -44.5v-18q0 -15 0.5 -35.5t0.5 -41.5v-33v-25q0 -18 -0.5 -38.5t-0.5 -39.5v-24q-7 -10 -21.5 -19.5t-22.5 -14.5q-52 -9 -94 -16t-89 -7q-67 0 -107 36t-61.5 91t-28.5 120t-7 124v86zM379 617v-3q-14 -14 -27.5 -15t-30.5 -1h-28
q-9 20 -16 30.5t-14 18.5t-15 16.5t-18 25.5l-1.5 0.5t-2.5 0.5q-16 0 -25.5 -13.5t-19.5 -29t-24.5 -29t-39.5 -13.5h-13q-11 0 -22.5 3.5t-16.5 11.5q21 29 35.5 64.5t32 67t43.5 52.5t72 21h16h16q2 -1 4 -3.5t3 -4.5q16 -29 26.5 -52t20 -45t20 -46t25.5 -54v-3z" />
    <glyph glyph-name="FL00FCh" unicode="&#xfc;" horiz-adv-x="462" 
d="M2 456h109l11 -12q0 -9 1.5 -31t3 -46.5t3.5 -46.5t3 -31q1 -17 5.5 -43.5t14 -51.5t26.5 -43t43 -18q8 0 21.5 1.5t26 3t21.5 3.5t9 3l11 23q-1 9 -2.5 29t-4 45t-4.5 53t-4.5 53t-4 45t-2.5 30q0 2 -0.5 11.5t-0.5 14.5v11q0 11 4.5 20.5t18.5 9.5h89l11 -11
q2 -2 5.5 -21.5t7 -46.5t6.5 -54.5t3 -44.5v-18q0 -15 0.5 -35.5t0.5 -41.5v-33v-25q0 -18 -0.5 -38.5t-0.5 -39.5v-24q-7 -10 -21.5 -19.5t-22.5 -14.5q-52 -9 -94 -16t-89 -7q-67 0 -107 36t-61.5 91t-28.5 120t-7 124v86zM21 675q0 1 -0.5 7.5t0 13.5t3.5 13t9 7
q3 0 8.5 0.5t11.5 1t11 0.5h8q16 0 30 -1.5t26 -6t24 -14t26 -24.5q1 -3 1.5 -9t0.5 -8q0 -26 -18.5 -38.5t-41.5 -12.5q-18 0 -35.5 3.5t-31.5 11.5t-23 21.5t-9 34.5zM257 675q0 1 -0.5 7.5t0 13.5t3.5 13t9 7q3 0 8.5 0.5t11.5 1t11 0.5h8q16 0 30 -1.5t26 -6t24 -14
t26 -24.5q1 -3 1.5 -9t0.5 -8q0 -26 -18.5 -38.5t-41.5 -12.5q-18 0 -35.5 3.5t-31.5 11.5t-23 21.5t-9 34.5z" />
    <glyph glyph-name="FL00FDh" unicode="&#xfd;" horiz-adv-x="473" 
d="M100 -111q1 7 5.5 22.5t10 33t10.5 33t7 22.5l11 22q3 7 7.5 19.5t4.5 14.5q0 1 -3.5 6t-8 10.5t-8 10.5t-3.5 6l-66 167q-1 1 -4.5 7.5t-7.5 14t-7.5 14.5t-3.5 8q-4 13 -10 33.5t-11.5 40t-9 33.5t-2.5 15l11 11h111q11 0 20 -15.5t16.5 -39t15 -51t16 -51t19 -39
t24.5 -15.5q6 0 13 17.5t15 43.5t16 56t14.5 56t12 43.5t7.5 17.5h125q0 -22 -9.5 -49t-15.5 -40q-3 -7 -12 -28.5t-20.5 -50t-24.5 -60.5t-24.5 -60.5t-19.5 -50t-10 -28.5q-4 -11 -13.5 -39.5t-20 -60.5t-20 -60.5t-13.5 -39.5q-3 -11 -8.5 -15.5t-12.5 -6.5t-15.5 -1.5
t-15.5 0.5h-23q-19 0 -41 4t-28 19zM245 721q-8 20 4 32.5t35 12.5q15 0 24 -2.5t15 -9t11 -18t13 -29.5q10 -27 -2.5 -49t-34.5 -39.5t-47 -30t-40 -21.5q-4 -3 -12.5 -2t-17.5 2.5t-16.5 3.5t-8.5 2q-4 0 -7.5 5t-3.5 6q0 -2 19 8.5t41 25t38 29t9 19.5q-14 9 -16.5 21
t-2.5 34z" />
    <glyph glyph-name="FL00FEh" unicode="&#xfe;" horiz-adv-x="418" 
d="M126 390q57 0 106 -10t85 -34t56 -63t20 -96q0 -71 -16.5 -111t-48 -63.5t-76 -37.5t-101.5 -33q-10 -3 -12.5 -9.5t-1.5 -14.5t4 -16.5t4 -15.5q1 -6 2.5 -8t2 -3t0 -2.5t-3.5 -7.5q-6 -13 -86 -18q-27 0 -35.5 6.5t-10.5 37.5q-1 30 -2 45.5t-1 27.5v489q0 3 8.5 6
t13.5 5q16 4 32.5 7t30 2.5t22 -6.5t8.5 -19v-58zM136 94q2 -11 14.5 -11.5t20.5 -0.5q26 0 46.5 10t35 27t22 39.5t7.5 46.5q0 41 -27 71t-69 30q-9 0 -19.5 -2.5t-20 -8t-15.5 -13.5t-6 -19v-13q0 -9 1.5 -31.5t3 -47.5t3.5 -46.5t3 -30.5z" />
    <glyph glyph-name="FL00FFh" unicode="&#xff;" horiz-adv-x="473" 
d="M100 -111q1 7 5.5 22.5t10 33t10.5 33t7 22.5l11 22q3 7 7.5 19.5t4.5 14.5q0 1 -3.5 6t-8 10.5t-8 10.5t-3.5 6l-66 167q-1 1 -4.5 7.5t-7.5 14t-7.5 14.5t-3.5 8q-4 13 -10 33.5t-11.5 40t-9 33.5t-2.5 15l11 11h111q11 0 20 -15.5t16.5 -39t15 -51t16 -51t19 -39
t24.5 -15.5q6 0 13 17.5t15 43.5t16 56t14.5 56t12 43.5t7.5 17.5h125q0 -22 -9.5 -49t-15.5 -40q-3 -7 -12 -28.5t-20.5 -50t-24.5 -60.5t-24.5 -60.5t-19.5 -50t-10 -28.5q-4 -11 -13.5 -39.5t-20 -60.5t-20 -60.5t-13.5 -39.5q-3 -11 -8.5 -15.5t-12.5 -6.5t-15.5 -1.5
t-15.5 0.5h-23q-19 0 -41 4t-28 19zM36 684q0 1 -0.5 7.5t0 13.5t3.5 13t9 7q3 0 8.5 0.5t11.5 1t11 0.5h8q16 0 30 -1.5t26 -6t24 -14t26 -24.5q1 -3 1.5 -9t0.5 -8q0 -26 -18.5 -38.5t-41.5 -12.5q-18 0 -35.5 3.5t-31.5 11.5t-23 21.5t-9 34.5zM272 684q0 1 -0.5 7.5
t0 13.5t3.5 13t9 7q3 0 8.5 0.5t11.5 1t11 0.5h8q16 0 30 -1.5t26 -6t24 -14t26 -24.5q1 -3 1.5 -9t0.5 -8q0 -26 -18.5 -38.5t-41.5 -12.5q-18 0 -35.5 3.5t-31.5 11.5t-23 21.5t-9 34.5z" />
    </font>
</defs>
</svg>
