<?xml version="1.0" standalone="no"?>
<!DOCTYPE svg PUBLIC "-//W3C//DTD SVG 1.1//EN" "http://www.w3.org/Graphics/SVG/1.1/DTD/svg11.dtd" >
<svg xmlns="http://www.w3.org/2000/svg" xmlns:xlink="http://www.w3.org/1999/xlink" version="1.1">
<metadata>
Created by FontForge 20201107 at Fri Mar 31 09:56:46 2023
 By Unknown
Copyright 2016 The Nunito Sans Project Authors (https://github.com/Fonthausen/NunitoSans)
</metadata>
<defs>
<font id="NunitoSans10pt-Regular" horiz-adv-x="0" >
  <font-face 
    font-family="Nunito Sans 10pt"
    font-weight="400"
    font-stretch="normal"
    units-per-em="1000"
    panose-1="0 0 0 0 0 0 0 0 0 0"
    ascent="800"
    descent="-200"
    x-height="490"
    cap-height="705"
    bbox="-255 -279 1316 1046"
    underline-thickness="36"
    underline-position="-100"
    unicode-range="U+000D-FB02"
  />
<missing-glyph horiz-adv-x="500" 
d="M50 -180v885h400v-885h-400zM100 -130h300v785h-300v-785z" />
    <glyph glyph-name="fi" unicode="fi" horiz-adv-x="592" 
d="M110 0v424h-98v66h121l-23 -23v37q0 96 51.5 146t152.5 56l41 3l6 -68l-47 -3q-38 -2 -64.5 -15.5t-40.5 -40.5t-14 -69v-35l-6 12h323v-490h-85v424h-232v-424h-85zM418 611v93h101v-93h-101z" />
    <glyph glyph-name="fl" unicode="fl" horiz-adv-x="671" 
d="M110 0v424h-98v66h121l-23 -22v35q0 97 51.5 147.5t153.5 55.5l45 3l7 -68l-53 -3q-38 -2 -64.5 -15.5t-40.5 -40t-14 -69.5v-35l-12 12h160v-66h-148v-424h-85zM593 -9q-73 0 -111.5 43t-38.5 122v549h85v-542q0 -32 9.5 -55t27.5 -34t44 -11q13 0 25.5 1t25.5 5l-1 -69
q-16 -4 -32 -6.5t-34 -2.5z" />
    <glyph glyph-name=".notdef" horiz-adv-x="500" 
d="M50 -180v885h400v-885h-400zM100 -130h300v785h-300v-785z" />
    <glyph glyph-name="A" unicode="A" horiz-adv-x="747" 
d="M26 0l310 705h75l310 -705h-89l-86 201l42 -25h-430l42 25l-86 -201h-88zM372 606l-160 -376l-24 19h370l-24 -19l-159 376h-3z" />
    <glyph glyph-name="Aacute" unicode="&#xc1;" horiz-adv-x="747" 
d="M26 0l310 705h75l310 -705h-89l-86 201l42 -25h-430l42 25l-86 -201h-88zM372 606l-160 -376l-24 19h370l-24 -19l-159 376h-3zM340 765l118 172h99l-149 -172h-68z" />
    <glyph glyph-name="Abreve" unicode="&#x102;" horiz-adv-x="747" 
d="M26 0l310 705h75l310 -705h-89l-86 201l42 -25h-430l42 25l-86 -201h-88zM372 606l-160 -376l-24 19h370l-24 -19l-159 376h-3zM374 760q-71 0 -118 45.5t-53 124.5l55 7q5 -55 35 -86t81 -31t81.5 31.5t34.5 85.5l56 -7q-7 -79 -53.5 -124.5t-118.5 -45.5z" />
    <glyph glyph-name="uni1EAE" unicode="&#x1eae;" horiz-adv-x="747" 
d="M26 0l310 705h75l310 -705h-89l-86 201l42 -25h-430l42 25l-86 -201h-88zM372 606l-160 -376l-24 19h370l-24 -19l-159 376h-3zM374 762q-70 0 -112.5 41t-47.5 111l51 6q6 -49 34 -75.5t75 -26.5q48 0 76 26.5t33 75.5l51 -6q-4 -70 -47 -111t-113 -41zM338 882l86 142
h92l-118 -142h-60z" />
    <glyph glyph-name="uni1EB6" unicode="&#x1eb6;" horiz-adv-x="747" 
d="M26 0l310 705h75l310 -705h-89l-86 201l42 -25h-430l42 25l-86 -201h-88zM372 606l-160 -376l-24 19h370l-24 -19l-159 376h-3zM327 -189v91h94v-91h-94zM374 760q-71 0 -118 45.5t-53 124.5l55 7q5 -55 35 -86t81 -31t81.5 31.5t34.5 85.5l56 -7q-7 -79 -53.5 -124.5
t-118.5 -45.5z" />
    <glyph glyph-name="uni1EB0" unicode="&#x1eb0;" horiz-adv-x="747" 
d="M26 0l310 705h75l310 -705h-89l-86 201l42 -25h-430l42 25l-86 -201h-88zM372 606l-160 -376l-24 19h370l-24 -19l-159 376h-3zM374 762q-70 0 -112.5 41t-47.5 111l51 6q6 -49 34 -75.5t75 -26.5q48 0 76 26.5t33 75.5l51 -6q-4 -70 -47 -111t-113 -41zM351 882
l-115 142h90l85 -142h-60z" />
    <glyph glyph-name="uni1EB2" unicode="&#x1eb2;" horiz-adv-x="747" 
d="M26 0l310 705h75l310 -705h-89l-86 201l42 -25h-430l42 25l-86 -201h-88zM372 606l-160 -376l-24 19h370l-24 -19l-159 376h-3zM374 762q-70 0 -112.5 41t-47.5 111l51 6q6 -49 34 -75.5t75 -26.5q48 0 76 26.5t33 75.5l51 -6q-4 -69 -47 -110.5t-113 -41.5zM347 881
q0 21 8.5 33t20 20t20.5 15t9 18q0 12 -11.5 16t-32.5 4q-13 0 -28.5 -2.5t-32.5 -9.5l-13 41q18 8 40 12.5t51 4.5q44 0 68.5 -14t24.5 -38q0 -21 -10.5 -32.5t-24 -20t-24 -19t-10.5 -28.5h-55z" />
    <glyph glyph-name="uni1EB4" unicode="&#x1eb4;" horiz-adv-x="747" 
d="M26 0l310 705h75l310 -705h-89l-86 201l42 -25h-430l42 25l-86 -201h-88zM372 606l-160 -376l-24 19h370l-24 -19l-159 376h-3zM374 762q-63 0 -105.5 31.5t-54.5 83.5l51 9q10 -32 38.5 -50.5t70.5 -18.5q43 0 71 18.5t38 50.5l51 -9q-11 -52 -54 -83.5t-106 -31.5z
M260 926l-48 3q3 34 15 57t32.5 34.5t48.5 11.5q20 0 38 -7.5t38 -21.5q19 -12 31 -17.5t23 -5.5q23 0 34 13t16 41l48 -3q-3 -52 -28.5 -78t-66.5 -26q-21 0 -39 8.5t-40 22.5q-15 9 -27 15.5t-25 6.5q-22 0 -33.5 -13t-16.5 -41z" />
    <glyph glyph-name="uni01CD" unicode="&#x1cd;" horiz-adv-x="747" 
d="M26 0l310 705h75l310 -705h-89l-86 201l42 -25h-430l42 25l-86 -201h-88zM372 606l-160 -376l-24 19h370l-24 -19l-159 376h-3zM334 765l-124 172h67l97 -118l98 118h66l-124 -172h-80z" />
    <glyph glyph-name="Acircumflex" unicode="&#xc2;" horiz-adv-x="747" 
d="M26 0l310 705h75l310 -705h-89l-86 201l42 -25h-430l42 25l-86 -201h-88zM372 606l-160 -376l-24 19h370l-24 -19l-159 376h-3zM210 765l124 172h80l124 -172h-67l-97 117l-98 -117h-66z" />
    <glyph glyph-name="uni1EA4" unicode="&#x1ea4;" horiz-adv-x="747" 
d="M26 0l310 705h75l310 -705h-89l-86 201l42 -25h-430l42 25l-86 -201h-88zM372 606l-160 -376l-24 19h370l-24 -19l-159 376h-3zM221 766l112 165h82l112 -165h-62l-91 111l-92 -111h-61zM471 875l83 150h82l-109 -150h-56z" />
    <glyph glyph-name="uni1EAC" unicode="&#x1eac;" horiz-adv-x="747" 
d="M26 0l310 705h75l310 -705h-89l-86 201l42 -25h-430l42 25l-86 -201h-88zM372 606l-160 -376l-24 19h370l-24 -19l-159 376h-3zM327 -189v91h94v-91h-94zM210 765l124 172h80l124 -172h-67l-97 117l-98 -117h-66z" />
    <glyph glyph-name="uni1EA6" unicode="&#x1ea6;" horiz-adv-x="747" 
d="M26 0l310 705h75l310 -705h-89l-86 201l42 -25h-430l42 25l-86 -201h-88zM372 606l-160 -376l-24 19h370l-24 -19l-159 376h-3zM221 766l112 165h82l112 -165h-62l-91 111l-92 -111h-61zM511 875l-109 150h82l83 -150h-56z" />
    <glyph glyph-name="uni1EA8" unicode="&#x1ea8;" horiz-adv-x="747" 
d="M26 0l310 705h75l310 -705h-89l-86 201l42 -25h-430l42 25l-86 -201h-88zM372 606l-160 -376l-24 19h370l-24 -19l-159 376h-3zM221 766l112 160h82l112 -160h-62l-91 109l-92 -109h-61zM477 875q0 21 8.5 33.5t20.5 21t20.5 16.5t8.5 19q0 12 -11 15.5t-33 3.5
q-13 0 -27.5 -2.5t-32.5 -9.5l-13 40q18 9 39.5 13.5t50.5 4.5q44 0 68 -14t24 -38q0 -20 -10.5 -32t-24 -21.5t-23.5 -20.5t-10 -29h-55z" />
    <glyph glyph-name="uni1EAA" unicode="&#x1eaa;" horiz-adv-x="747" 
d="M26 0l310 705h75l310 -705h-89l-86 201l42 -25h-430l42 25l-86 -201h-88zM372 606l-160 -376l-24 19h370l-24 -19l-159 376h-3zM221 766l112 133h82l112 -133h-60l-93 85l-92 -85h-61zM260 924l-48 2q5 52 30 78t66 26q20 0 38 -7.5t38 -21.5q19 -12 31 -17.5t23 -5.5
q23 0 34 12.5t16 41.5l48 -3q-3 -51 -28.5 -77.5t-66.5 -26.5q-21 0 -39 8.5t-40 22.5q-15 9 -27 15t-25 6q-21 0 -33 -12.5t-17 -40.5z" />
    <glyph glyph-name="uni0200" unicode="&#x200;" horiz-adv-x="747" 
d="M26 0l310 705h75l310 -705h-89l-86 201l42 -25h-430l42 25l-86 -201h-88zM372 606l-160 -376l-24 19h370l-24 -19l-159 376h-3zM413 765l-119 172h86l85 -172h-52zM283 765l-125 172h86l90 -172h-51z" />
    <glyph glyph-name="Adieresis" unicode="&#xc4;" horiz-adv-x="747" 
d="M26 0l310 705h75l310 -705h-89l-86 201l42 -25h-430l42 25l-86 -201h-88zM372 606l-160 -376l-24 19h370l-24 -19l-159 376h-3zM420 804v90h92v-90h-92zM236 804v90h92v-90h-92z" />
    <glyph glyph-name="uni0226" unicode="&#x226;" horiz-adv-x="747" 
d="M26 0l310 705h75l310 -705h-89l-86 201l42 -25h-430l42 25l-86 -201h-88zM372 606l-160 -376l-24 19h370l-24 -19l-159 376h-3zM326 805v93h96v-93h-96z" />
    <glyph glyph-name="uni1EA0" unicode="&#x1ea0;" horiz-adv-x="747" 
d="M26 0l310 705h75l310 -705h-89l-86 201l42 -25h-430l42 25l-86 -201h-88zM372 606l-160 -376l-24 19h370l-24 -19l-159 376h-3zM327 -189v91h94v-91h-94z" />
    <glyph glyph-name="Agrave" unicode="&#xc0;" horiz-adv-x="747" 
d="M26 0l310 705h75l310 -705h-89l-86 201l42 -25h-430l42 25l-86 -201h-88zM372 606l-160 -376l-24 19h370l-24 -19l-159 376h-3zM342 765l-150 172h98l118 -172h-66z" />
    <glyph glyph-name="uni1EA2" unicode="&#x1ea2;" horiz-adv-x="747" 
d="M26 0l310 705h75l310 -705h-89l-86 201l42 -25h-430l42 25l-86 -201h-88zM372 606l-160 -376l-24 19h370l-24 -19l-159 376h-3zM345 765v16q0 20 9.5 32.5t21.5 21.5t21.5 17t9.5 19t-10.5 16.5t-33.5 5.5q-15 0 -31 -3t-34 -10l-14 44q19 9 43 14t52 5q46 0 72 -16
t26 -45q0 -21 -11 -34t-25.5 -22t-25.5 -20t-11 -30v-11h-59z" />
    <glyph glyph-name="uni0202" unicode="&#x202;" horiz-adv-x="747" 
d="M26 0l310 705h75l310 -705h-89l-86 201l42 -25h-430l42 25l-86 -201h-88zM372 606l-160 -376l-24 19h370l-24 -19l-159 376h-3zM259 760l-56 7q6 80 53 125t118 45q72 0 119 -45.5t53 -124.5l-56 -7q-4 55 -34.5 86.5t-81.5 31.5q-50 0 -80.5 -31t-34.5 -87z" />
    <glyph glyph-name="Amacron" unicode="&#x100;" horiz-adv-x="747" 
d="M26 0l310 705h75l310 -705h-89l-86 201l42 -25h-430l42 25l-86 -201h-88zM372 606l-160 -376l-24 19h370l-24 -19l-159 376h-3zM209 813v61h330v-61h-330z" />
    <glyph glyph-name="Aogonek" unicode="&#x104;" horiz-adv-x="747" 
d="M26 0l310 705h75l310 -705h-89l-86 201l42 -25h-430l42 25l-86 -201h-88zM372 606l-160 -376l-24 19h370l-24 -19l-159 376h-3zM682 -194q-49 0 -78.5 26.5t-29.5 70.5q0 40 26.5 76t70.5 58l31 -37q-15 -7 -30.5 -19.5t-25.5 -29.5t-10 -37q0 -28 16.5 -40.5t39.5 -12.5
q14 0 27 2.5t27 8.5l15 -49q-15 -8 -35 -12.5t-44 -4.5z" />
    <glyph glyph-name="Aring" unicode="&#xc5;" horiz-adv-x="747" 
d="M26 0l310 705h75l310 -705h-89l-86 201l42 -25h-430l42 25l-86 -201h-88zM372 606l-160 -376l-24 19h370l-24 -19l-159 376h-3zM374 757q-34 0 -61 16t-43 42.5t-16 58.5q0 33 15.5 59t43 41.5t61.5 15.5t61.5 -15.5t43 -41.5t15.5 -59q0 -32 -15.5 -58.5t-42.5 -42.5
t-62 -16zM374 803q31 0 51 20.5t20 50.5t-19.5 50.5t-51.5 20.5q-31 0 -51 -20.5t-20 -50.5t20 -50.5t51 -20.5z" />
    <glyph glyph-name="Aringacute" unicode="&#x1fa;" horiz-adv-x="747" 
d="M26 0l310 705h75l310 -705h-89l-86 201l42 -25h-430l42 25l-86 -201h-88zM372 606l-160 -376l-24 19h370l-24 -19l-159 376h-3zM374 759q-34 0 -61 15.5t-43 42t-16 58.5q0 33 16 59.5t43 42t61 15.5q20 0 37 -5.5t32 -15.5l67 64h85l-117 -101q8 -12 12 -27t4 -32
q0 -32 -15.5 -58.5t-43 -42t-61.5 -15.5zM374 804q32 0 52 20.5t20 50.5q0 31 -20 51.5t-52 20.5q-31 0 -51.5 -20.5t-20.5 -51.5q0 -30 20.5 -50.5t51.5 -20.5z" />
    <glyph glyph-name="Atilde" unicode="&#xc3;" horiz-adv-x="747" 
d="M26 0l310 705h75l310 -705h-89l-86 201l42 -25h-430l42 25l-86 -201h-88zM372 606l-160 -376l-24 19h370l-24 -19l-159 376h-3zM215 781l-52 3q7 65 39 100.5t82 35.5q26 0 50.5 -11t53.5 -30q28 -18 45 -25.5t32 -7.5q29 0 45.5 19.5t22.5 57.5l52 -3q-6 -65 -38 -100.5
t-82 -35.5q-25 0 -50.5 11.5t-55.5 30.5q-25 17 -43 24.5t-33 7.5q-29 0 -45.5 -19.5t-22.5 -57.5z" />
    <glyph glyph-name="AE" unicode="&#xc6;" horiz-adv-x="1004" 
d="M-12 0l425 705h528v-73h-453l23 33l63 -295l-38 24h385v-73h-370l28 24l65 -304l-39 32h336v-73h-369l-43 204l31 -28h-394l36 26l-120 -202h-94zM439 610l-223 -381l-13 20h336l-15 -22l-82 383h-3z" />
    <glyph glyph-name="AEacute" unicode="&#x1fc;" horiz-adv-x="1004" 
d="M-12 0l425 705h528v-73h-453l23 33l63 -295l-38 24h385v-73h-370l28 24l65 -304l-39 32h336v-73h-369l-43 204l31 -28h-394l36 26l-120 -202h-94zM439 610l-223 -381l-13 20h336l-15 -22l-82 383h-3zM461 765l118 172h99l-149 -172h-68z" />
    <glyph glyph-name="B" unicode="B" horiz-adv-x="699" 
d="M95 0v705h287q110 0 170.5 -48t60.5 -136q0 -65 -36.5 -107.5t-95.5 -56.5v8q44 -6 77.5 -27.5t52.5 -57.5t19 -86q0 -63 -27.5 -106t-80.5 -65.5t-128 -22.5h-299zM180 71h208q32 0 57 5t43.5 15t31 25t19 35t6.5 44q0 27 -6.5 47t-19.5 35t-31.5 25t-43.5 14.5t-56 4.5
h-208v-250zM180 392h192q77 0 116.5 31.5t39.5 91.5q0 59 -39 89t-117 30h-192v-242z" />
    <glyph glyph-name="uni0181" unicode="&#x181;" horiz-adv-x="824" 
d="M220 0v638h-35q-55 0 -80 -25t-25 -80v-44h-73v48q0 83 45.5 125.5t139.5 42.5h317q110 0 169.5 -48t59.5 -136q0 -65 -36.5 -107.5t-95.5 -56.5v8q44 -6 77.5 -27.5t52.5 -57.5t19 -86q0 -63 -27.5 -106t-80.5 -65.5t-128 -22.5h-299zM305 70h208q79 0 118 31.5t39 93.5
q0 65 -39.5 96t-117.5 31h-208v-252zM305 392h192q77 0 116.5 31t39.5 92q0 59 -39 89.5t-117 30.5h-192v-243z" />
    <glyph glyph-name="C" unicode="C" horiz-adv-x="689" 
d="M399 -9q-103 0 -177 44t-114 125t-40 193t40 192.5t114 124.5t177 44q73 0 134.5 -22.5t104.5 -66.5l-33 -69q-46 42 -95.5 61t-109.5 19q-115 0 -178.5 -73t-63.5 -210q0 -136 63.5 -210t178.5 -74q60 0 109.5 19t95.5 61l33 -69q-43 -43 -104.5 -66t-134.5 -23z" />
    <glyph glyph-name="Cacute" unicode="&#x106;" horiz-adv-x="689" 
d="M399 -9q-103 0 -177 44t-114 125t-40 193t40 192.5t114 124.5t177 44q73 0 134.5 -22.5t104.5 -66.5l-33 -69q-46 42 -95.5 61t-109.5 19q-115 0 -178.5 -73t-63.5 -210q0 -136 63.5 -210t178.5 -74q60 0 109.5 19t95.5 61l33 -69q-43 -43 -104.5 -66t-134.5 -23z
M360 765l118 172h99l-149 -172h-68z" />
    <glyph glyph-name="Ccaron" unicode="&#x10c;" horiz-adv-x="689" 
d="M399 -9q-103 0 -177 44t-114 125t-40 193t40 192.5t114 124.5t177 44q73 0 134.5 -22.5t104.5 -66.5l-33 -69q-46 42 -95.5 61t-109.5 19q-115 0 -178.5 -73t-63.5 -210q0 -136 63.5 -210t178.5 -74q60 0 109.5 19t95.5 61l33 -69q-43 -43 -104.5 -66t-134.5 -23z
M354 765l-124 172h67l97 -118l98 118h66l-124 -172h-80z" />
    <glyph glyph-name="Ccedilla" unicode="&#xc7;" horiz-adv-x="689" 
d="M399 -9q-103 0 -177 44t-114 125t-40 193t40 192.5t114 124.5t177 44q73 0 134.5 -22.5t104.5 -66.5l-33 -69q-46 42 -95.5 61t-109.5 19q-115 0 -178.5 -73t-63.5 -210q0 -136 63.5 -210t178.5 -74q60 0 109.5 19t95.5 61l33 -69q-43 -43 -104.5 -66t-134.5 -23z
M396 -194q-26 0 -51 5t-42 15l14 46q19 -9 36 -13t41 -4q26 0 42 9t16 27q0 13 -10 20.5t-29 7.5q-10 0 -21.5 -2t-26.5 -6l-17 15l14 94h53l-13 -77l-25 8q12 4 25 6t24 2q25 0 44 -8t30.5 -23.5t11.5 -38.5q0 -25 -15 -44t-41 -29t-60 -10z" />
    <glyph glyph-name="uni1E08" unicode="&#x1e08;" horiz-adv-x="689" 
d="M399 -9q-103 0 -177 44t-114 125t-40 193t40 192.5t114 124.5t177 44q73 0 134.5 -22.5t104.5 -66.5l-33 -69q-46 42 -95.5 61t-109.5 19q-115 0 -178.5 -73t-63.5 -210q0 -136 63.5 -210t178.5 -74q60 0 109.5 19t95.5 61l33 -69q-43 -43 -104.5 -66t-134.5 -23z
M396 -194q-26 0 -51 5t-42 15l14 46q19 -9 36 -13t41 -4q26 0 42 9t16 27q0 13 -10 20.5t-29 7.5q-10 0 -21.5 -2t-26.5 -6l-17 15l14 94h53l-13 -77l-25 8q12 4 25 6t24 2q25 0 44 -8t30.5 -23.5t11.5 -38.5q0 -25 -15 -44t-41 -29t-60 -10zM360 765l118 172h99l-149 -172
h-68z" />
    <glyph glyph-name="Ccircumflex" unicode="&#x108;" horiz-adv-x="689" 
d="M399 -9q-103 0 -177 44t-114 125t-40 193t40 192.5t114 124.5t177 44q73 0 134.5 -22.5t104.5 -66.5l-33 -69q-46 42 -95.5 61t-109.5 19q-115 0 -178.5 -73t-63.5 -210q0 -136 63.5 -210t178.5 -74q60 0 109.5 19t95.5 61l33 -69q-43 -43 -104.5 -66t-134.5 -23z
M230 765l124 172h80l124 -172h-67l-97 117l-98 -117h-66z" />
    <glyph glyph-name="Cdotaccent" unicode="&#x10a;" horiz-adv-x="689" 
d="M399 -9q-103 0 -177 44t-114 125t-40 193t40 192.5t114 124.5t177 44q73 0 134.5 -22.5t104.5 -66.5l-33 -69q-46 42 -95.5 61t-109.5 19q-115 0 -178.5 -73t-63.5 -210q0 -136 63.5 -210t178.5 -74q60 0 109.5 19t95.5 61l33 -69q-43 -43 -104.5 -66t-134.5 -23z
M346 805v93h96v-93h-96z" />
    <glyph glyph-name="D" unicode="D" horiz-adv-x="761" 
d="M95 0v705h243q114 0 193.5 -40.5t120.5 -119t41 -192.5t-41.5 -192.5t-120.5 -119.5t-193 -41h-243zM181 74h152q134 0 202.5 69.5t68.5 209.5t-68.5 209t-202.5 69h-152v-557z" />
    <glyph glyph-name="uni01C4" unicode="&#x1c4;" horiz-adv-x="1346" 
d="M95 0v705h243q114 0 193.5 -40.5t120.5 -119t41 -192.5t-41.5 -192.5t-120.5 -119.5t-193 -41h-243zM181 74h152q134 0 202.5 69.5t68.5 209.5t-68.5 209t-202.5 69h-152v-557zM796 0v61l425 605l4 -36h-429v75h507v-60l-426 -605l-4 35h443v-75h-520zM1013 765l-124 172
h67l97 -118l98 118h66l-124 -172h-80z" />
    <glyph glyph-name="Eth" unicode="&#xd0;" horiz-adv-x="761" 
d="M95 0v705h243q114 0 193.5 -40.5t120.5 -119t41 -192.5t-41.5 -192.5t-120.5 -119.5t-193 -41h-243zM181 74h152q134 0 202.5 69.5t68.5 209.5t-68.5 209t-202.5 69h-152v-557zM5 323v69h376v-69h-376z" />
    <glyph glyph-name="Dcaron" unicode="&#x10e;" horiz-adv-x="761" 
d="M95 0v705h243q114 0 193.5 -40.5t120.5 -119t41 -192.5t-41.5 -192.5t-120.5 -119.5t-193 -41h-243zM181 74h152q134 0 202.5 69.5t68.5 209.5t-68.5 209t-202.5 69h-152v-557zM341 765l-124 172h67l97 -118l98 118h66l-124 -172h-80z" />
    <glyph glyph-name="Dcroat" unicode="&#x110;" horiz-adv-x="761" 
d="M95 0v705h243q114 0 193.5 -40.5t120.5 -119t41 -192.5t-41.5 -192.5t-120.5 -119.5t-193 -41h-243zM181 74h152q134 0 202.5 69.5t68.5 209.5t-68.5 209t-202.5 69h-152v-557zM5 323v69h376v-69h-376z" />
    <glyph glyph-name="uni1E0C" unicode="&#x1e0c;" horiz-adv-x="761" 
d="M95 0v705h243q114 0 193.5 -40.5t120.5 -119t41 -192.5t-41.5 -192.5t-120.5 -119.5t-193 -41h-243zM181 74h152q134 0 202.5 69.5t68.5 209.5t-68.5 209t-202.5 69h-152v-557zM334 -189v91h94v-91h-94z" />
    <glyph glyph-name="uni018A" unicode="&#x18a;" horiz-adv-x="886" 
d="M220 0v638h-35q-55 0 -80 -25t-25 -80v-44h-73v48q0 83 45 125.5t135 42.5h276q114 0 193 -40.5t120.5 -119t41.5 -192.5t-41.5 -192.5t-121 -119.5t-192.5 -41h-243zM306 74h151q135 0 203 69.5t68 209.5t-68 209t-203 69h-151v-557z" />
    <glyph glyph-name="uni1E0E" unicode="&#x1e0e;" horiz-adv-x="761" 
d="M95 0v705h243q114 0 193.5 -40.5t120.5 -119t41 -192.5t-41.5 -192.5t-120.5 -119.5t-193 -41h-243zM181 74h152q134 0 202.5 69.5t68.5 209.5t-68.5 209t-202.5 69h-152v-557zM227 -160v61h308v-61h-308z" />
    <glyph glyph-name="uni01C5" unicode="&#x1c5;" horiz-adv-x="1252" 
d="M95 0v705h243q114 0 193.5 -40.5t120.5 -119t41 -192.5t-41.5 -192.5t-120.5 -119.5t-193 -41h-243zM181 74h152q134 0 202.5 69.5t68.5 209.5t-68.5 209t-202.5 69h-152v-557zM818 0v55l304 391l2 -24h-302v68h381v-55l-306 -393l-2 27h319v-69h-396zM973 555l-111 200
h62l90 -144l90 144h62l-111 -200h-82z" />
    <glyph glyph-name="E" unicode="E" horiz-adv-x="610" 
d="M95 0v705h453v-73h-368v-238h347v-73h-347v-248h368v-73h-453z" />
    <glyph glyph-name="Eacute" unicode="&#xc9;" horiz-adv-x="610" 
d="M95 0v705h453v-73h-368v-238h347v-73h-347v-248h368v-73h-453zM299 765l118 172h99l-149 -172h-68z" />
    <glyph glyph-name="Ebreve" unicode="&#x114;" horiz-adv-x="610" 
d="M95 0v705h453v-73h-368v-238h347v-73h-347v-248h368v-73h-453zM333 760q-71 0 -118 45.5t-53 124.5l55 7q5 -55 35 -86t81 -31t81.5 31.5t34.5 85.5l56 -7q-7 -79 -53.5 -124.5t-118.5 -45.5z" />
    <glyph glyph-name="Ecaron" unicode="&#x11a;" horiz-adv-x="610" 
d="M95 0v705h453v-73h-368v-238h347v-73h-347v-248h368v-73h-453zM293 765l-124 172h67l97 -118l98 118h66l-124 -172h-80z" />
    <glyph glyph-name="uni0228" unicode="&#x228;" horiz-adv-x="610" 
d="M95 0v705h453v-73h-368v-238h347v-73h-347v-248h368v-73h-453zM337 -194q-26 0 -51 5t-42 15l14 46q19 -9 36 -13t41 -4q26 0 42 9t16 27q0 13 -10 20.5t-29 7.5q-10 0 -21.5 -2t-26.5 -6l-17 15l14 94h53l-13 -77l-25 8q12 4 25 6t24 2q25 0 44 -8t30.5 -23.5
t11.5 -38.5q0 -25 -15 -44t-41 -29t-60 -10z" />
    <glyph glyph-name="uni1E1C" unicode="&#x1e1c;" horiz-adv-x="610" 
d="M95 0v705h453v-73h-368v-238h347v-73h-347v-248h368v-73h-453zM337 -194q-26 0 -51 5t-42 15l14 46q19 -9 36 -13t41 -4q26 0 42 9t16 27q0 13 -10 20.5t-29 7.5q-10 0 -21.5 -2t-26.5 -6l-17 15l14 94h53l-13 -77l-25 8q12 4 25 6t24 2q25 0 44 -8t30.5 -23.5
t11.5 -38.5q0 -25 -15 -44t-41 -29t-60 -10zM333 760q-71 0 -118 45.5t-53 124.5l55 7q5 -55 35 -86t81 -31t81.5 31.5t34.5 85.5l56 -7q-7 -79 -53.5 -124.5t-118.5 -45.5z" />
    <glyph glyph-name="Ecircumflex" unicode="&#xca;" horiz-adv-x="610" 
d="M95 0v705h453v-73h-368v-238h347v-73h-347v-248h368v-73h-453zM169 765l124 172h80l124 -172h-67l-97 117l-98 -117h-66z" />
    <glyph glyph-name="uni1EBE" unicode="&#x1ebe;" horiz-adv-x="610" 
d="M95 0v705h453v-73h-368v-238h347v-73h-347v-248h368v-73h-453zM180 766l112 165h82l112 -165h-62l-91 111l-92 -111h-61zM430 875l83 150h82l-109 -150h-56z" />
    <glyph glyph-name="uni1EC6" unicode="&#x1ec6;" horiz-adv-x="610" 
d="M95 0v705h453v-73h-368v-238h347v-73h-347v-248h368v-73h-453zM286 -189v91h94v-91h-94zM169 765l124 172h80l124 -172h-67l-97 117l-98 -117h-66z" />
    <glyph glyph-name="uni1EC0" unicode="&#x1ec0;" horiz-adv-x="610" 
d="M95 0v705h453v-73h-368v-238h347v-73h-347v-248h368v-73h-453zM180 766l112 165h82l112 -165h-62l-91 111l-92 -111h-61zM470 875l-109 150h82l83 -150h-56z" />
    <glyph glyph-name="uni1EC2" unicode="&#x1ec2;" horiz-adv-x="610" 
d="M95 0v705h453v-73h-368v-238h347v-73h-347v-248h368v-73h-453zM180 766l112 160h82l112 -160h-62l-91 109l-92 -109h-61zM436 875q0 21 8.5 33.5t20.5 21t20.5 16.5t8.5 19q0 12 -11 15.5t-33 3.5q-13 0 -27.5 -2.5t-32.5 -9.5l-13 40q18 9 39.5 13.5t50.5 4.5
q44 0 68 -14t24 -38q0 -20 -10.5 -32t-24 -21.5t-23.5 -20.5t-10 -29h-55z" />
    <glyph glyph-name="uni1EC4" unicode="&#x1ec4;" horiz-adv-x="610" 
d="M95 0v705h453v-73h-368v-238h347v-73h-347v-248h368v-73h-453zM180 766l112 133h82l112 -133h-60l-93 85l-92 -85h-61zM219 924l-48 2q5 52 30 78t66 26q20 0 38 -7.5t38 -21.5q19 -12 31 -17.5t23 -5.5q23 0 34 12.5t16 41.5l48 -3q-3 -51 -28.5 -77.5t-66.5 -26.5
q-21 0 -39 8.5t-40 22.5q-15 9 -27 15t-25 6q-21 0 -33 -12.5t-17 -40.5z" />
    <glyph glyph-name="uni0204" unicode="&#x204;" horiz-adv-x="610" 
d="M95 0v705h453v-73h-368v-238h347v-73h-347v-248h368v-73h-453zM372 765l-119 172h86l85 -172h-52zM242 765l-125 172h86l90 -172h-51z" />
    <glyph glyph-name="Edieresis" unicode="&#xcb;" horiz-adv-x="610" 
d="M95 0v705h453v-73h-368v-238h347v-73h-347v-248h368v-73h-453zM379 804v90h92v-90h-92zM195 804v90h92v-90h-92z" />
    <glyph glyph-name="Edotaccent" unicode="&#x116;" horiz-adv-x="610" 
d="M95 0v705h453v-73h-368v-238h347v-73h-347v-248h368v-73h-453zM285 805v93h96v-93h-96z" />
    <glyph glyph-name="uni1EB8" unicode="&#x1eb8;" horiz-adv-x="610" 
d="M95 0v705h453v-73h-368v-238h347v-73h-347v-248h368v-73h-453zM286 -189v91h94v-91h-94z" />
    <glyph glyph-name="Egrave" unicode="&#xc8;" horiz-adv-x="610" 
d="M95 0v705h453v-73h-368v-238h347v-73h-347v-248h368v-73h-453zM301 765l-150 172h98l118 -172h-66z" />
    <glyph glyph-name="uni1EBA" unicode="&#x1eba;" horiz-adv-x="610" 
d="M95 0v705h453v-73h-368v-238h347v-73h-347v-248h368v-73h-453zM304 765v16q0 20 9.5 32.5t21.5 21.5t21.5 17t9.5 19t-10.5 16.5t-33.5 5.5q-15 0 -31 -3t-34 -10l-14 44q19 9 43 14t52 5q46 0 72 -16t26 -45q0 -21 -11 -34t-25.5 -22t-25.5 -20t-11 -30v-11h-59z" />
    <glyph glyph-name="uni0206" unicode="&#x206;" horiz-adv-x="610" 
d="M95 0v705h453v-73h-368v-238h347v-73h-347v-248h368v-73h-453zM218 760l-56 7q6 80 53 125t118 45q72 0 119 -45.5t53 -124.5l-56 -7q-4 55 -34.5 86.5t-81.5 31.5q-50 0 -80.5 -31t-34.5 -87z" />
    <glyph glyph-name="Emacron" unicode="&#x112;" horiz-adv-x="610" 
d="M95 0v705h453v-73h-368v-238h347v-73h-347v-248h368v-73h-453zM168 813v61h330v-61h-330z" />
    <glyph glyph-name="uni1E16" unicode="&#x1e16;" horiz-adv-x="610" 
d="M95 0v705h453v-73h-368v-238h347v-73h-347v-248h368v-73h-453zM181 791v59h304v-59h-304zM301 888l85 142h94l-118 -142h-61z" />
    <glyph glyph-name="uni1E14" unicode="&#x1e14;" horiz-adv-x="610" 
d="M95 0v705h453v-73h-368v-238h347v-73h-347v-248h368v-73h-453zM304 888l-117 142h93l85 -142h-61zM181 791v59h304v-59h-304z" />
    <glyph glyph-name="Eogonek" unicode="&#x118;" horiz-adv-x="610" 
d="M95 0v705h453v-73h-368v-238h347v-73h-347v-248h368v-73h-453zM486 -194q-49 0 -78.5 26.5t-29.5 70.5q0 40 26.5 76t70.5 58l31 -37q-15 -7 -30.5 -19.5t-25.5 -29.5t-10 -37q0 -28 16.5 -40.5t39.5 -12.5q14 0 27 2.5t27 8.5l15 -49q-15 -8 -35 -12.5t-44 -4.5z" />
    <glyph glyph-name="uni1EBC" unicode="&#x1ebc;" horiz-adv-x="610" 
d="M95 0v705h453v-73h-368v-238h347v-73h-347v-248h368v-73h-453zM174 781l-52 3q7 65 39 100.5t82 35.5q26 0 50.5 -11t53.5 -30q28 -18 45 -25.5t32 -7.5q29 0 45.5 19.5t22.5 57.5l52 -3q-6 -65 -38 -100.5t-82 -35.5q-25 0 -50.5 11.5t-55.5 30.5q-25 17 -43 24.5
t-33 7.5q-29 0 -45.5 -19.5t-22.5 -57.5z" />
    <glyph glyph-name="uni018F" unicode="&#x18f;" horiz-adv-x="786" 
d="M398 -9q-105 0 -179 44.5t-112.5 125.5t-38.5 191v39h589v-72h-527l26 34q0 -141 61.5 -213.5t177.5 -72.5q109 0 171.5 74t62.5 212q0 137 -67 210.5t-194 73.5q-47 0 -89 -8.5t-79 -26t-70 -45.5l-32 69q32 29 76 48.5t95 29.5t105 10q107 0 184 -43t119 -123.5
t42 -194.5q0 -84 -23.5 -151t-66 -113.5t-101.5 -72t-130 -25.5z" />
    <glyph glyph-name="F" unicode="F" horiz-adv-x="576" 
d="M95 0v705h447v-73h-361v-241h340v-73h-340v-318h-86z" />
    <glyph glyph-name="G" unicode="G" horiz-adv-x="749" 
d="M417 -9q-112 0 -190 43t-118.5 124t-40.5 194t40.5 194t116 124.5t180.5 43.5q51 0 97 -10t85 -29.5t68 -48.5l-33 -68q-47 42 -99.5 60t-117.5 18q-119 0 -183 -73t-64 -211q0 -141 66 -213t195 -72q52 0 99.5 9.5t87.5 25.5l-21 -49v247h-178v71h254v-330
q-28 -14 -69 -25.5t-86.5 -18t-88.5 -6.5z" />
    <glyph glyph-name="Gbreve" unicode="&#x11e;" horiz-adv-x="749" 
d="M417 -9q-112 0 -190 43t-118.5 124t-40.5 194t40.5 194t116 124.5t180.5 43.5q51 0 97 -10t85 -29.5t68 -48.5l-33 -68q-47 42 -99.5 60t-117.5 18q-119 0 -183 -73t-64 -211q0 -141 66 -213t195 -72q52 0 99.5 9.5t87.5 25.5l-21 -49v247h-178v71h254v-330
q-28 -14 -69 -25.5t-86.5 -18t-88.5 -6.5zM402 760q-71 0 -118 45.5t-53 124.5l55 7q5 -55 35 -86t81 -31t81.5 31.5t34.5 85.5l56 -7q-7 -79 -53.5 -124.5t-118.5 -45.5z" />
    <glyph glyph-name="Gcaron" unicode="&#x1e6;" horiz-adv-x="749" 
d="M417 -9q-112 0 -190 43t-118.5 124t-40.5 194t40.5 194t116 124.5t180.5 43.5q51 0 97 -10t85 -29.5t68 -48.5l-33 -68q-47 42 -99.5 60t-117.5 18q-119 0 -183 -73t-64 -211q0 -141 66 -213t195 -72q52 0 99.5 9.5t87.5 25.5l-21 -49v247h-178v71h254v-330
q-28 -14 -69 -25.5t-86.5 -18t-88.5 -6.5zM362 765l-124 172h67l97 -118l98 118h66l-124 -172h-80z" />
    <glyph glyph-name="Gcircumflex" unicode="&#x11c;" horiz-adv-x="749" 
d="M417 -9q-112 0 -190 43t-118.5 124t-40.5 194t40.5 194t116 124.5t180.5 43.5q51 0 97 -10t85 -29.5t68 -48.5l-33 -68q-47 42 -99.5 60t-117.5 18q-119 0 -183 -73t-64 -211q0 -141 66 -213t195 -72q52 0 99.5 9.5t87.5 25.5l-21 -49v247h-178v71h254v-330
q-28 -14 -69 -25.5t-86.5 -18t-88.5 -6.5zM238 765l124 172h80l124 -172h-67l-97 117l-98 -117h-66z" />
    <glyph glyph-name="uni0122" unicode="&#x122;" horiz-adv-x="749" 
d="M417 -9q-112 0 -190 43t-118.5 124t-40.5 194t40.5 194t116 124.5t180.5 43.5q51 0 97 -10t85 -29.5t68 -48.5l-33 -68q-47 42 -99.5 60t-117.5 18q-119 0 -183 -73t-64 -211q0 -141 66 -213t195 -72q52 0 99.5 9.5t87.5 25.5l-21 -49v247h-178v71h254v-330
q-28 -14 -69 -25.5t-86.5 -18t-88.5 -6.5zM406 -277l-38 27q23 24 31.5 47t8.5 48l19 -11h-70v87h102v-65q0 -39 -12.5 -72.5t-40.5 -60.5z" />
    <glyph glyph-name="Gdotaccent" unicode="&#x120;" horiz-adv-x="749" 
d="M417 -9q-112 0 -190 43t-118.5 124t-40.5 194t40.5 194t116 124.5t180.5 43.5q51 0 97 -10t85 -29.5t68 -48.5l-33 -68q-47 42 -99.5 60t-117.5 18q-119 0 -183 -73t-64 -211q0 -141 66 -213t195 -72q52 0 99.5 9.5t87.5 25.5l-21 -49v247h-178v71h254v-330
q-28 -14 -69 -25.5t-86.5 -18t-88.5 -6.5zM354 805v93h96v-93h-96z" />
    <glyph glyph-name="uni1E20" unicode="&#x1e20;" horiz-adv-x="749" 
d="M417 -9q-112 0 -190 43t-118.5 124t-40.5 194t40.5 194t116 124.5t180.5 43.5q51 0 97 -10t85 -29.5t68 -48.5l-33 -68q-47 42 -99.5 60t-117.5 18q-119 0 -183 -73t-64 -211q0 -141 66 -213t195 -72q52 0 99.5 9.5t87.5 25.5l-21 -49v247h-178v71h254v-330
q-28 -14 -69 -25.5t-86.5 -18t-88.5 -6.5zM237 813v61h330v-61h-330z" />
    <glyph glyph-name="H" unicode="H" horiz-adv-x="780" 
d="M95 0v705h86v-310h418v310h86v-705h-86v320h-418v-320h-86z" />
    <glyph glyph-name="Hbar" unicode="&#x126;" horiz-adv-x="809" 
d="M110 0v517h-94v68h94v120h86v-120h417v120h86v-120h95v-68h-95v-517h-86v315h-417v-315h-86zM196 390h417v127h-417v-127z" />
    <glyph glyph-name="uni1E2A" unicode="&#x1e2a;" horiz-adv-x="780" 
d="M95 0v705h86v-310h418v310h86v-705h-86v320h-418v-320h-86zM391 -215q-69 0 -111.5 40t-46.5 111l55 6q4 -48 30.5 -73.5t72.5 -25.5t72.5 25.5t30.5 73.5l55 -6q-4 -70 -46 -110.5t-112 -40.5z" />
    <glyph glyph-name="Hcircumflex" unicode="&#x124;" horiz-adv-x="780" 
d="M95 0v705h86v-310h418v310h86v-705h-86v320h-418v-320h-86zM226 765l124 172h80l124 -172h-67l-97 117l-98 -117h-66z" />
    <glyph glyph-name="uni1E24" unicode="&#x1e24;" horiz-adv-x="780" 
d="M95 0v705h86v-310h418v310h86v-705h-86v320h-418v-320h-86zM344 -189v91h94v-91h-94z" />
    <glyph glyph-name="I" unicode="I" horiz-adv-x="276" 
d="M95 0v705h86v-705h-86z" />
    <glyph glyph-name="IJ" unicode="&#x132;" horiz-adv-x="632" 
d="M95 0v705h86v-705h-86zM279 -7l-6 73l69 4q34 3 58 18t37.5 42t13.5 63v512h86v-515q0 -57 -22 -99.5t-63 -66t-99 -27.5z" />
    <glyph glyph-name="Iacute" unicode="&#xcd;" horiz-adv-x="276" 
d="M95 0v705h86v-705h-86zM104 765l118 172h99l-149 -172h-68z" />
    <glyph glyph-name="Ibreve" unicode="&#x12c;" horiz-adv-x="276" 
d="M95 0v705h86v-705h-86zM138 760q-71 0 -118 45.5t-53 124.5l55 7q5 -55 35 -86t81 -31t81.5 31.5t34.5 85.5l56 -7q-7 -79 -53.5 -124.5t-118.5 -45.5z" />
    <glyph glyph-name="Icircumflex" unicode="&#xce;" horiz-adv-x="276" 
d="M95 0v705h86v-705h-86zM-26 765l124 172h80l124 -172h-67l-97 117l-98 -117h-66z" />
    <glyph glyph-name="uni0208" unicode="&#x208;" horiz-adv-x="276" 
d="M95 0v705h86v-705h-86zM177 765l-119 172h86l85 -172h-52zM47 765l-125 172h86l90 -172h-51z" />
    <glyph glyph-name="Idieresis" unicode="&#xcf;" horiz-adv-x="276" 
d="M95 0v705h86v-705h-86zM184 804v90h92v-90h-92zM0 804v90h92v-90h-92z" />
    <glyph glyph-name="uni1E2E" unicode="&#x1e2e;" horiz-adv-x="276" 
d="M95 0v705h86v-705h-86zM106 886l86 142h93l-117 -142h-62zM2 770v77h93v-77h-93zM181 770v77h93v-77h-93z" />
    <glyph glyph-name="Idotaccent" unicode="&#x130;" horiz-adv-x="276" 
d="M95 0v705h86v-705h-86zM90 805v93h96v-93h-96z" />
    <glyph glyph-name="uni1ECA" unicode="&#x1eca;" horiz-adv-x="276" 
d="M95 0v705h86v-705h-86zM91 -189v91h94v-91h-94z" />
    <glyph glyph-name="Igrave" unicode="&#xcc;" horiz-adv-x="276" 
d="M95 0v705h86v-705h-86zM106 765l-150 172h98l118 -172h-66z" />
    <glyph glyph-name="uni1EC8" unicode="&#x1ec8;" horiz-adv-x="276" 
d="M95 0v705h86v-705h-86zM109 765v16q0 20 9.5 32.5t21.5 21.5t21.5 17t9.5 19t-10.5 16.5t-33.5 5.5q-15 0 -31 -3t-34 -10l-14 44q19 9 43 14t52 5q46 0 72 -16t26 -45q0 -21 -11 -34t-25.5 -22t-25.5 -20t-11 -30v-11h-59z" />
    <glyph glyph-name="uni020A" unicode="&#x20a;" horiz-adv-x="276" 
d="M95 0v705h86v-705h-86zM23 760l-56 7q6 80 53 125t118 45q72 0 119 -45.5t53 -124.5l-56 -7q-4 55 -34.5 86.5t-81.5 31.5q-50 0 -80.5 -31t-34.5 -87z" />
    <glyph glyph-name="Imacron" unicode="&#x12a;" horiz-adv-x="276" 
d="M95 0v705h86v-705h-86zM-27 813v61h330v-61h-330z" />
    <glyph glyph-name="Iogonek" unicode="&#x12e;" horiz-adv-x="276" 
d="M95 0v705h86v-705h-86zM149 -194q-49 0 -78.5 26.5t-29.5 70.5q0 40 26.5 76t70.5 58l31 -37q-15 -7 -30.5 -19.5t-25.5 -29.5t-10 -37q0 -28 16.5 -40.5t39.5 -12.5q14 0 27 2.5t27 8.5l15 -49q-15 -8 -35 -12.5t-44 -4.5z" />
    <glyph glyph-name="Itilde" unicode="&#x128;" horiz-adv-x="276" 
d="M95 0v705h86v-705h-86zM-21 781l-52 3q7 65 39 100.5t82 35.5q26 0 50.5 -11t53.5 -30q28 -18 45 -25.5t32 -7.5q29 0 45.5 19.5t22.5 57.5l52 -3q-6 -65 -38 -100.5t-82 -35.5q-25 0 -50.5 11.5t-55.5 30.5q-25 17 -43 24.5t-33 7.5q-29 0 -45.5 -19.5t-22.5 -57.5z" />
    <glyph glyph-name="J" unicode="J" horiz-adv-x="356" 
d="M3 -7l-6 73l69 4q34 3 58 18t37.5 42t13.5 63v512h86v-515q0 -57 -22 -99.5t-63 -66t-99 -27.5z" />
    <glyph glyph-name="Jcircumflex" unicode="&#x134;" horiz-adv-x="356" 
d="M3 -7l-6 73l69 4q34 3 58 18t37.5 42t13.5 63v512h86v-515q0 -57 -22 -99.5t-63 -66t-99 -27.5zM53 765l124 172h80l124 -172h-67l-97 117l-98 -117h-66z" />
    <glyph glyph-name="K" unicode="K" horiz-adv-x="646" 
d="M95 0v705h86v-319h3l338 319h109l-390 -367l4 47l409 -385h-113l-357 332h-3v-332h-86z" />
    <glyph glyph-name="uni0136" unicode="&#x136;" horiz-adv-x="646" 
d="M95 0v705h86v-319h3l338 319h109l-390 -367l4 47l409 -385h-113l-357 332h-3v-332h-86zM327 -277l-38 27q23 24 31.5 47t8.5 48l19 -11h-70v87h102v-65q0 -39 -12.5 -72.5t-40.5 -60.5z" />
    <glyph glyph-name="L" unicode="L" horiz-adv-x="563" 
d="M95 0v705h86v-629h358v-76h-444z" />
    <glyph glyph-name="uni01C7" unicode="&#x1c7;" horiz-adv-x="959" 
d="M95 0v705h86v-629h358v-76h-444zM606 -7l-6 73l69 4q34 3 58 18t37.5 42t13.5 63v512h86v-515q0 -57 -22 -99.5t-63 -66t-99 -27.5z" />
    <glyph glyph-name="Lacute" unicode="&#x139;" horiz-adv-x="563" 
d="M95 0v705h86v-629h358v-76h-444zM104 765l118 172h99l-149 -172h-68z" />
    <glyph glyph-name="Lcaron" unicode="&#x13d;" horiz-adv-x="563" 
d="M95 0v705h86v-629h358v-76h-444zM295 478v227h78l-22 -227h-56z" />
    <glyph glyph-name="uni013B" unicode="&#x13b;" horiz-adv-x="563" 
d="M95 0v705h86v-629h358v-76h-444zM317 -277l-38 27q23 24 31.5 47t8.5 48l19 -11h-70v87h102v-65q0 -39 -12.5 -72.5t-40.5 -60.5z" />
    <glyph glyph-name="Ldot" unicode="&#x13f;" horiz-adv-x="563" 
d="M95 0v705h86v-629h358v-76h-444zM359 342v95h106v-95h-106z" />
    <glyph glyph-name="uni1E36" unicode="&#x1e36;" horiz-adv-x="563" 
d="M95 0v705h86v-629h358v-76h-444zM272 -189v91h94v-91h-94z" />
    <glyph glyph-name="uni01C8" unicode="&#x1c8;" horiz-adv-x="806" 
d="M95 0v705h86v-629h358v-76h-444zM634 610v95h104v-95h-104zM512 -193l-6 68l45 5q45 5 69 30.5t24 77.5v502h85v-496q0 -43 -10.5 -75.5t-31 -55t-52.5 -35.5t-76 -17z" />
    <glyph glyph-name="uni1E3A" unicode="&#x1e3a;" horiz-adv-x="563" 
d="M95 0v705h86v-629h358v-76h-444zM165 -160v61h308v-61h-308z" />
    <glyph glyph-name="Lslash" unicode="&#x141;" horiz-adv-x="563" 
d="M95 0v705h86v-629h358v-76h-444zM18 251l-36 62l368 211l35 -62z" />
    <glyph glyph-name="M" unicode="M" horiz-adv-x="882" 
d="M97 0v705h85l270 -520h-19l269 520h83v-705h-80v587h14l-247 -477h-60l-249 477h15v-587h-81z" />
    <glyph glyph-name="uni1E42" unicode="&#x1e42;" horiz-adv-x="882" 
d="M97 0v705h85l270 -520h-19l269 520h83v-705h-80v587h14l-247 -477h-60l-249 477h15v-587h-81zM391 -189v91h94v-91h-94z" />
    <glyph glyph-name="N" unicode="N" horiz-adv-x="770" 
d="M95 0v705h72l441 -586h-15v586h81v-705h-72l-439 585h13v-585h-81z" />
    <glyph glyph-name="uni01CA" unicode="&#x1ca;" horiz-adv-x="1126" 
d="M95 0v705h72l441 -586h-15v586h81v-705h-72l-439 585h13v-585h-81zM773 -7l-6 73l69 4q34 3 58 18t37.5 42t13.5 63v512h86v-515q0 -57 -22 -99.5t-63 -66t-99 -27.5z" />
    <glyph glyph-name="Nacute" unicode="&#x143;" horiz-adv-x="770" 
d="M95 0v705h72l441 -586h-15v586h81v-705h-72l-439 585h13v-585h-81zM353 765l118 172h99l-149 -172h-68z" />
    <glyph glyph-name="Ncaron" unicode="&#x147;" horiz-adv-x="770" 
d="M95 0v705h72l441 -586h-15v586h81v-705h-72l-439 585h13v-585h-81zM347 765l-124 172h67l97 -118l98 118h66l-124 -172h-80z" />
    <glyph glyph-name="uni0145" unicode="&#x145;" horiz-adv-x="770" 
d="M95 0v705h72l441 -586h-15v586h81v-705h-72l-439 585h13v-585h-81zM384 -277l-38 27q23 24 31.5 47t8.5 48l19 -11h-70v87h102v-65q0 -39 -12.5 -72.5t-40.5 -60.5z" />
    <glyph glyph-name="uni1E44" unicode="&#x1e44;" horiz-adv-x="770" 
d="M95 0v705h72l441 -586h-15v586h81v-705h-72l-439 585h13v-585h-81zM339 805v93h96v-93h-96z" />
    <glyph glyph-name="uni1E46" unicode="&#x1e46;" horiz-adv-x="770" 
d="M95 0v705h72l441 -586h-15v586h81v-705h-72l-439 585h13v-585h-81zM339 -189v91h94v-91h-94z" />
    <glyph glyph-name="uni01CB" unicode="&#x1cb;" horiz-adv-x="1013" 
d="M95 0v705h72l441 -586h-15v586h81v-705h-72l-439 585h13v-585h-81zM841 610v95h104v-95h-104zM719 -193l-6 68l45 5q45 5 69 30.5t24 77.5v502h85v-496q0 -43 -10.5 -75.5t-31 -55t-52.5 -35.5t-76 -17z" />
    <glyph glyph-name="uni1E48" unicode="&#x1e48;" horiz-adv-x="770" 
d="M95 0v705h72l441 -586h-15v586h81v-705h-72l-439 585h13v-585h-81zM232 -160v61h308v-61h-308z" />
    <glyph glyph-name="Ntilde" unicode="&#xd1;" horiz-adv-x="770" 
d="M95 0v705h72l441 -586h-15v586h81v-705h-72l-439 585h13v-585h-81zM228 781l-52 3q7 65 39 100.5t82 35.5q26 0 50.5 -11t53.5 -30q28 -18 45 -25.5t32 -7.5q29 0 45.5 19.5t22.5 57.5l52 -3q-6 -65 -38 -100.5t-82 -35.5q-25 0 -50.5 11.5t-55.5 30.5q-25 17 -43 24.5
t-33 7.5q-29 0 -45.5 -19.5t-22.5 -57.5z" />
    <glyph glyph-name="Eng" unicode="&#x14a;" horiz-adv-x="770" 
d="M461 -193l-6 68l44 4q46 5 70.5 30t24.5 76v57l12 -45l-443 588h13v-585h-81v705h71l442 -586h-15v586h81v-711q0 -34 -6 -61t-19 -48.5t-33 -37t-48 -24.5t-63 -12z" />
    <glyph glyph-name="O" unicode="O" horiz-adv-x="786" 
d="M393 -9q-75 0 -135 25t-102.5 72.5t-65 114t-22.5 150.5t22.5 150.5t65 113.5t102.5 72t135 25t135 -25t103 -72t65.5 -113.5t22.5 -149.5q0 -84 -23 -151t-65.5 -114.5t-102.5 -72.5t-135 -25zM393 68q75 0 127.5 33t80.5 97t28 155q0 92 -27.5 155t-80.5 96t-128 33
q-74 0 -126.5 -33t-80.5 -96.5t-28 -154.5t28 -154.5t80.5 -97t126.5 -33.5z" />
    <glyph glyph-name="Oacute" unicode="&#xd3;" horiz-adv-x="786" 
d="M393 -9q-75 0 -135 25t-102.5 72.5t-65 114t-22.5 150.5t22.5 150.5t65 113.5t102.5 72t135 25t135 -25t103 -72t65.5 -113.5t22.5 -149.5q0 -84 -23 -151t-65.5 -114.5t-102.5 -72.5t-135 -25zM393 68q75 0 127.5 33t80.5 97t28 155q0 92 -27.5 155t-80.5 96t-128 33
q-74 0 -126.5 -33t-80.5 -96.5t-28 -154.5t28 -154.5t80.5 -97t126.5 -33.5zM359 765l118 172h99l-149 -172h-68z" />
    <glyph glyph-name="Obreve" unicode="&#x14e;" horiz-adv-x="786" 
d="M393 -9q-75 0 -135 25t-102.5 72.5t-65 114t-22.5 150.5t22.5 150.5t65 113.5t102.5 72t135 25t135 -25t103 -72t65.5 -113.5t22.5 -149.5q0 -84 -23 -151t-65.5 -114.5t-102.5 -72.5t-135 -25zM393 68q75 0 127.5 33t80.5 97t28 155q0 92 -27.5 155t-80.5 96t-128 33
q-74 0 -126.5 -33t-80.5 -96.5t-28 -154.5t28 -154.5t80.5 -97t126.5 -33.5zM393 760q-71 0 -118 45.5t-53 124.5l55 7q5 -55 35 -86t81 -31t81.5 31.5t34.5 85.5l56 -7q-7 -79 -53.5 -124.5t-118.5 -45.5z" />
    <glyph glyph-name="Ocircumflex" unicode="&#xd4;" horiz-adv-x="786" 
d="M393 -9q-75 0 -135 25t-102.5 72.5t-65 114t-22.5 150.5t22.5 150.5t65 113.5t102.5 72t135 25t135 -25t103 -72t65.5 -113.5t22.5 -149.5q0 -84 -23 -151t-65.5 -114.5t-102.5 -72.5t-135 -25zM393 68q75 0 127.5 33t80.5 97t28 155q0 92 -27.5 155t-80.5 96t-128 33
q-74 0 -126.5 -33t-80.5 -96.5t-28 -154.5t28 -154.5t80.5 -97t126.5 -33.5zM229 765l124 172h80l124 -172h-67l-97 117l-98 -117h-66z" />
    <glyph glyph-name="uni1ED0" unicode="&#x1ed0;" horiz-adv-x="786" 
d="M393 -9q-75 0 -135 25t-102.5 72.5t-65 114t-22.5 150.5t22.5 150.5t65 113.5t102.5 72t135 25t135 -25t103 -72t65.5 -113.5t22.5 -149.5q0 -84 -23 -151t-65.5 -114.5t-102.5 -72.5t-135 -25zM393 68q75 0 127.5 33t80.5 97t28 155q0 92 -27.5 155t-80.5 96t-128 33
q-74 0 -126.5 -33t-80.5 -96.5t-28 -154.5t28 -154.5t80.5 -97t126.5 -33.5zM240 766l112 165h82l112 -165h-62l-91 111l-92 -111h-61zM490 875l83 150h82l-109 -150h-56z" />
    <glyph glyph-name="uni1ED8" unicode="&#x1ed8;" horiz-adv-x="786" 
d="M393 -9q-75 0 -135 25t-102.5 72.5t-65 114t-22.5 150.5t22.5 150.5t65 113.5t102.5 72t135 25t135 -25t103 -72t65.5 -113.5t22.5 -149.5q0 -84 -23 -151t-65.5 -114.5t-102.5 -72.5t-135 -25zM393 68q75 0 127.5 33t80.5 97t28 155q0 92 -27.5 155t-80.5 96t-128 33
q-74 0 -126.5 -33t-80.5 -96.5t-28 -154.5t28 -154.5t80.5 -97t126.5 -33.5zM346 -189v91h94v-91h-94zM229 765l124 172h80l124 -172h-67l-97 117l-98 -117h-66z" />
    <glyph glyph-name="uni1ED2" unicode="&#x1ed2;" horiz-adv-x="786" 
d="M393 -9q-75 0 -135 25t-102.5 72.5t-65 114t-22.5 150.5t22.5 150.5t65 113.5t102.5 72t135 25t135 -25t103 -72t65.5 -113.5t22.5 -149.5q0 -84 -23 -151t-65.5 -114.5t-102.5 -72.5t-135 -25zM393 68q75 0 127.5 33t80.5 97t28 155q0 92 -27.5 155t-80.5 96t-128 33
q-74 0 -126.5 -33t-80.5 -96.5t-28 -154.5t28 -154.5t80.5 -97t126.5 -33.5zM240 766l112 165h82l112 -165h-62l-91 111l-92 -111h-61zM530 875l-109 150h82l83 -150h-56z" />
    <glyph glyph-name="uni1ED4" unicode="&#x1ed4;" horiz-adv-x="786" 
d="M393 -9q-75 0 -135 25t-102.5 72.5t-65 114t-22.5 150.5t22.5 150.5t65 113.5t102.5 72t135 25t135 -25t103 -72t65.5 -113.5t22.5 -149.5q0 -84 -23 -151t-65.5 -114.5t-102.5 -72.5t-135 -25zM393 68q75 0 127.5 33t80.5 97t28 155q0 92 -27.5 155t-80.5 96t-128 33
q-74 0 -126.5 -33t-80.5 -96.5t-28 -154.5t28 -154.5t80.5 -97t126.5 -33.5zM240 766l112 160h82l112 -160h-62l-91 109l-92 -109h-61zM496 875q0 21 8.5 33.5t20.5 21t20.5 16.5t8.5 19q0 12 -11 15.5t-33 3.5q-13 0 -27.5 -2.5t-32.5 -9.5l-13 40q18 9 39.5 13.5t50.5 4.5
q44 0 68 -14t24 -38q0 -20 -10.5 -32t-24 -21.5t-23.5 -20.5t-10 -29h-55z" />
    <glyph glyph-name="uni1ED6" unicode="&#x1ed6;" horiz-adv-x="786" 
d="M393 -9q-75 0 -135 25t-102.5 72.5t-65 114t-22.5 150.5t22.5 150.5t65 113.5t102.5 72t135 25t135 -25t103 -72t65.5 -113.5t22.5 -149.5q0 -84 -23 -151t-65.5 -114.5t-102.5 -72.5t-135 -25zM393 68q75 0 127.5 33t80.5 97t28 155q0 92 -27.5 155t-80.5 96t-128 33
q-74 0 -126.5 -33t-80.5 -96.5t-28 -154.5t28 -154.5t80.5 -97t126.5 -33.5zM240 766l112 133h82l112 -133h-60l-93 85l-92 -85h-61zM279 924l-48 2q5 52 30 78t66 26q20 0 38 -7.5t38 -21.5q19 -12 31 -17.5t23 -5.5q23 0 34 12.5t16 41.5l48 -3q-3 -51 -28.5 -77.5
t-66.5 -26.5q-21 0 -39 8.5t-40 22.5q-15 9 -27 15t-25 6q-21 0 -33 -12.5t-17 -40.5z" />
    <glyph glyph-name="uni020C" unicode="&#x20c;" horiz-adv-x="786" 
d="M393 -9q-75 0 -135 25t-102.5 72.5t-65 114t-22.5 150.5t22.5 150.5t65 113.5t102.5 72t135 25t135 -25t103 -72t65.5 -113.5t22.5 -149.5q0 -84 -23 -151t-65.5 -114.5t-102.5 -72.5t-135 -25zM393 68q75 0 127.5 33t80.5 97t28 155q0 92 -27.5 155t-80.5 96t-128 33
q-74 0 -126.5 -33t-80.5 -96.5t-28 -154.5t28 -154.5t80.5 -97t126.5 -33.5zM432 765l-119 172h86l85 -172h-52zM302 765l-125 172h86l90 -172h-51z" />
    <glyph glyph-name="Odieresis" unicode="&#xd6;" horiz-adv-x="786" 
d="M393 -9q-75 0 -135 25t-102.5 72.5t-65 114t-22.5 150.5t22.5 150.5t65 113.5t102.5 72t135 25t135 -25t103 -72t65.5 -113.5t22.5 -149.5q0 -84 -23 -151t-65.5 -114.5t-102.5 -72.5t-135 -25zM393 68q75 0 127.5 33t80.5 97t28 155q0 92 -27.5 155t-80.5 96t-128 33
q-74 0 -126.5 -33t-80.5 -96.5t-28 -154.5t28 -154.5t80.5 -97t126.5 -33.5zM439 804v90h92v-90h-92zM255 804v90h92v-90h-92z" />
    <glyph glyph-name="uni022A" unicode="&#x22a;" horiz-adv-x="786" 
d="M393 -9q-75 0 -135 25t-102.5 72.5t-65 114t-22.5 150.5t22.5 150.5t65 113.5t102.5 72t135 25t135 -25t103 -72t65.5 -113.5t22.5 -149.5q0 -84 -23 -151t-65.5 -114.5t-102.5 -72.5t-135 -25zM393 68q75 0 127.5 33t80.5 97t28 155q0 92 -27.5 155t-80.5 96t-128 33
q-74 0 -126.5 -33t-80.5 -96.5t-28 -154.5t28 -154.5t80.5 -97t126.5 -33.5zM239 927v60h308v-60h-308zM256 795v77h92v-77h-92zM438 795v77h92v-77h-92z" />
    <glyph glyph-name="uni0230" unicode="&#x230;" horiz-adv-x="786" 
d="M393 -9q-75 0 -135 25t-102.5 72.5t-65 114t-22.5 150.5t22.5 150.5t65 113.5t102.5 72t135 25t135 -25t103 -72t65.5 -113.5t22.5 -149.5q0 -84 -23 -151t-65.5 -114.5t-102.5 -72.5t-135 -25zM393 68q75 0 127.5 33t80.5 97t28 155q0 92 -27.5 155t-80.5 96t-128 33
q-74 0 -126.5 -33t-80.5 -96.5t-28 -154.5t28 -154.5t80.5 -97t126.5 -33.5zM243 927v59h300v-59h-300zM348 796v77h91v-77h-91z" />
    <glyph glyph-name="uni1ECC" unicode="&#x1ecc;" horiz-adv-x="786" 
d="M393 -9q-75 0 -135 25t-102.5 72.5t-65 114t-22.5 150.5t22.5 150.5t65 113.5t102.5 72t135 25t135 -25t103 -72t65.5 -113.5t22.5 -149.5q0 -84 -23 -151t-65.5 -114.5t-102.5 -72.5t-135 -25zM393 68q75 0 127.5 33t80.5 97t28 155q0 92 -27.5 155t-80.5 96t-128 33
q-74 0 -126.5 -33t-80.5 -96.5t-28 -154.5t28 -154.5t80.5 -97t126.5 -33.5zM346 -189v91h94v-91h-94z" />
    <glyph glyph-name="Ograve" unicode="&#xd2;" horiz-adv-x="786" 
d="M393 -9q-75 0 -135 25t-102.5 72.5t-65 114t-22.5 150.5t22.5 150.5t65 113.5t102.5 72t135 25t135 -25t103 -72t65.5 -113.5t22.5 -149.5q0 -84 -23 -151t-65.5 -114.5t-102.5 -72.5t-135 -25zM393 68q75 0 127.5 33t80.5 97t28 155q0 92 -27.5 155t-80.5 96t-128 33
q-74 0 -126.5 -33t-80.5 -96.5t-28 -154.5t28 -154.5t80.5 -97t126.5 -33.5zM361 765l-150 172h98l118 -172h-66z" />
    <glyph glyph-name="uni1ECE" unicode="&#x1ece;" horiz-adv-x="786" 
d="M393 -9q-75 0 -135 25t-102.5 72.5t-65 114t-22.5 150.5t22.5 150.5t65 113.5t102.5 72t135 25t135 -25t103 -72t65.5 -113.5t22.5 -149.5q0 -84 -23 -151t-65.5 -114.5t-102.5 -72.5t-135 -25zM393 68q75 0 127.5 33t80.5 97t28 155q0 92 -27.5 155t-80.5 96t-128 33
q-74 0 -126.5 -33t-80.5 -96.5t-28 -154.5t28 -154.5t80.5 -97t126.5 -33.5zM364 765v16q0 20 9.5 32.5t21.5 21.5t21.5 17t9.5 19t-10.5 16.5t-33.5 5.5q-15 0 -31 -3t-34 -10l-14 44q19 9 43 14t52 5q46 0 72 -16t26 -45q0 -21 -11 -34t-25.5 -22t-25.5 -20t-11 -30v-11
h-59z" />
    <glyph glyph-name="Ohorn" unicode="&#x1a0;" horiz-adv-x="786" 
d="M393 -9q-75 0 -135 25t-102.5 72.5t-65 114t-22.5 150.5t22.5 150.5t65 113.5t102.5 72t135 25t135 -25t103 -72t65.5 -113.5t22.5 -149.5q0 -84 -23 -151t-65.5 -114.5t-102.5 -72.5t-135 -25zM393 68q75 0 127.5 33t80.5 97t28 155q0 92 -27.5 155t-80.5 96t-128 33
q-74 0 -126.5 -33t-80.5 -96.5t-28 -154.5t28 -154.5t80.5 -97t126.5 -33.5zM499 652l-48 57q24 -2 43.5 -3t36.5 -1q43 0 66.5 12t32.5 37t9 63v17h79v-29q0 -45 -17.5 -79.5t-49.5 -54t-76 -19.5h-76z" />
    <glyph glyph-name="uni1EDA" unicode="&#x1eda;" horiz-adv-x="786" 
d="M393 -9q-75 0 -135 25t-102.5 72.5t-65 114t-22.5 150.5t22.5 150.5t65 113.5t102.5 72t135 25t135 -25t103 -72t65.5 -113.5t22.5 -149.5q0 -84 -23 -151t-65.5 -114.5t-102.5 -72.5t-135 -25zM393 68q75 0 127.5 33t80.5 97t28 155q0 92 -27.5 155t-80.5 96t-128 33
q-74 0 -126.5 -33t-80.5 -96.5t-28 -154.5t28 -154.5t80.5 -97t126.5 -33.5zM499 652l-48 57q24 -2 43.5 -3t36.5 -1q43 0 66.5 12t32.5 37t9 63v17h79v-29q0 -45 -17.5 -79.5t-49.5 -54t-76 -19.5h-76zM349 765l118 172h99l-149 -172h-68z" />
    <glyph glyph-name="uni1EE2" unicode="&#x1ee2;" horiz-adv-x="786" 
d="M393 -9q-75 0 -135 25t-102.5 72.5t-65 114t-22.5 150.5t22.5 150.5t65 113.5t102.5 72t135 25t135 -25t103 -72t65.5 -113.5t22.5 -149.5q0 -84 -23 -151t-65.5 -114.5t-102.5 -72.5t-135 -25zM393 68q75 0 127.5 33t80.5 97t28 155q0 92 -27.5 155t-80.5 96t-128 33
q-74 0 -126.5 -33t-80.5 -96.5t-28 -154.5t28 -154.5t80.5 -97t126.5 -33.5zM499 652l-48 57q24 -2 43.5 -3t36.5 -1q43 0 66.5 12t32.5 37t9 63v17h79v-29q0 -45 -17.5 -79.5t-49.5 -54t-76 -19.5h-76zM346 -189v91h94v-91h-94z" />
    <glyph glyph-name="uni1EDC" unicode="&#x1edc;" horiz-adv-x="786" 
d="M393 -9q-75 0 -135 25t-102.5 72.5t-65 114t-22.5 150.5t22.5 150.5t65 113.5t102.5 72t135 25t135 -25t103 -72t65.5 -113.5t22.5 -149.5q0 -84 -23 -151t-65.5 -114.5t-102.5 -72.5t-135 -25zM393 68q75 0 127.5 33t80.5 97t28 155q0 92 -27.5 155t-80.5 96t-128 33
q-74 0 -126.5 -33t-80.5 -96.5t-28 -154.5t28 -154.5t80.5 -97t126.5 -33.5zM499 652l-48 57q24 -2 43.5 -3t36.5 -1q43 0 66.5 12t32.5 37t9 63v17h79v-29q0 -45 -17.5 -79.5t-49.5 -54t-76 -19.5h-76zM351 765l-150 172h98l118 -172h-66z" />
    <glyph glyph-name="uni1EDE" unicode="&#x1ede;" horiz-adv-x="786" 
d="M393 -9q-75 0 -135 25t-102.5 72.5t-65 114t-22.5 150.5t22.5 150.5t65 113.5t102.5 72t135 25t135 -25t103 -72t65.5 -113.5t22.5 -149.5q0 -84 -23 -151t-65.5 -114.5t-102.5 -72.5t-135 -25zM393 68q75 0 127.5 33t80.5 97t28 155q0 92 -27.5 155t-80.5 96t-128 33
q-74 0 -126.5 -33t-80.5 -96.5t-28 -154.5t28 -154.5t80.5 -97t126.5 -33.5zM499 652l-48 57q24 -2 43.5 -3t36.5 -1q43 0 66.5 12t32.5 37t9 63v17h79v-29q0 -45 -17.5 -79.5t-49.5 -54t-76 -19.5h-76zM354 765v16q0 20 9.5 32.5t21.5 21.5t21.5 17t9.5 19t-10.5 16.5
t-33.5 5.5q-15 0 -31 -3t-34 -10l-14 44q19 9 43 14t52 5q46 0 72 -16t26 -45q0 -21 -11 -34t-25.5 -22t-25.5 -20t-11 -30v-11h-59z" />
    <glyph glyph-name="uni1EE0" unicode="&#x1ee0;" horiz-adv-x="786" 
d="M393 -9q-75 0 -135 25t-102.5 72.5t-65 114t-22.5 150.5t22.5 150.5t65 113.5t102.5 72t135 25t135 -25t103 -72t65.5 -113.5t22.5 -149.5q0 -84 -23 -151t-65.5 -114.5t-102.5 -72.5t-135 -25zM393 68q75 0 127.5 33t80.5 97t28 155q0 92 -27.5 155t-80.5 96t-128 33
q-74 0 -126.5 -33t-80.5 -96.5t-28 -154.5t28 -154.5t80.5 -97t126.5 -33.5zM499 652l-48 57q24 -2 43.5 -3t36.5 -1q43 0 66.5 12t32.5 37t9 63v17h79v-29q0 -45 -17.5 -79.5t-49.5 -54t-76 -19.5h-76zM234 781l-51 3q4 44 19 74.5t40.5 46t57.5 15.5q25 0 46.5 -11
t44.5 -30q20 -16 35.5 -25t31.5 -9q29 0 44.5 20.5t22.5 57.5l50 -3q-3 -43 -18.5 -73.5t-40 -46.5t-57.5 -16q-27 0 -48.5 12.5t-43.5 29.5q-19 16 -35 24.5t-31 8.5q-30 0 -45.5 -20t-21.5 -58z" />
    <glyph glyph-name="Ohungarumlaut" unicode="&#x150;" horiz-adv-x="786" 
d="M393 -9q-75 0 -135 25t-102.5 72.5t-65 114t-22.5 150.5t22.5 150.5t65 113.5t102.5 72t135 25t135 -25t103 -72t65.5 -113.5t22.5 -149.5q0 -84 -23 -151t-65.5 -114.5t-102.5 -72.5t-135 -25zM393 68q75 0 127.5 33t80.5 97t28 155q0 92 -27.5 155t-80.5 96t-128 33
q-74 0 -126.5 -33t-80.5 -96.5t-28 -154.5t28 -154.5t80.5 -97t126.5 -33.5zM302 765l86 172h86l-120 -172h-52zM432 765l91 172h86l-125 -172h-52z" />
    <glyph glyph-name="uni020E" unicode="&#x20e;" horiz-adv-x="786" 
d="M393 -9q-75 0 -135 25t-102.5 72.5t-65 114t-22.5 150.5t22.5 150.5t65 113.5t102.5 72t135 25t135 -25t103 -72t65.5 -113.5t22.5 -149.5q0 -84 -23 -151t-65.5 -114.5t-102.5 -72.5t-135 -25zM393 68q75 0 127.5 33t80.5 97t28 155q0 92 -27.5 155t-80.5 96t-128 33
q-74 0 -126.5 -33t-80.5 -96.5t-28 -154.5t28 -154.5t80.5 -97t126.5 -33.5zM278 760l-56 7q6 80 53 125t118 45q72 0 119 -45.5t53 -124.5l-56 -7q-4 55 -34.5 86.5t-81.5 31.5q-50 0 -80.5 -31t-34.5 -87z" />
    <glyph glyph-name="Omacron" unicode="&#x14c;" horiz-adv-x="786" 
d="M393 -9q-75 0 -135 25t-102.5 72.5t-65 114t-22.5 150.5t22.5 150.5t65 113.5t102.5 72t135 25t135 -25t103 -72t65.5 -113.5t22.5 -149.5q0 -84 -23 -151t-65.5 -114.5t-102.5 -72.5t-135 -25zM393 68q75 0 127.5 33t80.5 97t28 155q0 92 -27.5 155t-80.5 96t-128 33
q-74 0 -126.5 -33t-80.5 -96.5t-28 -154.5t28 -154.5t80.5 -97t126.5 -33.5zM228 813v61h330v-61h-330z" />
    <glyph glyph-name="uni1E52" unicode="&#x1e52;" horiz-adv-x="786" 
d="M393 -9q-75 0 -135 25t-102.5 72.5t-65 114t-22.5 150.5t22.5 150.5t65 113.5t102.5 72t135 25t135 -25t103 -72t65.5 -113.5t22.5 -149.5q0 -84 -23 -151t-65.5 -114.5t-102.5 -72.5t-135 -25zM393 68q75 0 127.5 33t80.5 97t28 155q0 92 -27.5 155t-80.5 96t-128 33
q-74 0 -126.5 -33t-80.5 -96.5t-28 -154.5t28 -154.5t80.5 -97t126.5 -33.5zM241 791v59h304v-59h-304zM361 888l85 142h94l-118 -142h-61z" />
    <glyph glyph-name="uni1E50" unicode="&#x1e50;" horiz-adv-x="786" 
d="M393 -9q-75 0 -135 25t-102.5 72.5t-65 114t-22.5 150.5t22.5 150.5t65 113.5t102.5 72t135 25t135 -25t103 -72t65.5 -113.5t22.5 -149.5q0 -84 -23 -151t-65.5 -114.5t-102.5 -72.5t-135 -25zM393 68q75 0 127.5 33t80.5 97t28 155q0 92 -27.5 155t-80.5 96t-128 33
q-74 0 -126.5 -33t-80.5 -96.5t-28 -154.5t28 -154.5t80.5 -97t126.5 -33.5zM364 888l-117 142h93l85 -142h-61zM241 791v59h304v-59h-304z" />
    <glyph glyph-name="uni01EA" unicode="&#x1ea;" horiz-adv-x="786" 
d="M393 -9q-75 0 -135 25t-102.5 72.5t-65 114t-22.5 150.5t22.5 150.5t65 113.5t102.5 72t135 25t135 -25t103 -72t65.5 -113.5t22.5 -149.5q0 -84 -23 -151t-65.5 -114.5t-102.5 -72.5t-135 -25zM393 68q75 0 127.5 33t80.5 97t28 155q0 92 -27.5 155t-80.5 96t-128 33
q-74 0 -126.5 -33t-80.5 -96.5t-28 -154.5t28 -154.5t80.5 -97t126.5 -33.5zM434 -194q-49 0 -78.5 26.5t-29.5 70.5q0 40 26.5 76t70.5 58l31 -37q-15 -7 -30.5 -19.5t-25.5 -29.5t-10 -37q0 -28 16.5 -40.5t39.5 -12.5q14 0 27 2.5t27 8.5l15 -49q-15 -8 -35 -12.5
t-44 -4.5z" />
    <glyph glyph-name="Oslash" unicode="&#xd8;" horiz-adv-x="786" 
d="M393 -9q-75 0 -135 25t-102.5 72.5t-65 114t-22.5 150.5t22.5 150.5t65 113.5t102.5 72t135 25t135 -25t103 -72t65.5 -113.5t22.5 -149.5q0 -84 -23 -151t-65.5 -114.5t-102.5 -72.5t-135 -25zM393 68q75 0 127.5 33t80.5 97t28 155q0 92 -27.5 155t-80.5 96t-128 33
q-74 0 -126.5 -33t-80.5 -96.5t-28 -154.5t28 -154.5t80.5 -97t126.5 -33.5zM204 -47l-62 36l56 95l27 42l290 497l19 38l56 95l61 -36l-56 -95l-27 -42l-290 -497l-19 -38z" />
    <glyph glyph-name="Oslashacute" unicode="&#x1fe;" horiz-adv-x="786" 
d="M393 -9q-75 0 -135 25t-102.5 72.5t-65 114t-22.5 150.5t22.5 150.5t65 113.5t102.5 72t135 25t135 -25t103 -72t65.5 -113.5t22.5 -149.5q0 -84 -23 -151t-65.5 -114.5t-102.5 -72.5t-135 -25zM393 68q75 0 127.5 33t80.5 97t28 155q0 92 -27.5 155t-80.5 96t-128 33
q-74 0 -126.5 -33t-80.5 -96.5t-28 -154.5t28 -154.5t80.5 -97t126.5 -33.5zM204 -47l-62 36l56 95l27 42l290 497l19 38l56 95l61 -36l-56 -95l-27 -42l-290 -497l-19 -38zM359 765l118 172h99l-149 -172h-68z" />
    <glyph glyph-name="Otilde" unicode="&#xd5;" horiz-adv-x="786" 
d="M393 -9q-75 0 -135 25t-102.5 72.5t-65 114t-22.5 150.5t22.5 150.5t65 113.5t102.5 72t135 25t135 -25t103 -72t65.5 -113.5t22.5 -149.5q0 -84 -23 -151t-65.5 -114.5t-102.5 -72.5t-135 -25zM393 68q75 0 127.5 33t80.5 97t28 155q0 92 -27.5 155t-80.5 96t-128 33
q-74 0 -126.5 -33t-80.5 -96.5t-28 -154.5t28 -154.5t80.5 -97t126.5 -33.5zM234 781l-52 3q7 65 39 100.5t82 35.5q26 0 50.5 -11t53.5 -30q28 -18 45 -25.5t32 -7.5q29 0 45.5 19.5t22.5 57.5l52 -3q-6 -65 -38 -100.5t-82 -35.5q-25 0 -50.5 11.5t-55.5 30.5
q-25 17 -43 24.5t-33 7.5q-29 0 -45.5 -19.5t-22.5 -57.5z" />
    <glyph glyph-name="uni1E4C" unicode="&#x1e4c;" horiz-adv-x="786" 
d="M393 -9q-75 0 -135 25t-102.5 72.5t-65 114t-22.5 150.5t22.5 150.5t65 113.5t102.5 72t135 25t135 -25t103 -72t65.5 -113.5t22.5 -149.5q0 -84 -23 -151t-65.5 -114.5t-102.5 -72.5t-135 -25zM393 68q75 0 127.5 33t80.5 97t28 155q0 92 -27.5 155t-80.5 96t-128 33
q-74 0 -126.5 -33t-80.5 -96.5t-28 -154.5t28 -154.5t80.5 -97t126.5 -33.5zM362 887l86 142h93l-117 -142h-62zM460 767q-21 0 -38.5 8t-39.5 22q-17 13 -29 18t-24 5q-22 0 -33.5 -13t-16.5 -41l-48 2q3 35 15 58.5t32.5 35t48.5 11.5q19 0 36.5 -7t38.5 -21
q19 -12 31.5 -18t23.5 -6q23 0 34 13t16 41l48 -3q-4 -52 -29 -78.5t-66 -26.5z" />
    <glyph glyph-name="uni1E4E" unicode="&#x1e4e;" horiz-adv-x="786" 
d="M393 -9q-75 0 -135 25t-102.5 72.5t-65 114t-22.5 150.5t22.5 150.5t65 113.5t102.5 72t135 25t135 -25t103 -72t65.5 -113.5t22.5 -149.5q0 -84 -23 -151t-65.5 -114.5t-102.5 -72.5t-135 -25zM393 68q75 0 127.5 33t80.5 97t28 155q0 92 -27.5 155t-80.5 96t-128 33
q-74 0 -126.5 -33t-80.5 -96.5t-28 -154.5t28 -154.5t80.5 -97t126.5 -33.5zM460 767q-21 0 -38.5 8t-39.5 22q-17 13 -29 18t-24 5q-22 0 -33.5 -13t-16.5 -41l-48 2q3 35 15 58.5t32.5 35t48.5 11.5q19 0 36.5 -7t38.5 -21q19 -12 31.5 -18t23.5 -6q23 0 34 13t16 41
l48 -3q-4 -52 -29 -78.5t-66 -26.5zM256 915v77h92v-77h-92zM438 915v77h92v-77h-92z" />
    <glyph glyph-name="uni022C" unicode="&#x22c;" horiz-adv-x="786" 
d="M393 -9q-75 0 -135 25t-102.5 72.5t-65 114t-22.5 150.5t22.5 150.5t65 113.5t102.5 72t135 25t135 -25t103 -72t65.5 -113.5t22.5 -149.5q0 -84 -23 -151t-65.5 -114.5t-102.5 -72.5t-135 -25zM393 68q75 0 127.5 33t80.5 97t28 155q0 92 -27.5 155t-80.5 96t-128 33
q-74 0 -126.5 -33t-80.5 -96.5t-28 -154.5t28 -154.5t80.5 -97t126.5 -33.5zM239 928v59h308v-59h-308zM460 767q-21 0 -38.5 8t-39.5 22q-17 13 -29 18t-24 5q-22 0 -33.5 -13t-16.5 -41l-48 2q3 35 15 58.5t32.5 35t48.5 11.5q19 0 36.5 -7t38.5 -21q19 -12 31.5 -18
t23.5 -6q23 0 34 13t16 41l48 -3q-4 -52 -29 -78.5t-66 -26.5z" />
    <glyph glyph-name="OE" unicode="&#x152;" horiz-adv-x="1078" 
d="M424 0q-86 0 -152.5 23.5t-111.5 69t-68.5 110.5t-23.5 150q0 84 23.5 149.5t69 111t111.5 68.5t152 23h591v-73h-368v-238h347v-73h-347v-248h368v-73h-591zM429 74h134v557h-134q-135 0 -203 -69.5t-68 -208.5q0 -140 68 -209.5t203 -69.5z" />
    <glyph glyph-name="P" unicode="P" horiz-adv-x="660" 
d="M95 0v705h285q76 0 129 -25t80.5 -72t27.5 -115q0 -67 -28 -114.5t-80.5 -73t-128.5 -25.5h-199v-280h-86zM181 352h188q80 0 121 35.5t41 105.5t-41 105t-121 35h-188v-281z" />
    <glyph glyph-name="Thorn" unicode="&#xde;" horiz-adv-x="656" 
d="M95 0v705h86v-128h200q75 0 128 -24.5t81 -71.5t28 -115q0 -66 -28 -114t-81 -73t-128 -25h-200v-154h-86zM181 226h188q81 0 122 35t41 105t-41 104.5t-122 34.5h-188v-279z" />
    <glyph glyph-name="Q" unicode="Q" horiz-adv-x="786" 
d="M590 -201l-84 136q-16 27 -44 41.5t-66 14.5l67 29q33 0 56 -6.5t41.5 -22.5t35.5 -46l67 -107zM393 -9q-75 0 -135 25t-102.5 72.5t-65 114t-22.5 150.5t22.5 150.5t65 113.5t102.5 72t135 25t135 -25t103 -72t65.5 -113.5t22.5 -149.5q0 -84 -23 -151t-65.5 -114.5
t-102.5 -72.5t-135 -25zM393 68q75 0 127.5 33t80.5 97t28 155q0 92 -27.5 155t-80.5 96t-128 33q-74 0 -126.5 -33t-80.5 -96.5t-28 -154.5t28 -154.5t80.5 -97t126.5 -33.5z" />
    <glyph glyph-name="R" unicode="R" horiz-adv-x="693" 
d="M95 0v705h285q114 0 175 -52.5t61 -150.5q0 -60 -25 -103t-71.5 -67t-111.5 -28l7 8l15 -1q32 -2 56 -20.5t46 -58.5l124 -232h-94l-120 223q-15 29 -33 44.5t-41.5 21.5t-56.5 6h-130v-295h-86zM181 365h190q81 0 120.5 34t39.5 101t-40 100t-122 33h-188v-268z" />
    <glyph glyph-name="Racute" unicode="&#x154;" horiz-adv-x="693" 
d="M95 0v705h285q114 0 175 -52.5t61 -150.5q0 -60 -25 -103t-71.5 -67t-111.5 -28l7 8l15 -1q32 -2 56 -20.5t46 -58.5l124 -232h-94l-120 223q-15 29 -33 44.5t-41.5 21.5t-56.5 6h-130v-295h-86zM181 365h190q81 0 120.5 34t39.5 101t-40 100t-122 33h-188v-268zM316 765
l118 172h99l-149 -172h-68z" />
    <glyph glyph-name="Rcaron" unicode="&#x158;" horiz-adv-x="693" 
d="M95 0v705h285q114 0 175 -52.5t61 -150.5q0 -60 -25 -103t-71.5 -67t-111.5 -28l7 8l15 -1q32 -2 56 -20.5t46 -58.5l124 -232h-94l-120 223q-15 29 -33 44.5t-41.5 21.5t-56.5 6h-130v-295h-86zM181 365h190q81 0 120.5 34t39.5 101t-40 100t-122 33h-188v-268zM310 765
l-124 172h67l97 -118l98 118h66l-124 -172h-80z" />
    <glyph glyph-name="uni0156" unicode="&#x156;" horiz-adv-x="693" 
d="M95 0v705h285q114 0 175 -52.5t61 -150.5q0 -60 -25 -103t-71.5 -67t-111.5 -28l7 8l15 -1q32 -2 56 -20.5t46 -58.5l124 -232h-94l-120 223q-15 29 -33 44.5t-41.5 21.5t-56.5 6h-130v-295h-86zM181 365h190q81 0 120.5 34t39.5 101t-40 100t-122 33h-188v-268z
M349 -277l-38 27q23 24 31.5 47t8.5 48l19 -11h-70v87h102v-65q0 -39 -12.5 -72.5t-40.5 -60.5z" />
    <glyph glyph-name="uni0210" unicode="&#x210;" horiz-adv-x="693" 
d="M95 0v705h285q114 0 175 -52.5t61 -150.5q0 -60 -25 -103t-71.5 -67t-111.5 -28l7 8l15 -1q32 -2 56 -20.5t46 -58.5l124 -232h-94l-120 223q-15 29 -33 44.5t-41.5 21.5t-56.5 6h-130v-295h-86zM181 365h190q81 0 120.5 34t39.5 101t-40 100t-122 33h-188v-268zM389 765
l-119 172h86l85 -172h-52zM259 765l-125 172h86l90 -172h-51z" />
    <glyph glyph-name="uni1E5A" unicode="&#x1e5a;" horiz-adv-x="693" 
d="M95 0v705h285q114 0 175 -52.5t61 -150.5q0 -60 -25 -103t-71.5 -67t-111.5 -28l7 8l15 -1q32 -2 56 -20.5t46 -58.5l124 -232h-94l-120 223q-15 29 -33 44.5t-41.5 21.5t-56.5 6h-130v-295h-86zM181 365h190q81 0 120.5 34t39.5 101t-40 100t-122 33h-188v-268z
M304 -189v91h94v-91h-94z" />
    <glyph glyph-name="uni0212" unicode="&#x212;" horiz-adv-x="693" 
d="M95 0v705h285q114 0 175 -52.5t61 -150.5q0 -60 -25 -103t-71.5 -67t-111.5 -28l7 8l15 -1q32 -2 56 -20.5t46 -58.5l124 -232h-94l-120 223q-15 29 -33 44.5t-41.5 21.5t-56.5 6h-130v-295h-86zM181 365h190q81 0 120.5 34t39.5 101t-40 100t-122 33h-188v-268zM235 760
l-56 7q6 80 53 125t118 45q72 0 119 -45.5t53 -124.5l-56 -7q-4 55 -34.5 86.5t-81.5 31.5q-50 0 -80.5 -31t-34.5 -87z" />
    <glyph glyph-name="uni1E5E" unicode="&#x1e5e;" horiz-adv-x="693" 
d="M95 0v705h285q114 0 175 -52.5t61 -150.5q0 -60 -25 -103t-71.5 -67t-111.5 -28l7 8l15 -1q32 -2 56 -20.5t46 -58.5l124 -232h-94l-120 223q-15 29 -33 44.5t-41.5 21.5t-56.5 6h-130v-295h-86zM181 365h190q81 0 120.5 34t39.5 101t-40 100t-122 33h-188v-268z
M197 -160v61h308v-61h-308z" />
    <glyph glyph-name="S" unicode="S" horiz-adv-x="635" 
d="M327 -9q-56 0 -106 9.5t-92 27.5t-75 45l31 70q35 -26 72 -43t79 -25t91 -8q87 0 131 33.5t44 89.5q0 30 -14 50.5t-44.5 34.5t-79.5 23l-109 22q-96 20 -140.5 66.5t-44.5 121.5q0 62 33.5 108.5t93.5 72t137 25.5q49 0 92 -9.5t80 -29t65 -46.5l-31 -69
q-44 41 -94.5 59.5t-112.5 18.5q-52 0 -92 -15.5t-62.5 -44.5t-22.5 -69q0 -46 28.5 -72.5t96.5 -40.5l108 -22q102 -20 150.5 -63.5t48.5 -116.5q0 -59 -31.5 -105t-90.5 -72t-139 -26z" />
    <glyph glyph-name="Sacute" unicode="&#x15a;" horiz-adv-x="635" 
d="M327 -9q-56 0 -106 9.5t-92 27.5t-75 45l31 70q35 -26 72 -43t79 -25t91 -8q87 0 131 33.5t44 89.5q0 30 -14 50.5t-44.5 34.5t-79.5 23l-109 22q-96 20 -140.5 66.5t-44.5 121.5q0 62 33.5 108.5t93.5 72t137 25.5q49 0 92 -9.5t80 -29t65 -46.5l-31 -69
q-44 41 -94.5 59.5t-112.5 18.5q-52 0 -92 -15.5t-62.5 -44.5t-22.5 -69q0 -46 28.5 -72.5t96.5 -40.5l108 -22q102 -20 150.5 -63.5t48.5 -116.5q0 -59 -31.5 -105t-90.5 -72t-139 -26zM294 765l118 172h99l-149 -172h-68z" />
    <glyph glyph-name="uni1E64" unicode="&#x1e64;" horiz-adv-x="635" 
d="M327 -9q-56 0 -106 9.5t-92 27.5t-75 45l31 70q35 -26 72 -43t79 -25t91 -8q87 0 131 33.5t44 89.5q0 30 -14 50.5t-44.5 34.5t-79.5 23l-109 22q-96 20 -140.5 66.5t-44.5 121.5q0 62 33.5 108.5t93.5 72t137 25.5q49 0 92 -9.5t80 -29t65 -46.5l-31 -69
q-44 41 -94.5 59.5t-112.5 18.5q-52 0 -92 -15.5t-62.5 -44.5t-22.5 -69q0 -46 28.5 -72.5t96.5 -40.5l108 -22q102 -20 150.5 -63.5t48.5 -116.5q0 -59 -31.5 -105t-90.5 -72t-139 -26zM235 949v76h92v-76h-92zM295 765l114 182h98l-145 -182h-67z" />
    <glyph glyph-name="Scaron" unicode="&#x160;" horiz-adv-x="635" 
d="M327 -9q-56 0 -106 9.5t-92 27.5t-75 45l31 70q35 -26 72 -43t79 -25t91 -8q87 0 131 33.5t44 89.5q0 30 -14 50.5t-44.5 34.5t-79.5 23l-109 22q-96 20 -140.5 66.5t-44.5 121.5q0 62 33.5 108.5t93.5 72t137 25.5q49 0 92 -9.5t80 -29t65 -46.5l-31 -69
q-44 41 -94.5 59.5t-112.5 18.5q-52 0 -92 -15.5t-62.5 -44.5t-22.5 -69q0 -46 28.5 -72.5t96.5 -40.5l108 -22q102 -20 150.5 -63.5t48.5 -116.5q0 -59 -31.5 -105t-90.5 -72t-139 -26zM288 765l-124 172h67l97 -118l98 118h66l-124 -172h-80z" />
    <glyph glyph-name="uni1E66" unicode="&#x1e66;" horiz-adv-x="635" 
d="M327 -9q-56 0 -106 9.5t-92 27.5t-75 45l31 70q35 -26 72 -43t79 -25t91 -8q87 0 131 33.5t44 89.5q0 30 -14 50.5t-44.5 34.5t-79.5 23l-109 22q-96 20 -140.5 66.5t-44.5 121.5q0 62 33.5 108.5t93.5 72t137 25.5q49 0 92 -9.5t80 -29t65 -46.5l-31 -69
q-44 41 -94.5 59.5t-112.5 18.5q-52 0 -92 -15.5t-62.5 -44.5t-22.5 -69q0 -46 28.5 -72.5t96.5 -40.5l108 -22q102 -20 150.5 -63.5t48.5 -116.5q0 -59 -31.5 -105t-90.5 -72t-139 -26zM287 765l-111 159h62l90 -105l90 105h62l-111 -159h-82zM282 969v77h93v-77h-93z" />
    <glyph glyph-name="Scedilla" unicode="&#x15e;" horiz-adv-x="635" 
d="M327 -9q-56 0 -106 9.5t-92 27.5t-75 45l31 70q35 -26 72 -43t79 -25t91 -8q87 0 131 33.5t44 89.5q0 30 -14 50.5t-44.5 34.5t-79.5 23l-109 22q-96 20 -140.5 66.5t-44.5 121.5q0 62 33.5 108.5t93.5 72t137 25.5q49 0 92 -9.5t80 -29t65 -46.5l-31 -69
q-44 41 -94.5 59.5t-112.5 18.5q-52 0 -92 -15.5t-62.5 -44.5t-22.5 -69q0 -46 28.5 -72.5t96.5 -40.5l108 -22q102 -20 150.5 -63.5t48.5 -116.5q0 -59 -31.5 -105t-90.5 -72t-139 -26zM327 -194q-26 0 -51 5t-42 15l14 46q19 -9 36 -13t41 -4q26 0 42 9t16 27
q0 13 -10 20.5t-29 7.5q-10 0 -21.5 -2t-26.5 -6l-17 15l14 94h53l-13 -77l-25 8q12 4 25 6t24 2q25 0 44 -8t30.5 -23.5t11.5 -38.5q0 -25 -15 -44t-41 -29t-60 -10z" />
    <glyph glyph-name="Scircumflex" unicode="&#x15c;" horiz-adv-x="635" 
d="M327 -9q-56 0 -106 9.5t-92 27.5t-75 45l31 70q35 -26 72 -43t79 -25t91 -8q87 0 131 33.5t44 89.5q0 30 -14 50.5t-44.5 34.5t-79.5 23l-109 22q-96 20 -140.5 66.5t-44.5 121.5q0 62 33.5 108.5t93.5 72t137 25.5q49 0 92 -9.5t80 -29t65 -46.5l-31 -69
q-44 41 -94.5 59.5t-112.5 18.5q-52 0 -92 -15.5t-62.5 -44.5t-22.5 -69q0 -46 28.5 -72.5t96.5 -40.5l108 -22q102 -20 150.5 -63.5t48.5 -116.5q0 -59 -31.5 -105t-90.5 -72t-139 -26zM164 765l124 172h80l124 -172h-67l-97 117l-98 -117h-66z" />
    <glyph glyph-name="uni0218" unicode="&#x218;" horiz-adv-x="635" 
d="M327 -9q-56 0 -106 9.5t-92 27.5t-75 45l31 70q35 -26 72 -43t79 -25t91 -8q87 0 131 33.5t44 89.5q0 30 -14 50.5t-44.5 34.5t-79.5 23l-109 22q-96 20 -140.5 66.5t-44.5 121.5q0 62 33.5 108.5t93.5 72t137 25.5q49 0 92 -9.5t80 -29t65 -46.5l-31 -69
q-44 41 -94.5 59.5t-112.5 18.5q-52 0 -92 -15.5t-62.5 -44.5t-22.5 -69q0 -46 28.5 -72.5t96.5 -40.5l108 -22q102 -20 150.5 -63.5t48.5 -116.5q0 -59 -31.5 -105t-90.5 -72t-139 -26zM321 -277l-38 27q23 24 31.5 47t8.5 48l19 -11h-70v87h102v-65q0 -39 -12.5 -72.5
t-40.5 -60.5z" />
    <glyph glyph-name="uni1E60" unicode="&#x1e60;" horiz-adv-x="635" 
d="M327 -9q-56 0 -106 9.5t-92 27.5t-75 45l31 70q35 -26 72 -43t79 -25t91 -8q87 0 131 33.5t44 89.5q0 30 -14 50.5t-44.5 34.5t-79.5 23l-109 22q-96 20 -140.5 66.5t-44.5 121.5q0 62 33.5 108.5t93.5 72t137 25.5q49 0 92 -9.5t80 -29t65 -46.5l-31 -69
q-44 41 -94.5 59.5t-112.5 18.5q-52 0 -92 -15.5t-62.5 -44.5t-22.5 -69q0 -46 28.5 -72.5t96.5 -40.5l108 -22q102 -20 150.5 -63.5t48.5 -116.5q0 -59 -31.5 -105t-90.5 -72t-139 -26zM280 805v93h96v-93h-96z" />
    <glyph glyph-name="uni1E62" unicode="&#x1e62;" horiz-adv-x="635" 
d="M327 -9q-56 0 -106 9.5t-92 27.5t-75 45l31 70q35 -26 72 -43t79 -25t91 -8q87 0 131 33.5t44 89.5q0 30 -14 50.5t-44.5 34.5t-79.5 23l-109 22q-96 20 -140.5 66.5t-44.5 121.5q0 62 33.5 108.5t93.5 72t137 25.5q49 0 92 -9.5t80 -29t65 -46.5l-31 -69
q-44 41 -94.5 59.5t-112.5 18.5q-52 0 -92 -15.5t-62.5 -44.5t-22.5 -69q0 -46 28.5 -72.5t96.5 -40.5l108 -22q102 -20 150.5 -63.5t48.5 -116.5q0 -59 -31.5 -105t-90.5 -72t-139 -26zM276 -189v91h94v-91h-94z" />
    <glyph glyph-name="uni1E68" unicode="&#x1e68;" horiz-adv-x="635" 
d="M327 -9q-56 0 -106 9.5t-92 27.5t-75 45l31 70q35 -26 72 -43t79 -25t91 -8q87 0 131 33.5t44 89.5q0 30 -14 50.5t-44.5 34.5t-79.5 23l-109 22q-96 20 -140.5 66.5t-44.5 121.5q0 62 33.5 108.5t93.5 72t137 25.5q49 0 92 -9.5t80 -29t65 -46.5l-31 -69
q-44 41 -94.5 59.5t-112.5 18.5q-52 0 -92 -15.5t-62.5 -44.5t-22.5 -69q0 -46 28.5 -72.5t96.5 -40.5l108 -22q102 -20 150.5 -63.5t48.5 -116.5q0 -59 -31.5 -105t-90.5 -72t-139 -26zM276 -189v91h94v-91h-94zM280 805v93h96v-93h-96z" />
    <glyph glyph-name="uni1E9E" unicode="&#x1e9e;" horiz-adv-x="737" 
d="M444 -9q-60 0 -108 15.5t-87 47.5l30 66q39 -30 75.5 -42.5t82.5 -12.5q70 0 107.5 34t37.5 95q0 62 -40.5 93.5t-120.5 31.5h-127v71h102q43 0 76 14.5t51.5 43t18.5 69.5q0 61 -42 92t-121 31q-98 0 -148 -44.5t-50 -139.5v-456h-86v459q0 84 33.5 140.5t97.5 85.5
t155 29q76 0 131 -23t85.5 -64.5t30.5 -99.5q0 -41 -14.5 -75t-41 -58t-62.5 -36v9q71 -10 114 -56.5t43 -119.5q0 -62 -26.5 -107t-76.5 -69t-120 -24z" />
    <glyph glyph-name="T" unicode="T" horiz-adv-x="621" 
d="M268 0v630h-255v75h596v-75h-255v-630h-86z" />
    <glyph glyph-name="Tbar" unicode="&#x166;" horiz-adv-x="621" 
d="M268 0v630h-255v75h596v-75h-255v-630h-86zM123 318v69h376v-69h-376z" />
    <glyph glyph-name="Tcaron" unicode="&#x164;" horiz-adv-x="621" 
d="M268 0v630h-255v75h596v-75h-255v-630h-86zM271 765l-124 172h67l97 -118l98 118h66l-124 -172h-80z" />
    <glyph glyph-name="uni0162" unicode="&#x162;" horiz-adv-x="621" 
d="M268 0v630h-255v75h596v-75h-255v-630h-86zM315 -194q-26 0 -51 5t-42 15l14 46q19 -9 36 -13t41 -4q26 0 42 9t16 27q0 13 -10 20.5t-29 7.5q-10 0 -21.5 -2t-26.5 -6l-17 15l14 94h53l-13 -77l-25 8q12 4 25 6t24 2q25 0 44 -8t30.5 -23.5t11.5 -38.5q0 -25 -15 -44
t-41 -29t-60 -10z" />
    <glyph glyph-name="uni021A" unicode="&#x21a;" horiz-adv-x="621" 
d="M268 0v630h-255v75h596v-75h-255v-630h-86zM309 -277l-38 27q23 24 31.5 47t8.5 48l19 -11h-70v87h102v-65q0 -39 -12.5 -72.5t-40.5 -60.5z" />
    <glyph glyph-name="uni1E6C" unicode="&#x1e6c;" horiz-adv-x="621" 
d="M268 0v630h-255v75h596v-75h-255v-630h-86zM264 -189v91h94v-91h-94z" />
    <glyph glyph-name="uni1E6E" unicode="&#x1e6e;" horiz-adv-x="621" 
d="M268 0v630h-255v75h596v-75h-255v-630h-86zM157 -160v61h308v-61h-308z" />
    <glyph glyph-name="U" unicode="U" horiz-adv-x="742" 
d="M371 -9q-138 0 -210 72.5t-72 213.5v428h85v-426q0 -107 50.5 -158.5t146.5 -51.5q97 0 147 51.5t50 158.5v426h85v-428q0 -141 -72 -213.5t-210 -72.5z" />
    <glyph glyph-name="Uacute" unicode="&#xda;" horiz-adv-x="742" 
d="M371 -9q-138 0 -210 72.5t-72 213.5v428h85v-426q0 -107 50.5 -158.5t146.5 -51.5q97 0 147 51.5t50 158.5v426h85v-428q0 -141 -72 -213.5t-210 -72.5zM337 765l118 172h99l-149 -172h-68z" />
    <glyph glyph-name="Ubreve" unicode="&#x16c;" horiz-adv-x="742" 
d="M371 -9q-138 0 -210 72.5t-72 213.5v428h85v-426q0 -107 50.5 -158.5t146.5 -51.5q97 0 147 51.5t50 158.5v426h85v-428q0 -141 -72 -213.5t-210 -72.5zM371 760q-71 0 -118 45.5t-53 124.5l55 7q5 -55 35 -86t81 -31t81.5 31.5t34.5 85.5l56 -7q-7 -79 -53.5 -124.5
t-118.5 -45.5z" />
    <glyph glyph-name="Ucircumflex" unicode="&#xdb;" horiz-adv-x="742" 
d="M371 -9q-138 0 -210 72.5t-72 213.5v428h85v-426q0 -107 50.5 -158.5t146.5 -51.5q97 0 147 51.5t50 158.5v426h85v-428q0 -141 -72 -213.5t-210 -72.5zM207 765l124 172h80l124 -172h-67l-97 117l-98 -117h-66z" />
    <glyph glyph-name="uni0214" unicode="&#x214;" horiz-adv-x="742" 
d="M371 -9q-138 0 -210 72.5t-72 213.5v428h85v-426q0 -107 50.5 -158.5t146.5 -51.5q97 0 147 51.5t50 158.5v426h85v-428q0 -141 -72 -213.5t-210 -72.5zM410 765l-119 172h86l85 -172h-52zM280 765l-125 172h86l90 -172h-51z" />
    <glyph glyph-name="Udieresis" unicode="&#xdc;" horiz-adv-x="742" 
d="M371 -9q-138 0 -210 72.5t-72 213.5v428h85v-426q0 -107 50.5 -158.5t146.5 -51.5q97 0 147 51.5t50 158.5v426h85v-428q0 -141 -72 -213.5t-210 -72.5zM417 804v90h92v-90h-92zM233 804v90h92v-90h-92z" />
    <glyph glyph-name="uni1EE4" unicode="&#x1ee4;" horiz-adv-x="742" 
d="M371 -9q-138 0 -210 72.5t-72 213.5v428h85v-426q0 -107 50.5 -158.5t146.5 -51.5q97 0 147 51.5t50 158.5v426h85v-428q0 -141 -72 -213.5t-210 -72.5zM324 -189v91h94v-91h-94z" />
    <glyph glyph-name="Ugrave" unicode="&#xd9;" horiz-adv-x="742" 
d="M371 -9q-138 0 -210 72.5t-72 213.5v428h85v-426q0 -107 50.5 -158.5t146.5 -51.5q97 0 147 51.5t50 158.5v426h85v-428q0 -141 -72 -213.5t-210 -72.5zM339 765l-150 172h98l118 -172h-66z" />
    <glyph glyph-name="uni1EE6" unicode="&#x1ee6;" horiz-adv-x="742" 
d="M371 -9q-138 0 -210 72.5t-72 213.5v428h85v-426q0 -107 50.5 -158.5t146.5 -51.5q97 0 147 51.5t50 158.5v426h85v-428q0 -141 -72 -213.5t-210 -72.5zM342 765v16q0 20 9.5 32.5t21.5 21.5t21.5 17t9.5 19t-10.5 16.5t-33.5 5.5q-15 0 -31 -3t-34 -10l-14 44
q19 9 43 14t52 5q46 0 72 -16t26 -45q0 -21 -11 -34t-25.5 -22t-25.5 -20t-11 -30v-11h-59z" />
    <glyph glyph-name="Uhorn" unicode="&#x1af;" horiz-adv-x="742" 
d="M371 -9q-138 0 -210 72.5t-72 213.5v428h85v-426q0 -107 50.5 -158.5t146.5 -51.5q97 0 147 51.5t50 158.5v426h85v-428q0 -141 -72 -213.5t-210 -72.5zM630 652l-47 32v21q42 1 65 12.5t33 36t10 63.5v17h79v-29q0 -45 -16.5 -78t-48 -52.5t-75.5 -22.5z" />
    <glyph glyph-name="uni1EE8" unicode="&#x1ee8;" horiz-adv-x="742" 
d="M371 -9q-138 0 -210 72.5t-72 213.5v428h85v-426q0 -107 50.5 -158.5t146.5 -51.5q97 0 147 51.5t50 158.5v426h85v-428q0 -141 -72 -213.5t-210 -72.5zM630 652l-47 32v21q42 1 65 12.5t33 36t10 63.5v17h79v-29q0 -45 -16.5 -78t-48 -52.5t-75.5 -22.5zM337 765
l118 172h99l-149 -172h-68z" />
    <glyph glyph-name="uni1EF0" unicode="&#x1ef0;" horiz-adv-x="742" 
d="M371 -9q-138 0 -210 72.5t-72 213.5v428h85v-426q0 -107 50.5 -158.5t146.5 -51.5q97 0 147 51.5t50 158.5v426h85v-428q0 -141 -72 -213.5t-210 -72.5zM630 652l-47 32v21q42 1 65 12.5t33 36t10 63.5v17h79v-29q0 -45 -16.5 -78t-48 -52.5t-75.5 -22.5zM324 -189v91h94
v-91h-94z" />
    <glyph glyph-name="uni1EEA" unicode="&#x1eea;" horiz-adv-x="742" 
d="M371 -9q-138 0 -210 72.5t-72 213.5v428h85v-426q0 -107 50.5 -158.5t146.5 -51.5q97 0 147 51.5t50 158.5v426h85v-428q0 -141 -72 -213.5t-210 -72.5zM630 652l-47 32v21q42 1 65 12.5t33 36t10 63.5v17h79v-29q0 -45 -16.5 -78t-48 -52.5t-75.5 -22.5zM339 765
l-150 172h98l118 -172h-66z" />
    <glyph glyph-name="uni1EEC" unicode="&#x1eec;" horiz-adv-x="742" 
d="M371 -9q-138 0 -210 72.5t-72 213.5v428h85v-426q0 -107 50.5 -158.5t146.5 -51.5q97 0 147 51.5t50 158.5v426h85v-428q0 -141 -72 -213.5t-210 -72.5zM630 652l-47 32v21q42 1 65 12.5t33 36t10 63.5v17h79v-29q0 -45 -16.5 -78t-48 -52.5t-75.5 -22.5zM342 765v16
q0 20 9.5 32.5t21.5 21.5t21.5 17t9.5 19t-10.5 16.5t-33.5 5.5q-15 0 -31 -3t-34 -10l-14 44q19 9 43 14t52 5q46 0 72 -16t26 -45q0 -21 -11 -34t-25.5 -22t-25.5 -20t-11 -30v-11h-59z" />
    <glyph glyph-name="uni1EEE" unicode="&#x1eee;" horiz-adv-x="742" 
d="M371 -9q-138 0 -210 72.5t-72 213.5v428h85v-426q0 -107 50.5 -158.5t146.5 -51.5q97 0 147 51.5t50 158.5v426h85v-428q0 -141 -72 -213.5t-210 -72.5zM630 652l-47 32v21q42 1 65 12.5t33 36t10 63.5v17h79v-29q0 -45 -16.5 -78t-48 -52.5t-75.5 -22.5zM222 781l-51 3
q4 44 19 74.5t40.5 46t57.5 15.5q25 0 46.5 -11t44.5 -30q20 -16 35.5 -25t31.5 -9q29 0 44.5 20.5t22.5 57.5l50 -3q-3 -43 -18.5 -73.5t-40 -46.5t-57.5 -16q-27 0 -48.5 12.5t-43.5 29.5q-19 16 -35 24.5t-31 8.5q-30 0 -45.5 -20t-21.5 -58z" />
    <glyph glyph-name="Uhungarumlaut" unicode="&#x170;" horiz-adv-x="742" 
d="M371 -9q-138 0 -210 72.5t-72 213.5v428h85v-426q0 -107 50.5 -158.5t146.5 -51.5q97 0 147 51.5t50 158.5v426h85v-428q0 -141 -72 -213.5t-210 -72.5zM280 765l86 172h86l-120 -172h-52zM410 765l91 172h86l-125 -172h-52z" />
    <glyph glyph-name="uni0216" unicode="&#x216;" horiz-adv-x="742" 
d="M371 -9q-138 0 -210 72.5t-72 213.5v428h85v-426q0 -107 50.5 -158.5t146.5 -51.5q97 0 147 51.5t50 158.5v426h85v-428q0 -141 -72 -213.5t-210 -72.5zM256 760l-56 7q6 80 53 125t118 45q72 0 119 -45.5t53 -124.5l-56 -7q-4 55 -34.5 86.5t-81.5 31.5q-50 0 -80.5 -31
t-34.5 -87z" />
    <glyph glyph-name="Umacron" unicode="&#x16a;" horiz-adv-x="742" 
d="M371 -9q-138 0 -210 72.5t-72 213.5v428h85v-426q0 -107 50.5 -158.5t146.5 -51.5q97 0 147 51.5t50 158.5v426h85v-428q0 -141 -72 -213.5t-210 -72.5zM206 813v61h330v-61h-330z" />
    <glyph glyph-name="uni1E7A" unicode="&#x1e7a;" horiz-adv-x="742" 
d="M371 -9q-138 0 -210 72.5t-72 213.5v428h85v-426q0 -107 50.5 -158.5t146.5 -51.5q97 0 147 51.5t50 158.5v426h85v-428q0 -141 -72 -213.5t-210 -72.5zM217 798v60h308v-60h-308zM234 913v77h92v-77h-92zM416 913v77h92v-77h-92z" />
    <glyph glyph-name="Uogonek" unicode="&#x172;" horiz-adv-x="742" 
d="M371 -9q-138 0 -210 72.5t-72 213.5v428h85v-426q0 -107 50.5 -158.5t146.5 -51.5q97 0 147 51.5t50 158.5v426h85v-428q0 -141 -72 -213.5t-210 -72.5zM408 -194q-49 0 -78.5 26.5t-29.5 70.5q0 40 26.5 76t70.5 58l31 -37q-15 -7 -30.5 -19.5t-25.5 -29.5t-10 -37
q0 -28 16.5 -40.5t39.5 -12.5q14 0 27 2.5t27 8.5l15 -49q-15 -8 -35 -12.5t-44 -4.5z" />
    <glyph glyph-name="Uring" unicode="&#x16e;" horiz-adv-x="742" 
d="M371 -9q-138 0 -210 72.5t-72 213.5v428h85v-426q0 -107 50.5 -158.5t146.5 -51.5q97 0 147 51.5t50 158.5v426h85v-428q0 -141 -72 -213.5t-210 -72.5zM371 757q-34 0 -61 16t-43 42.5t-16 58.5q0 33 15.5 59t43 41.5t61.5 15.5t61.5 -15.5t43 -41.5t15.5 -59
q0 -32 -15.5 -58.5t-42.5 -42.5t-62 -16zM371 803q31 0 51 20.5t20 50.5t-19.5 50.5t-51.5 20.5q-31 0 -51 -20.5t-20 -50.5t20 -50.5t51 -20.5z" />
    <glyph glyph-name="Utilde" unicode="&#x168;" horiz-adv-x="742" 
d="M371 -9q-138 0 -210 72.5t-72 213.5v428h85v-426q0 -107 50.5 -158.5t146.5 -51.5q97 0 147 51.5t50 158.5v426h85v-428q0 -141 -72 -213.5t-210 -72.5zM212 781l-52 3q7 65 39 100.5t82 35.5q26 0 50.5 -11t53.5 -30q28 -18 45 -25.5t32 -7.5q29 0 45.5 19.5t22.5 57.5
l52 -3q-6 -65 -38 -100.5t-82 -35.5q-25 0 -50.5 11.5t-55.5 30.5q-25 17 -43 24.5t-33 7.5q-29 0 -45.5 -19.5t-22.5 -57.5z" />
    <glyph glyph-name="uni1E78" unicode="&#x1e78;" horiz-adv-x="742" 
d="M371 -9q-138 0 -210 72.5t-72 213.5v428h85v-426q0 -107 50.5 -158.5t146.5 -51.5q97 0 147 51.5t50 158.5v426h85v-428q0 -141 -72 -213.5t-210 -72.5zM340 887l86 142h93l-117 -142h-62zM438 767q-21 0 -38.5 8t-39.5 22q-17 13 -29 18t-24 5q-22 0 -33.5 -13
t-16.5 -41l-48 2q3 35 15 58.5t32.5 35t48.5 11.5q19 0 36.5 -7t38.5 -21q19 -12 31.5 -18t23.5 -6q23 0 34 13t16 41l48 -3q-4 -52 -29 -78.5t-66 -26.5z" />
    <glyph glyph-name="V" unicode="V" horiz-adv-x="691" 
d="M307 0l-306 705h92l264 -620h-20l263 620h90l-306 -705h-77z" />
    <glyph glyph-name="W" unicode="W" horiz-adv-x="1105" 
d="M274 0l-236 705h89l201 -616h-22l213 616h69l211 -617h-19l202 617h86l-237 -705h-79l-205 596h12l-208 -596h-77z" />
    <glyph glyph-name="Wacute" unicode="&#x1e82;" horiz-adv-x="1105" 
d="M274 0l-236 705h89l201 -616h-22l213 616h69l211 -617h-19l202 617h86l-237 -705h-79l-205 596h12l-208 -596h-77zM519 765l118 172h99l-149 -172h-68z" />
    <glyph glyph-name="Wcircumflex" unicode="&#x174;" horiz-adv-x="1105" 
d="M274 0l-236 705h89l201 -616h-22l213 616h69l211 -617h-19l202 617h86l-237 -705h-79l-205 596h12l-208 -596h-77zM389 765l124 172h80l124 -172h-67l-97 117l-98 -117h-66z" />
    <glyph glyph-name="Wdieresis" unicode="&#x1e84;" horiz-adv-x="1105" 
d="M274 0l-236 705h89l201 -616h-22l213 616h69l211 -617h-19l202 617h86l-237 -705h-79l-205 596h12l-208 -596h-77zM599 804v90h92v-90h-92zM415 804v90h92v-90h-92z" />
    <glyph glyph-name="Wgrave" unicode="&#x1e80;" horiz-adv-x="1105" 
d="M274 0l-236 705h89l201 -616h-22l213 616h69l211 -617h-19l202 617h86l-237 -705h-79l-205 596h12l-208 -596h-77zM521 765l-150 172h98l118 -172h-66z" />
    <glyph glyph-name="X" unicode="X" horiz-adv-x="663" 
d="M17 0l270 377l1 -32l-258 360h100l210 -297h-16l210 297h100l-259 -360v32l271 -377h-101l-224 316h20l-223 -316h-101z" />
    <glyph glyph-name="Y" unicode="Y" horiz-adv-x="609" 
d="M261 0v366l18 -62l-285 401h98l220 -309h-13l220 309h96l-285 -401l17 62v-366h-86z" />
    <glyph glyph-name="Yacute" unicode="&#xdd;" horiz-adv-x="609" 
d="M261 0v366l18 -62l-285 401h98l220 -309h-13l220 309h96l-285 -401l17 62v-366h-86zM270 765l118 172h99l-149 -172h-68z" />
    <glyph glyph-name="Ycircumflex" unicode="&#x176;" horiz-adv-x="609" 
d="M261 0v366l18 -62l-285 401h98l220 -309h-13l220 309h96l-285 -401l17 62v-366h-86zM140 765l124 172h80l124 -172h-67l-97 117l-98 -117h-66z" />
    <glyph glyph-name="Ydieresis" unicode="&#x178;" horiz-adv-x="609" 
d="M261 0v366l18 -62l-285 401h98l220 -309h-13l220 309h96l-285 -401l17 62v-366h-86zM350 804v90h92v-90h-92zM166 804v90h92v-90h-92z" />
    <glyph glyph-name="uni1E8E" unicode="&#x1e8e;" horiz-adv-x="609" 
d="M261 0v366l18 -62l-285 401h98l220 -309h-13l220 309h96l-285 -401l17 62v-366h-86zM256 805v93h96v-93h-96z" />
    <glyph glyph-name="uni1EF4" unicode="&#x1ef4;" horiz-adv-x="609" 
d="M261 0v366l18 -62l-285 401h98l220 -309h-13l220 309h96l-285 -401l17 62v-366h-86zM257 -189v91h94v-91h-94z" />
    <glyph glyph-name="Ygrave" unicode="&#x1ef2;" horiz-adv-x="609" 
d="M261 0v366l18 -62l-285 401h98l220 -309h-13l220 309h96l-285 -401l17 62v-366h-86zM272 765l-150 172h98l118 -172h-66z" />
    <glyph glyph-name="uni01B3" unicode="&#x1b3;" horiz-adv-x="630" 
d="M261 0v366l18 -62l-285 401h98l220 -309h-12l164 236q30 43 65 62t80 19q18 0 31.5 -2t26.5 -7v-67q-10 5 -21 6.5t-27 1.5q-25 0 -46 -11.5t-40 -38.5l-203 -291l17 62v-366h-86z" />
    <glyph glyph-name="uni1EF6" unicode="&#x1ef6;" horiz-adv-x="609" 
d="M261 0v366l18 -62l-285 401h98l220 -309h-13l220 309h96l-285 -401l17 62v-366h-86zM275 765v16q0 20 9.5 32.5t21.5 21.5t21.5 17t9.5 19t-10.5 16.5t-33.5 5.5q-15 0 -31 -3t-34 -10l-14 44q19 9 43 14t52 5q46 0 72 -16t26 -45q0 -21 -11 -34t-25.5 -22t-25.5 -20
t-11 -30v-11h-59z" />
    <glyph glyph-name="uni0232" unicode="&#x232;" horiz-adv-x="609" 
d="M261 0v366l18 -62l-285 401h98l220 -309h-13l220 309h96l-285 -401l17 62v-366h-86zM139 813v61h330v-61h-330z" />
    <glyph glyph-name="uni1EF8" unicode="&#x1ef8;" horiz-adv-x="609" 
d="M261 0v366l18 -62l-285 401h98l220 -309h-13l220 309h96l-285 -401l17 62v-366h-86zM145 781l-52 3q7 65 39 100.5t82 35.5q26 0 50.5 -11t53.5 -30q28 -18 45 -25.5t32 -7.5q29 0 45.5 19.5t22.5 57.5l52 -3q-6 -65 -38 -100.5t-82 -35.5q-25 0 -50.5 11.5t-55.5 30.5
q-25 17 -43 24.5t-33 7.5q-29 0 -45.5 -19.5t-22.5 -57.5z" />
    <glyph glyph-name="Z" unicode="Z" horiz-adv-x="599" 
d="M50 0v61l425 605l4 -36h-429v75h507v-60l-426 -605l-4 35h443v-75h-520z" />
    <glyph glyph-name="Zacute" unicode="&#x179;" horiz-adv-x="599" 
d="M50 0v61l425 605l4 -36h-429v75h507v-60l-426 -605l-4 35h443v-75h-520zM273 765l118 172h99l-149 -172h-68z" />
    <glyph glyph-name="Zcaron" unicode="&#x17d;" horiz-adv-x="599" 
d="M50 0v61l425 605l4 -36h-429v75h507v-60l-426 -605l-4 35h443v-75h-520zM267 765l-124 172h67l97 -118l98 118h66l-124 -172h-80z" />
    <glyph glyph-name="Zdotaccent" unicode="&#x17b;" horiz-adv-x="599" 
d="M50 0v61l425 605l4 -36h-429v75h507v-60l-426 -605l-4 35h443v-75h-520zM259 805v93h96v-93h-96z" />
    <glyph glyph-name="uni1E92" unicode="&#x1e92;" horiz-adv-x="599" 
d="M50 0v61l425 605l4 -36h-429v75h507v-60l-426 -605l-4 35h443v-75h-520zM263 -189v91h94v-91h-94z" />
    <glyph glyph-name="Iacute_J.loclNLD" horiz-adv-x="632" 
d="M95 0v705h86v-705h-86zM104 765l118 172h99l-149 -172h-68zM279 -7l-6 73l69 4q34 3 58 18t37.5 42t13.5 63v512h86v-515q0 -57 -22 -99.5t-63 -66t-99 -27.5zM460 765l118 172h99l-149 -172h-68z" />
    <glyph glyph-name="I_J.loclNLD" horiz-adv-x="632" 
d="M95 0v705h86v-705h-86zM279 -7l-6 73l69 4q34 3 58 18t37.5 42t13.5 63v512h86v-515q0 -57 -22 -99.5t-63 -66t-99 -27.5z" />
    <glyph glyph-name="a" unicode="a" horiz-adv-x="565" 
d="M241 -9q-51 0 -91.5 19.5t-64 53.5t-23.5 76q0 55 29.5 87t94.5 45.5t172 13.5h58v-57h-55q-60 0 -101 -4t-66 -13.5t-36 -25.5t-11 -41q0 -41 30 -65t79 -24q42 0 74.5 19.5t52 52.5t19.5 74v114q0 60 -29 87.5t-90 27.5q-43 0 -85.5 -12.5t-87.5 -40.5l-28 62
q28 19 62.5 32t71.5 20t72 7q64 0 107.5 -20t66.5 -62t23 -108v-309h-77v111h4q-11 -35 -34.5 -62t-58 -42.5t-78.5 -15.5z" />
    <glyph glyph-name="aacute" unicode="&#xe1;" horiz-adv-x="565" 
d="M241 -9q-51 0 -91.5 19.5t-64 53.5t-23.5 76q0 55 29.5 87t94.5 45.5t172 13.5h58v-57h-55q-60 0 -101 -4t-66 -13.5t-36 -25.5t-11 -41q0 -41 30 -65t79 -24q42 0 74.5 19.5t52 52.5t19.5 74v114q0 60 -29 87.5t-90 27.5q-43 0 -85.5 -12.5t-87.5 -40.5l-28 62
q28 19 62.5 32t71.5 20t72 7q64 0 107.5 -20t66.5 -62t23 -108v-309h-77v111h4q-11 -35 -34.5 -62t-58 -42.5t-78.5 -15.5zM255 555l104 200h93l-133 -200h-64z" />
    <glyph glyph-name="abreve" unicode="&#x103;" horiz-adv-x="565" 
d="M241 -9q-51 0 -91.5 19.5t-64 53.5t-23.5 76q0 55 29.5 87t94.5 45.5t172 13.5h58v-57h-55q-60 0 -101 -4t-66 -13.5t-36 -25.5t-11 -41q0 -41 30 -65t79 -24q42 0 74.5 19.5t52 52.5t19.5 74v114q0 60 -29 87.5t-90 27.5q-43 0 -85.5 -12.5t-87.5 -40.5l-28 62
q28 19 62.5 32t71.5 20t72 7q64 0 107.5 -20t66.5 -62t23 -108v-309h-77v111h4q-11 -35 -34.5 -62t-58 -42.5t-78.5 -15.5zM288 552q-46 0 -80.5 23.5t-54 67t-22.5 102.5l56 5q4 -66 29.5 -102t71.5 -36t71.5 36t29.5 102l56 -5q-2 -59 -21.5 -102.5t-54 -67t-81.5 -23.5z
" />
    <glyph glyph-name="uni1EAF" unicode="&#x1eaf;" horiz-adv-x="565" 
d="M241 -9q-51 0 -91.5 19.5t-64 53.5t-23.5 76q0 55 29.5 87t94.5 45.5t172 13.5h58v-57h-55q-60 0 -101 -4t-66 -13.5t-36 -25.5t-11 -41q0 -41 30 -65t79 -24q42 0 74.5 19.5t52 52.5t19.5 74v114q0 60 -29 87.5t-90 27.5q-43 0 -85.5 -12.5t-87.5 -40.5l-28 62
q28 19 62.5 32t71.5 20t72 7q64 0 107.5 -20t66.5 -62t23 -108v-309h-77v111h4q-11 -35 -34.5 -62t-58 -42.5t-78.5 -15.5zM288 552q-70 0 -112.5 41t-47.5 111l51 6q6 -49 34 -75.5t75 -26.5q48 0 76 26t33 76l51 -6q-4 -70 -47 -111t-113 -41zM252 672l86 142h91
l-117 -142h-60z" />
    <glyph glyph-name="uni1EB7" unicode="&#x1eb7;" horiz-adv-x="565" 
d="M241 -9q-51 0 -91.5 19.5t-64 53.5t-23.5 76q0 55 29.5 87t94.5 45.5t172 13.5h58v-57h-55q-60 0 -101 -4t-66 -13.5t-36 -25.5t-11 -41q0 -41 30 -65t79 -24q42 0 74.5 19.5t52 52.5t19.5 74v114q0 60 -29 87.5t-90 27.5q-43 0 -85.5 -12.5t-87.5 -40.5l-28 62
q28 19 62.5 32t71.5 20t72 7q64 0 107.5 -20t66.5 -62t23 -108v-309h-77v111h4q-11 -35 -34.5 -62t-58 -42.5t-78.5 -15.5zM224 -189v91h94v-91h-94zM288 552q-46 0 -80.5 23.5t-54 67t-22.5 102.5l56 5q4 -66 29.5 -102t71.5 -36t71.5 36t29.5 102l56 -5
q-2 -59 -21.5 -102.5t-54 -67t-81.5 -23.5z" />
    <glyph glyph-name="uni1EB1" unicode="&#x1eb1;" horiz-adv-x="565" 
d="M241 -9q-51 0 -91.5 19.5t-64 53.5t-23.5 76q0 55 29.5 87t94.5 45.5t172 13.5h58v-57h-55q-60 0 -101 -4t-66 -13.5t-36 -25.5t-11 -41q0 -41 30 -65t79 -24q42 0 74.5 19.5t52 52.5t19.5 74v114q0 60 -29 87.5t-90 27.5q-43 0 -85.5 -12.5t-87.5 -40.5l-28 62
q28 19 62.5 32t71.5 20t72 7q64 0 107.5 -20t66.5 -62t23 -108v-309h-77v111h4q-11 -35 -34.5 -62t-58 -42.5t-78.5 -15.5zM288 552q-70 0 -112.5 41t-47.5 111l51 6q6 -49 34 -75.5t75 -26.5q48 0 76 26t33 76l51 -6q-4 -70 -47 -111t-113 -41zM265 672l-115 142h90
l85 -142h-60z" />
    <glyph glyph-name="uni1EB3" unicode="&#x1eb3;" horiz-adv-x="565" 
d="M241 -9q-51 0 -91.5 19.5t-64 53.5t-23.5 76q0 55 29.5 87t94.5 45.5t172 13.5h58v-57h-55q-60 0 -101 -4t-66 -13.5t-36 -25.5t-11 -41q0 -41 30 -65t79 -24q42 0 74.5 19.5t52 52.5t19.5 74v114q0 60 -29 87.5t-90 27.5q-43 0 -85.5 -12.5t-87.5 -40.5l-28 62
q28 19 62.5 32t71.5 20t72 7q64 0 107.5 -20t66.5 -62t23 -108v-309h-77v111h4q-11 -35 -34.5 -62t-58 -42.5t-78.5 -15.5zM288 552q-70 0 -112.5 41t-47.5 111l51 6q6 -49 34 -75.5t75 -26.5q48 0 76 26t33 76l51 -6q-4 -69 -47 -110.5t-113 -41.5zM260 672q0 21 9 33
t20.5 20t20.5 16t9 19t-11.5 15t-32.5 4q-13 0 -28.5 -2.5t-32.5 -9.5l-13 41q18 9 40 13t51 4q44 0 68.5 -14t24.5 -38q0 -20 -10.5 -31.5t-24 -20.5t-24 -20t-10.5 -29h-56z" />
    <glyph glyph-name="uni1EB5" unicode="&#x1eb5;" horiz-adv-x="565" 
d="M241 -9q-51 0 -91.5 19.5t-64 53.5t-23.5 76q0 55 29.5 87t94.5 45.5t172 13.5h58v-57h-55q-60 0 -101 -4t-66 -13.5t-36 -25.5t-11 -41q0 -41 30 -65t79 -24q42 0 74.5 19.5t52 52.5t19.5 74v114q0 60 -29 87.5t-90 27.5q-43 0 -85.5 -12.5t-87.5 -40.5l-28 62
q28 19 62.5 32t71.5 20t72 7q64 0 107.5 -20t66.5 -62t23 -108v-309h-77v111h4q-11 -35 -34.5 -62t-58 -42.5t-78.5 -15.5zM288 552q-63 0 -105.5 31.5t-54.5 84.5l51 9q10 -33 38.5 -51t70.5 -18q43 0 71 18t38 51l51 -9q-11 -53 -54 -84.5t-106 -31.5zM174 717l-48 3
q3 34 15 57.5t32.5 35t48.5 11.5q20 0 38 -7.5t38 -21.5q19 -12 31 -17.5t23 -5.5q23 0 34 13.5t16 40.5l48 -3q-4 -51 -29 -77.5t-66 -26.5q-21 0 -39 8t-40 22q-15 10 -27 16t-25 6q-22 0 -33.5 -13t-16.5 -41z" />
    <glyph glyph-name="uni01CE" unicode="&#x1ce;" horiz-adv-x="565" 
d="M241 -9q-51 0 -91.5 19.5t-64 53.5t-23.5 76q0 55 29.5 87t94.5 45.5t172 13.5h58v-57h-55q-60 0 -101 -4t-66 -13.5t-36 -25.5t-11 -41q0 -41 30 -65t79 -24q42 0 74.5 19.5t52 52.5t19.5 74v114q0 60 -29 87.5t-90 27.5q-43 0 -85.5 -12.5t-87.5 -40.5l-28 62
q28 19 62.5 32t71.5 20t72 7q64 0 107.5 -20t66.5 -62t23 -108v-309h-77v111h4q-11 -35 -34.5 -62t-58 -42.5t-78.5 -15.5zM247 555l-111 200h62l90 -144l90 144h62l-111 -200h-82z" />
    <glyph glyph-name="acircumflex" unicode="&#xe2;" horiz-adv-x="565" 
d="M241 -9q-51 0 -91.5 19.5t-64 53.5t-23.5 76q0 55 29.5 87t94.5 45.5t172 13.5h58v-57h-55q-60 0 -101 -4t-66 -13.5t-36 -25.5t-11 -41q0 -41 30 -65t79 -24q42 0 74.5 19.5t52 52.5t19.5 74v114q0 60 -29 87.5t-90 27.5q-43 0 -85.5 -12.5t-87.5 -40.5l-28 62
q28 19 62.5 32t71.5 20t72 7q64 0 107.5 -20t66.5 -62t23 -108v-309h-77v111h4q-11 -35 -34.5 -62t-58 -42.5t-78.5 -15.5zM136 557l111 198h82l111 -198h-62l-90 141l-90 -141h-62z" />
    <glyph glyph-name="uni1EA5" unicode="&#x1ea5;" horiz-adv-x="565" 
d="M241 -9q-51 0 -91.5 19.5t-64 53.5t-23.5 76q0 55 29.5 87t94.5 45.5t172 13.5h58v-57h-55q-60 0 -101 -4t-66 -13.5t-36 -25.5t-11 -41q0 -41 30 -65t79 -24q42 0 74.5 19.5t52 52.5t19.5 74v114q0 60 -29 87.5t-90 27.5q-43 0 -85.5 -12.5t-87.5 -40.5l-28 62
q28 19 62.5 32t71.5 20t72 7q64 0 107.5 -20t66.5 -62t23 -108v-309h-77v111h4q-11 -35 -34.5 -62t-58 -42.5t-78.5 -15.5zM135 558l112 165h82l112 -165h-62l-91 111l-92 -111h-61zM385 666l83 150h81l-109 -150h-55z" />
    <glyph glyph-name="uni1EAD" unicode="&#x1ead;" horiz-adv-x="565" 
d="M241 -9q-51 0 -91.5 19.5t-64 53.5t-23.5 76q0 55 29.5 87t94.5 45.5t172 13.5h58v-57h-55q-60 0 -101 -4t-66 -13.5t-36 -25.5t-11 -41q0 -41 30 -65t79 -24q42 0 74.5 19.5t52 52.5t19.5 74v114q0 60 -29 87.5t-90 27.5q-43 0 -85.5 -12.5t-87.5 -40.5l-28 62
q28 19 62.5 32t71.5 20t72 7q64 0 107.5 -20t66.5 -62t23 -108v-309h-77v111h4q-11 -35 -34.5 -62t-58 -42.5t-78.5 -15.5zM224 -189v91h94v-91h-94zM136 557l111 198h82l111 -198h-62l-90 141l-90 -141h-62z" />
    <glyph glyph-name="uni1EA7" unicode="&#x1ea7;" horiz-adv-x="565" 
d="M241 -9q-51 0 -91.5 19.5t-64 53.5t-23.5 76q0 55 29.5 87t94.5 45.5t172 13.5h58v-57h-55q-60 0 -101 -4t-66 -13.5t-36 -25.5t-11 -41q0 -41 30 -65t79 -24q42 0 74.5 19.5t52 52.5t19.5 74v114q0 60 -29 87.5t-90 27.5q-43 0 -85.5 -12.5t-87.5 -40.5l-28 62
q28 19 62.5 32t71.5 20t72 7q64 0 107.5 -20t66.5 -62t23 -108v-309h-77v111h4q-11 -35 -34.5 -62t-58 -42.5t-78.5 -15.5zM135 558l112 165h82l112 -165h-62l-91 111l-92 -111h-61zM425 666l-109 150h82l83 -150h-56z" />
    <glyph glyph-name="uni1EA9" unicode="&#x1ea9;" horiz-adv-x="565" 
d="M241 -9q-51 0 -91.5 19.5t-64 53.5t-23.5 76q0 55 29.5 87t94.5 45.5t172 13.5h58v-57h-55q-60 0 -101 -4t-66 -13.5t-36 -25.5t-11 -41q0 -41 30 -65t79 -24q42 0 74.5 19.5t52 52.5t19.5 74v114q0 60 -29 87.5t-90 27.5q-43 0 -85.5 -12.5t-87.5 -40.5l-28 62
q28 19 62.5 32t71.5 20t72 7q64 0 107.5 -20t66.5 -62t23 -108v-309h-77v111h4q-11 -35 -34.5 -62t-58 -42.5t-78.5 -15.5zM135 558l112 165h82l112 -165h-62l-91 111l-92 -111h-61zM392 667q0 21 8.5 33.5t20.5 21t20.5 16.5t8.5 19q0 12 -11.5 15.5t-32.5 3.5
q-13 0 -28 -2.5t-32 -8.5l-13 40q18 8 39.5 12.5t50.5 4.5q44 0 68 -14t24 -38q0 -20 -10.5 -32t-24 -21.5t-24 -20.5t-10.5 -29h-54z" />
    <glyph glyph-name="uni1EAB" unicode="&#x1eab;" horiz-adv-x="565" 
d="M241 -9q-51 0 -91.5 19.5t-64 53.5t-23.5 76q0 55 29.5 87t94.5 45.5t172 13.5h58v-57h-55q-60 0 -101 -4t-66 -13.5t-36 -25.5t-11 -41q0 -41 30 -65t79 -24q42 0 74.5 19.5t52 52.5t19.5 74v114q0 60 -29 87.5t-90 27.5q-43 0 -85.5 -12.5t-87.5 -40.5l-28 62
q28 19 62.5 32t71.5 20t72 7q64 0 107.5 -20t66.5 -62t23 -108v-309h-77v111h4q-11 -35 -34.5 -62t-58 -42.5t-78.5 -15.5zM135 558l112 136h82l112 -136h-61l-92 87l-92 -87h-61zM174 719l-48 3q3 35 15 58t32.5 35t48.5 12q20 0 38 -8t38 -21q19 -12 31 -17.5t23 -5.5
q23 0 34 12.5t16 41.5l48 -4q-4 -51 -28.5 -77.5t-66.5 -26.5q-21 0 -39 8t-40 23q-15 9 -27 15t-25 6q-21 0 -33 -12.5t-17 -41.5z" />
    <glyph glyph-name="uni0201" unicode="&#x201;" horiz-adv-x="565" 
d="M241 -9q-51 0 -91.5 19.5t-64 53.5t-23.5 76q0 55 29.5 87t94.5 45.5t172 13.5h58v-57h-55q-60 0 -101 -4t-66 -13.5t-36 -25.5t-11 -41q0 -41 30 -65t79 -24q42 0 74.5 19.5t52 52.5t19.5 74v114q0 60 -29 87.5t-90 27.5q-43 0 -85.5 -12.5t-87.5 -40.5l-28 62
q28 19 62.5 32t71.5 20t72 7q64 0 107.5 -20t66.5 -62t23 -108v-309h-77v111h4q-11 -35 -34.5 -62t-58 -42.5t-78.5 -15.5zM330 555l-84 200h80l53 -200h-49zM199 555l-84 200h79l54 -200h-49z" />
    <glyph glyph-name="adieresis" unicode="&#xe4;" horiz-adv-x="565" 
d="M241 -9q-51 0 -91.5 19.5t-64 53.5t-23.5 76q0 55 29.5 87t94.5 45.5t172 13.5h58v-57h-55q-60 0 -101 -4t-66 -13.5t-36 -25.5t-11 -41q0 -41 30 -65t79 -24q42 0 74.5 19.5t52 52.5t19.5 74v114q0 60 -29 87.5t-90 27.5q-43 0 -85.5 -12.5t-87.5 -40.5l-28 62
q28 19 62.5 32t71.5 20t72 7q64 0 107.5 -20t66.5 -62t23 -108v-309h-77v111h4q-11 -35 -34.5 -62t-58 -42.5t-78.5 -15.5zM334 611v91h92v-91h-92zM150 611v91h92v-91h-92z" />
    <glyph glyph-name="uni0227" unicode="&#x227;" horiz-adv-x="565" 
d="M241 -9q-51 0 -91.5 19.5t-64 53.5t-23.5 76q0 55 29.5 87t94.5 45.5t172 13.5h58v-57h-55q-60 0 -101 -4t-66 -13.5t-36 -25.5t-11 -41q0 -41 30 -65t79 -24q42 0 74.5 19.5t52 52.5t19.5 74v114q0 60 -29 87.5t-90 27.5q-43 0 -85.5 -12.5t-87.5 -40.5l-28 62
q28 19 62.5 32t71.5 20t72 7q64 0 107.5 -20t66.5 -62t23 -108v-309h-77v111h4q-11 -35 -34.5 -62t-58 -42.5t-78.5 -15.5zM241 612v91h94v-91h-94z" />
    <glyph glyph-name="uni1EA1" unicode="&#x1ea1;" horiz-adv-x="565" 
d="M241 -9q-51 0 -91.5 19.5t-64 53.5t-23.5 76q0 55 29.5 87t94.5 45.5t172 13.5h58v-57h-55q-60 0 -101 -4t-66 -13.5t-36 -25.5t-11 -41q0 -41 30 -65t79 -24q42 0 74.5 19.5t52 52.5t19.5 74v114q0 60 -29 87.5t-90 27.5q-43 0 -85.5 -12.5t-87.5 -40.5l-28 62
q28 19 62.5 32t71.5 20t72 7q64 0 107.5 -20t66.5 -62t23 -108v-309h-77v111h4q-11 -35 -34.5 -62t-58 -42.5t-78.5 -15.5zM224 -189v91h94v-91h-94z" />
    <glyph glyph-name="agrave" unicode="&#xe0;" horiz-adv-x="565" 
d="M241 -9q-51 0 -91.5 19.5t-64 53.5t-23.5 76q0 55 29.5 87t94.5 45.5t172 13.5h58v-57h-55q-60 0 -101 -4t-66 -13.5t-36 -25.5t-11 -41q0 -41 30 -65t79 -24q42 0 74.5 19.5t52 52.5t19.5 74v114q0 60 -29 87.5t-90 27.5q-43 0 -85.5 -12.5t-87.5 -40.5l-28 62
q28 19 62.5 32t71.5 20t72 7q64 0 107.5 -20t66.5 -62t23 -108v-309h-77v111h4q-11 -35 -34.5 -62t-58 -42.5t-78.5 -15.5zM257 556l-132 199h93l103 -199h-64z" />
    <glyph glyph-name="uni1EA3" unicode="&#x1ea3;" horiz-adv-x="565" 
d="M241 -9q-51 0 -91.5 19.5t-64 53.5t-23.5 76q0 55 29.5 87t94.5 45.5t172 13.5h58v-57h-55q-60 0 -101 -4t-66 -13.5t-36 -25.5t-11 -41q0 -41 30 -65t79 -24q42 0 74.5 19.5t52 52.5t19.5 74v114q0 60 -29 87.5t-90 27.5q-43 0 -85.5 -12.5t-87.5 -40.5l-28 62
q28 19 62.5 32t71.5 20t72 7q64 0 107.5 -20t66.5 -62t23 -108v-309h-77v111h4q-11 -35 -34.5 -62t-58 -42.5t-78.5 -15.5zM258 556v20q0 23 9.5 38t21.5 25.5t21.5 21t9.5 25.5q0 14 -11 21t-35 7q-15 0 -30 -3.5t-33 -12.5l-15 45q19 12 43.5 17.5t52.5 5.5q48 0 74.5 -18
t26.5 -51q0 -26 -11 -41t-26 -26t-26.5 -24.5t-11.5 -34.5v-15h-60z" />
    <glyph glyph-name="uni0203" unicode="&#x203;" horiz-adv-x="565" 
d="M241 -9q-51 0 -91.5 19.5t-64 53.5t-23.5 76q0 55 29.5 87t94.5 45.5t172 13.5h58v-57h-55q-60 0 -101 -4t-66 -13.5t-36 -25.5t-11 -41q0 -41 30 -65t79 -24q42 0 74.5 19.5t52 52.5t19.5 74v114q0 60 -29 87.5t-90 27.5q-43 0 -85.5 -12.5t-87.5 -40.5l-28 62
q28 19 62.5 32t71.5 20t72 7q64 0 107.5 -20t66.5 -62t23 -108v-309h-77v111h4q-11 -35 -34.5 -62t-58 -42.5t-78.5 -15.5zM187 552l-56 6q3 59 22.5 102t54 66.5t80.5 23.5q47 0 81.5 -23.5t54 -66.5t21.5 -102l-56 -6q-4 66 -29.5 102t-71.5 36t-71.5 -36t-29.5 -102z" />
    <glyph glyph-name="amacron" unicode="&#x101;" horiz-adv-x="565" 
d="M241 -9q-51 0 -91.5 19.5t-64 53.5t-23.5 76q0 55 29.5 87t94.5 45.5t172 13.5h58v-57h-55q-60 0 -101 -4t-66 -13.5t-36 -25.5t-11 -41q0 -41 30 -65t79 -24q42 0 74.5 19.5t52 52.5t19.5 74v114q0 60 -29 87.5t-90 27.5q-43 0 -85.5 -12.5t-87.5 -40.5l-28 62
q28 19 62.5 32t71.5 20t72 7q64 0 107.5 -20t66.5 -62t23 -108v-309h-77v111h4q-11 -35 -34.5 -62t-58 -42.5t-78.5 -15.5zM134 627v61h308v-61h-308z" />
    <glyph glyph-name="aogonek" unicode="&#x105;" horiz-adv-x="565" 
d="M241 -9q-51 0 -91.5 19.5t-64 53.5t-23.5 76q0 55 29.5 87t94.5 45.5t172 13.5h58v-57h-55q-60 0 -101 -4t-66 -13.5t-36 -25.5t-11 -41q0 -41 30 -65t79 -24q42 0 74.5 19.5t52 52.5t19.5 74v114q0 60 -29 87.5t-90 27.5q-43 0 -85.5 -12.5t-87.5 -40.5l-28 62
q28 19 62.5 32t71.5 20t72 7q64 0 107.5 -20t66.5 -62t23 -108v-309h-77v111h4q-11 -35 -34.5 -62t-58 -42.5t-78.5 -15.5zM447 -194q-49 0 -78.5 26.5t-29.5 70.5q0 40 26.5 76t70.5 58l31 -37q-15 -7 -30.5 -19.5t-25.5 -29.5t-10 -37q0 -28 16.5 -40.5t39.5 -12.5
q14 0 27 2.5t27 8.5l15 -49q-15 -8 -35 -12.5t-44 -4.5z" />
    <glyph glyph-name="aring" unicode="&#xe5;" horiz-adv-x="565" 
d="M241 -9q-51 0 -91.5 19.5t-64 53.5t-23.5 76q0 55 29.5 87t94.5 45.5t172 13.5h58v-57h-55q-60 0 -101 -4t-66 -13.5t-36 -25.5t-11 -41q0 -41 30 -65t79 -24q42 0 74.5 19.5t52 52.5t19.5 74v114q0 60 -29 87.5t-90 27.5q-43 0 -85.5 -12.5t-87.5 -40.5l-28 62
q28 19 62.5 32t71.5 20t72 7q64 0 107.5 -20t66.5 -62t23 -108v-309h-77v111h4q-11 -35 -34.5 -62t-58 -42.5t-78.5 -15.5zM288 550q-34 0 -61.5 16t-44 42.5t-16.5 59.5q0 34 16 60t44 42t62 16q35 0 62.5 -16t43.5 -42.5t16 -59.5t-16 -59.5t-43.5 -42.5t-62.5 -16z
M288 596q32 0 52 20.5t20 51.5t-20 51.5t-52 20.5q-31 0 -51.5 -20.5t-20.5 -51.5t20.5 -51.5t51.5 -20.5z" />
    <glyph glyph-name="aringacute" unicode="&#x1fb;" horiz-adv-x="565" 
d="M241 -9q-51 0 -91.5 19.5t-64 53.5t-23.5 76q0 55 29.5 87t94.5 45.5t172 13.5h58v-57h-55q-60 0 -101 -4t-66 -13.5t-36 -25.5t-11 -41q0 -41 30 -65t79 -24q42 0 74.5 19.5t52 52.5t19.5 74v114q0 60 -29 87.5t-90 27.5q-43 0 -85.5 -12.5t-87.5 -40.5l-28 62
q28 19 62.5 32t71.5 20t72 7q64 0 107.5 -20t66.5 -62t23 -108v-309h-77v111h4q-11 -35 -34.5 -62t-58 -42.5t-78.5 -15.5zM288 548q-34 0 -61 16t-43 42t-16 59q0 32 16 58.5t43 42t61 15.5q20 0 37 -5.5t32 -14.5l67 63h85l-117 -100q8 -13 12 -28t4 -31q0 -33 -15.5 -59
t-43 -42t-61.5 -16zM288 593q32 0 52 20.5t20 51.5t-20 51t-52 20q-31 0 -51.5 -20t-20.5 -51t20.5 -51.5t51.5 -20.5z" />
    <glyph glyph-name="atilde" unicode="&#xe3;" horiz-adv-x="565" 
d="M241 -9q-51 0 -91.5 19.5t-64 53.5t-23.5 76q0 55 29.5 87t94.5 45.5t172 13.5h58v-57h-55q-60 0 -101 -4t-66 -13.5t-36 -25.5t-11 -41q0 -41 30 -65t79 -24q42 0 74.5 19.5t52 52.5t19.5 74v114q0 60 -29 87.5t-90 27.5q-43 0 -85.5 -12.5t-87.5 -40.5l-28 62
q28 19 62.5 32t71.5 20t72 7q64 0 107.5 -20t66.5 -62t23 -108v-309h-77v111h4q-11 -35 -34.5 -62t-58 -42.5t-78.5 -15.5zM156 592l-50 3q6 64 34 100t74 36q24 0 43 -11.5t41 -30.5q20 -17 33.5 -25t27.5 -8q26 0 40.5 20t20.5 58l50 -3q-5 -65 -33.5 -100.5t-73.5 -35.5
q-23 0 -42.5 11t-43.5 31q-19 16 -32 24.5t-28 8.5q-25 0 -40 -20t-21 -58z" />
    <glyph glyph-name="ae" unicode="&#xe6;" horiz-adv-x="907" 
d="M244 -9q-53 0 -94 20t-64.5 53.5t-23.5 75.5q0 56 30 87.5t95.5 45t172.5 13.5h60v-58h-58q-80 0 -127.5 -6.5t-67.5 -25t-20 -51.5q0 -41 30 -65t79 -24q44 0 77 20t52 54t19 76v109q0 61 -29.5 88.5t-89.5 27.5q-45 0 -87.5 -12.5t-87.5 -40.5l-28 62q28 19 62 32
t71.5 20t73.5 7q72 0 116 -29.5t61 -83.5h-14q26 55 76.5 84t114.5 29q67 0 115.5 -30t74 -84.5t25.5 -130.5v-28h-385v58h329l-17 -16q0 51 -16.5 88.5t-48 58t-78.5 20.5q-71 0 -113.5 -48t-42.5 -131v-10q0 -88 44 -137t130 -49q45 0 84 13.5t76 42.5l29 -61
q-35 -30 -86 -47t-104 -17q-58 0 -103.5 17t-76 49.5t-45.5 79.5h11q-12 -43 -39.5 -76.5t-68 -51.5t-93.5 -18z" />
    <glyph glyph-name="aeacute" unicode="&#x1fd;" horiz-adv-x="907" 
d="M244 -9q-53 0 -94 20t-64.5 53.5t-23.5 75.5q0 56 30 87.5t95.5 45t172.5 13.5h60v-58h-58q-80 0 -127.5 -6.5t-67.5 -25t-20 -51.5q0 -41 30 -65t79 -24q44 0 77 20t52 54t19 76v109q0 61 -29.5 88.5t-89.5 27.5q-45 0 -87.5 -12.5t-87.5 -40.5l-28 62q28 19 62 32
t71.5 20t73.5 7q72 0 116 -29.5t61 -83.5h-14q26 55 76.5 84t114.5 29q67 0 115.5 -30t74 -84.5t25.5 -130.5v-28h-385v58h329l-17 -16q0 51 -16.5 88.5t-48 58t-78.5 20.5q-71 0 -113.5 -48t-42.5 -131v-10q0 -88 44 -137t130 -49q45 0 84 13.5t76 42.5l29 -61
q-35 -30 -86 -47t-104 -17q-58 0 -103.5 17t-76 49.5t-45.5 79.5h11q-12 -43 -39.5 -76.5t-68 -51.5t-93.5 -18zM414 555l104 200h93l-133 -200h-64z" />
    <glyph glyph-name="b" unicode="b" horiz-adv-x="611" 
d="M337 -9q-65 0 -112.5 32.5t-66.5 88.5h5v-112h-81v705h85v-323h-6q19 54 65.5 85.5t111.5 31.5q67 0 116.5 -31.5t76.5 -88t27 -134.5q0 -76 -27.5 -133.5t-77 -89t-116.5 -31.5zM319 60q71 0 112 49t41 136q0 88 -41 136.5t-112 48.5q-70 0 -111.5 -48.5t-41.5 -136.5
q0 -87 41.5 -136t111.5 -49z" />
    <glyph glyph-name="uni0253" unicode="&#x253;" horiz-adv-x="611" 
d="M337 -9q-65 0 -112.5 32.5t-66.5 88.5h5v-112h-81v541q0 54 19 92.5t56.5 59.5t93.5 21q17 0 34 -2.5t29 -6.5l-9 -67q-12 4 -23.5 5t-23.5 1q-46 0 -68.5 -26t-22.5 -77v-159h-6q19 54 65.5 85.5t110.5 31.5q67 0 116.5 -31.5t77 -88t27.5 -134.5q0 -76 -27.5 -133.5
t-77 -89t-116.5 -31.5zM319 60q71 0 112 49t41 136q0 88 -41 136.5t-112 48.5q-70 0 -111.5 -48.5t-41.5 -136.5q0 -87 41.5 -136t111.5 -49z" />
    <glyph glyph-name="c" unicode="c" horiz-adv-x="485" 
d="M296 -9q-75 0 -129.5 32t-84 89.5t-29.5 134.5q0 78 29.5 134.5t84.5 87t129 30.5q48 0 93 -16.5t74 -45.5l-29 -63q-29 27 -64 40.5t-68 13.5q-77 0 -120 -47t-43 -135q0 -86 43 -135t120 -49q32 0 67 13.5t64 39.5l29 -62q-29 -29 -74 -45.5t-92 -16.5z" />
    <glyph glyph-name="cacute" unicode="&#x107;" horiz-adv-x="485" 
d="M296 -9q-75 0 -129.5 32t-84 89.5t-29.5 134.5q0 78 29.5 134.5t84.5 87t129 30.5q48 0 93 -16.5t74 -45.5l-29 -63q-29 27 -64 40.5t-68 13.5q-77 0 -120 -47t-43 -135q0 -86 43 -135t120 -49q32 0 67 13.5t64 39.5l29 -62q-29 -29 -74 -45.5t-92 -16.5zM258 555
l104 200h93l-133 -200h-64z" />
    <glyph glyph-name="ccaron" unicode="&#x10d;" horiz-adv-x="485" 
d="M296 -9q-75 0 -129.5 32t-84 89.5t-29.5 134.5q0 78 29.5 134.5t84.5 87t129 30.5q48 0 93 -16.5t74 -45.5l-29 -63q-29 27 -64 40.5t-68 13.5q-77 0 -120 -47t-43 -135q0 -86 43 -135t120 -49q32 0 67 13.5t64 39.5l29 -62q-29 -29 -74 -45.5t-92 -16.5zM250 555
l-111 200h62l90 -144l90 144h62l-111 -200h-82z" />
    <glyph glyph-name="ccedilla" unicode="&#xe7;" horiz-adv-x="485" 
d="M296 -9q-75 0 -129.5 32t-84 89.5t-29.5 134.5q0 78 29.5 134.5t84.5 87t129 30.5q48 0 93 -16.5t74 -45.5l-29 -63q-29 27 -64 40.5t-68 13.5q-77 0 -120 -47t-43 -135q0 -86 43 -135t120 -49q32 0 67 13.5t64 39.5l29 -62q-29 -29 -74 -45.5t-92 -16.5zM295 -194
q-26 0 -51 5t-42 15l14 46q19 -9 36 -13t41 -4q26 0 42 9t16 27q0 13 -10 20.5t-29 7.5q-10 0 -21.5 -2t-26.5 -6l-17 15l14 94h53l-13 -77l-25 8q12 4 25 6t24 2q25 0 44 -8t30.5 -23.5t11.5 -38.5q0 -25 -15 -44t-41 -29t-60 -10z" />
    <glyph glyph-name="uni1E09" unicode="&#x1e09;" horiz-adv-x="485" 
d="M296 -9q-75 0 -129.5 32t-84 89.5t-29.5 134.5q0 78 29.5 134.5t84.5 87t129 30.5q48 0 93 -16.5t74 -45.5l-29 -63q-29 27 -64 40.5t-68 13.5q-77 0 -120 -47t-43 -135q0 -86 43 -135t120 -49q32 0 67 13.5t64 39.5l29 -62q-29 -29 -74 -45.5t-92 -16.5zM295 -194
q-26 0 -51 5t-42 15l14 46q19 -9 36 -13t41 -4q26 0 42 9t16 27q0 13 -10 20.5t-29 7.5q-10 0 -21.5 -2t-26.5 -6l-17 15l14 94h53l-13 -77l-25 8q12 4 25 6t24 2q25 0 44 -8t30.5 -23.5t11.5 -38.5q0 -25 -15 -44t-41 -29t-60 -10zM258 555l104 200h93l-133 -200h-64z" />
    <glyph glyph-name="ccircumflex" unicode="&#x109;" horiz-adv-x="485" 
d="M296 -9q-75 0 -129.5 32t-84 89.5t-29.5 134.5q0 78 29.5 134.5t84.5 87t129 30.5q48 0 93 -16.5t74 -45.5l-29 -63q-29 27 -64 40.5t-68 13.5q-77 0 -120 -47t-43 -135q0 -86 43 -135t120 -49q32 0 67 13.5t64 39.5l29 -62q-29 -29 -74 -45.5t-92 -16.5zM139 557
l111 198h82l111 -198h-62l-90 141l-90 -141h-62z" />
    <glyph glyph-name="cdotaccent" unicode="&#x10b;" horiz-adv-x="485" 
d="M296 -9q-75 0 -129.5 32t-84 89.5t-29.5 134.5q0 78 29.5 134.5t84.5 87t129 30.5q48 0 93 -16.5t74 -45.5l-29 -63q-29 27 -64 40.5t-68 13.5q-77 0 -120 -47t-43 -135q0 -86 43 -135t120 -49q32 0 67 13.5t64 39.5l29 -62q-29 -29 -74 -45.5t-92 -16.5zM244 612v91h94
v-91h-94z" />
    <glyph glyph-name="d" unicode="d" horiz-adv-x="611" 
d="M274 -9q-67 0 -117 31.5t-77 89t-27 133.5q0 78 27 134.5t76.5 88t116.5 31.5q65 0 111.5 -31.5t64.5 -85.5h-6v323h85v-705h-80v112h4q-18 -56 -65.5 -88.5t-112.5 -32.5zM291 60q71 0 112.5 49t41.5 136q0 88 -41.5 136.5t-111.5 48.5q-71 0 -112.5 -48.5t-41.5 -136.5
q0 -87 41.5 -136t111.5 -49z" />
    <glyph glyph-name="eth" unicode="&#xf0;" horiz-adv-x="581" 
d="M289 -9q-71 0 -124 29t-82.5 81.5t-29.5 122.5t29 122t80.5 81t120.5 29q67 0 114 -33t66 -101h-13q-2 89 -42 158t-109 113h22l-171 -73l-23 52l131 56l2 -13q-22 12 -49 22t-57 17l18 58q49 -10 90 -27t73 -36l-24 2l144 61l23 -52l-110 -47l3 12q53 -39 89 -90.5
t54.5 -113.5t18.5 -134q0 -94 -28.5 -160t-83 -101t-132.5 -35zM290 61q72 0 112.5 43.5t40.5 120.5q0 76 -40.5 119.5t-111.5 43.5q-70 0 -111.5 -44t-41.5 -119q0 -77 41 -120.5t111 -43.5z" />
    <glyph glyph-name="dcaron" unicode="&#x10f;" horiz-adv-x="611" 
d="M274 -9q-67 0 -117 31.5t-77 89t-27 133.5q0 78 27 134.5t76.5 88t116.5 31.5q65 0 111.5 -31.5t64.5 -85.5h-6v323h85v-705h-80v112h4q-18 -56 -65.5 -88.5t-112.5 -32.5zM291 60q71 0 112.5 49t41.5 136q0 88 -41.5 136.5t-111.5 48.5q-71 0 -112.5 -48.5t-41.5 -136.5
q0 -87 41.5 -136t111.5 -49zM575 514v191h71l-24 -191h-47z" />
    <glyph glyph-name="dcroat" unicode="&#x111;" horiz-adv-x="615" 
d="M274 -9q-67 0 -116.5 31t-77 88t-27.5 133t27 132.5t77 87.5t116 31q65 0 111.5 -31t64.5 -85h-5v176h-192v61h192v90h85v-89h89v-62h-89v-554h-82v112h6q-19 -56 -66.5 -88.5t-112.5 -32.5zM292 59q71 0 112 48t41 135t-41 135.5t-112 48.5q-47 0 -81.5 -22t-53.5 -62.5
t-19 -99.5q0 -87 41.5 -135t112.5 -48z" />
    <glyph glyph-name="uni1E0D" unicode="&#x1e0d;" horiz-adv-x="611" 
d="M274 -9q-67 0 -117 31.5t-77 89t-27 133.5q0 78 27 134.5t76.5 88t116.5 31.5q65 0 111.5 -31.5t64.5 -85.5h-6v323h85v-705h-80v112h4q-18 -56 -65.5 -88.5t-112.5 -32.5zM291 60q71 0 112.5 49t41.5 136q0 88 -41.5 136.5t-111.5 48.5q-71 0 -112.5 -48.5t-41.5 -136.5
q0 -87 41.5 -136t111.5 -49zM252 -189v91h94v-91h-94z" />
    <glyph glyph-name="uni0257" unicode="&#x257;" horiz-adv-x="611" 
d="M273 -9q-66 0 -116 31.5t-77 89t-27 133.5q0 78 27 134.5t76.5 88t116.5 31.5q65 0 111.5 -31.5t64.5 -85.5h-6v159q0 55 19 93t56.5 59t93.5 21q17 0 34 -2.5t29 -6.5l-9 -67q-13 4 -24 5t-23 1q-45 0 -68 -25.5t-23 -77.5v-541h-80v112h4q-19 -56 -66 -88.5t-113 -32.5
zM291 60q71 0 112.5 49t41.5 136q0 88 -41.5 136.5t-112.5 48.5q-70 0 -111.5 -48.5t-41.5 -136.5q0 -87 41.5 -136t111.5 -49z" />
    <glyph glyph-name="uni1E0F" unicode="&#x1e0f;" horiz-adv-x="611" 
d="M274 -9q-67 0 -117 31.5t-77 89t-27 133.5q0 78 27 134.5t76.5 88t116.5 31.5q65 0 111.5 -31.5t64.5 -85.5h-6v323h85v-705h-80v112h4q-18 -56 -65.5 -88.5t-112.5 -32.5zM291 60q71 0 112.5 49t41.5 136q0 88 -41.5 136.5t-111.5 48.5q-71 0 -112.5 -48.5t-41.5 -136.5
q0 -87 41.5 -136t111.5 -49zM145 -160v61h308v-61h-308z" />
    <glyph glyph-name="uni01C6" unicode="&#x1c6;" horiz-adv-x="1102" 
d="M274 -9q-67 0 -117 31.5t-77 89t-27 133.5q0 78 27 134.5t76.5 88t116.5 31.5q65 0 111.5 -31.5t64.5 -85.5h-6v323h85v-705h-80v112h4q-18 -56 -65.5 -88.5t-112.5 -32.5zM291 60q71 0 112.5 49t41.5 136q0 88 -41.5 136.5t-111.5 48.5q-71 0 -112.5 -48.5t-41.5 -136.5
q0 -87 41.5 -136t111.5 -49zM668 0v55l304 391l2 -24h-302v68h381v-55l-306 -393l-2 27h319v-69h-396zM822 555l-111 200h62l90 -144l90 144h62l-111 -200h-82z" />
    <glyph glyph-name="e" unicode="e" horiz-adv-x="560" 
d="M311 -9q-80 0 -138 30.5t-89 87.5t-31 136q0 75 29.5 132t83.5 89.5t126 32.5q70 0 118.5 -30t74.5 -84.5t26 -130.5v-30h-394v58h338l-17 -16q0 80 -37 124.5t-108 44.5q-49 0 -84.5 -22.5t-54.5 -63t-19 -95.5v-8q0 -61 20.5 -102t60.5 -62.5t96 -21.5q42 0 83 12.5
t78 42.5l29 -60q-36 -31 -87.5 -47.5t-103.5 -16.5z" />
    <glyph glyph-name="eacute" unicode="&#xe9;" horiz-adv-x="560" 
d="M311 -9q-80 0 -138 30.5t-89 87.5t-31 136q0 75 29.5 132t83.5 89.5t126 32.5q70 0 118.5 -30t74.5 -84.5t26 -130.5v-30h-394v58h338l-17 -16q0 80 -37 124.5t-108 44.5q-49 0 -84.5 -22.5t-54.5 -63t-19 -95.5v-8q0 -61 20.5 -102t60.5 -62.5t96 -21.5q42 0 83 12.5
t78 42.5l29 -60q-36 -31 -87.5 -47.5t-103.5 -16.5zM260 555l104 200h93l-133 -200h-64z" />
    <glyph glyph-name="ebreve" unicode="&#x115;" horiz-adv-x="560" 
d="M311 -9q-80 0 -138 30.5t-89 87.5t-31 136q0 75 29.5 132t83.5 89.5t126 32.5q70 0 118.5 -30t74.5 -84.5t26 -130.5v-30h-394v58h338l-17 -16q0 80 -37 124.5t-108 44.5q-49 0 -84.5 -22.5t-54.5 -63t-19 -95.5v-8q0 -61 20.5 -102t60.5 -62.5t96 -21.5q42 0 83 12.5
t78 42.5l29 -60q-36 -31 -87.5 -47.5t-103.5 -16.5zM293 552q-46 0 -80.5 23.5t-54 67t-22.5 102.5l56 5q4 -66 29.5 -102t71.5 -36t71.5 36t29.5 102l56 -5q-2 -59 -21.5 -102.5t-54 -67t-81.5 -23.5z" />
    <glyph glyph-name="ecaron" unicode="&#x11b;" horiz-adv-x="560" 
d="M311 -9q-80 0 -138 30.5t-89 87.5t-31 136q0 75 29.5 132t83.5 89.5t126 32.5q70 0 118.5 -30t74.5 -84.5t26 -130.5v-30h-394v58h338l-17 -16q0 80 -37 124.5t-108 44.5q-49 0 -84.5 -22.5t-54.5 -63t-19 -95.5v-8q0 -61 20.5 -102t60.5 -62.5t96 -21.5q42 0 83 12.5
t78 42.5l29 -60q-36 -31 -87.5 -47.5t-103.5 -16.5zM252 555l-111 200h62l90 -144l90 144h62l-111 -200h-82z" />
    <glyph glyph-name="uni1E1D" unicode="&#x1e1d;" horiz-adv-x="560" 
d="M311 -9q-80 0 -138 30.5t-89 87.5t-31 136q0 75 29.5 132t83.5 89.5t126 32.5q70 0 118.5 -30t74.5 -84.5t26 -130.5v-30h-394v58h338l-17 -16q0 80 -37 124.5t-108 44.5q-49 0 -84.5 -22.5t-54.5 -63t-19 -95.5v-8q0 -61 20.5 -102t60.5 -62.5t96 -21.5q42 0 83 12.5
t78 42.5l29 -60q-36 -31 -87.5 -47.5t-103.5 -16.5zM296 -194q-26 0 -51 5t-42 15l14 46q19 -9 36 -13t41 -4q26 0 42 9t16 27q0 13 -10 20.5t-29 7.5q-10 0 -21.5 -2t-26.5 -6l-17 15l14 94h53l-13 -77l-25 8q12 4 25 6t24 2q25 0 44 -8t30.5 -23.5t11.5 -38.5
q0 -25 -15 -44t-41 -29t-60 -10zM293 552q-46 0 -80.5 23.5t-54 67t-22.5 102.5l56 5q4 -66 29.5 -102t71.5 -36t71.5 36t29.5 102l56 -5q-2 -59 -21.5 -102.5t-54 -67t-81.5 -23.5z" />
    <glyph glyph-name="ecircumflex" unicode="&#xea;" horiz-adv-x="560" 
d="M311 -9q-80 0 -138 30.5t-89 87.5t-31 136q0 75 29.5 132t83.5 89.5t126 32.5q70 0 118.5 -30t74.5 -84.5t26 -130.5v-30h-394v58h338l-17 -16q0 80 -37 124.5t-108 44.5q-49 0 -84.5 -22.5t-54.5 -63t-19 -95.5v-8q0 -61 20.5 -102t60.5 -62.5t96 -21.5q42 0 83 12.5
t78 42.5l29 -60q-36 -31 -87.5 -47.5t-103.5 -16.5zM141 557l111 198h82l111 -198h-62l-90 141l-90 -141h-62z" />
    <glyph glyph-name="uni1EBF" unicode="&#x1ebf;" horiz-adv-x="560" 
d="M311 -9q-80 0 -138 30.5t-89 87.5t-31 136q0 75 29.5 132t83.5 89.5t126 32.5q70 0 118.5 -30t74.5 -84.5t26 -130.5v-30h-394v58h338l-17 -16q0 80 -37 124.5t-108 44.5q-49 0 -84.5 -22.5t-54.5 -63t-19 -95.5v-8q0 -61 20.5 -102t60.5 -62.5t96 -21.5q42 0 83 12.5
t78 42.5l29 -60q-36 -31 -87.5 -47.5t-103.5 -16.5zM140 558l112 165h82l112 -165h-62l-91 111l-92 -111h-61zM390 666l83 150h81l-109 -150h-55z" />
    <glyph glyph-name="uni1EC7" unicode="&#x1ec7;" horiz-adv-x="560" 
d="M311 -9q-80 0 -138 30.5t-89 87.5t-31 136q0 75 29.5 132t83.5 89.5t126 32.5q70 0 118.5 -30t74.5 -84.5t26 -130.5v-30h-394v58h338l-17 -16q0 80 -37 124.5t-108 44.5q-49 0 -84.5 -22.5t-54.5 -63t-19 -95.5v-8q0 -61 20.5 -102t60.5 -62.5t96 -21.5q42 0 83 12.5
t78 42.5l29 -60q-36 -31 -87.5 -47.5t-103.5 -16.5zM245 -189v91h94v-91h-94zM141 557l111 198h82l111 -198h-62l-90 141l-90 -141h-62z" />
    <glyph glyph-name="uni1EC1" unicode="&#x1ec1;" horiz-adv-x="560" 
d="M311 -9q-80 0 -138 30.5t-89 87.5t-31 136q0 75 29.5 132t83.5 89.5t126 32.5q70 0 118.5 -30t74.5 -84.5t26 -130.5v-30h-394v58h338l-17 -16q0 80 -37 124.5t-108 44.5q-49 0 -84.5 -22.5t-54.5 -63t-19 -95.5v-8q0 -61 20.5 -102t60.5 -62.5t96 -21.5q42 0 83 12.5
t78 42.5l29 -60q-36 -31 -87.5 -47.5t-103.5 -16.5zM140 558l112 165h82l112 -165h-62l-91 111l-92 -111h-61zM430 666l-109 150h82l83 -150h-56z" />
    <glyph glyph-name="uni1EC3" unicode="&#x1ec3;" horiz-adv-x="560" 
d="M311 -9q-80 0 -138 30.5t-89 87.5t-31 136q0 75 29.5 132t83.5 89.5t126 32.5q70 0 118.5 -30t74.5 -84.5t26 -130.5v-30h-394v58h338l-17 -16q0 80 -37 124.5t-108 44.5q-49 0 -84.5 -22.5t-54.5 -63t-19 -95.5v-8q0 -61 20.5 -102t60.5 -62.5t96 -21.5q42 0 83 12.5
t78 42.5l29 -60q-36 -31 -87.5 -47.5t-103.5 -16.5zM140 558l112 165h82l112 -165h-62l-91 111l-92 -111h-61zM397 667q0 21 8.5 33.5t20.5 21t20.5 16.5t8.5 19q0 12 -11.5 15.5t-32.5 3.5q-13 0 -28 -2.5t-32 -8.5l-13 40q18 8 39.5 12.5t50.5 4.5q44 0 68 -14t24 -38
q0 -20 -10.5 -32t-24 -21.5t-24 -20.5t-10.5 -29h-54z" />
    <glyph glyph-name="uni1EC5" unicode="&#x1ec5;" horiz-adv-x="560" 
d="M311 -9q-80 0 -138 30.5t-89 87.5t-31 136q0 75 29.5 132t83.5 89.5t126 32.5q70 0 118.5 -30t74.5 -84.5t26 -130.5v-30h-394v58h338l-17 -16q0 80 -37 124.5t-108 44.5q-49 0 -84.5 -22.5t-54.5 -63t-19 -95.5v-8q0 -61 20.5 -102t60.5 -62.5t96 -21.5q42 0 83 12.5
t78 42.5l29 -60q-36 -31 -87.5 -47.5t-103.5 -16.5zM140 558l112 136h82l112 -136h-61l-92 87l-92 -87h-61zM179 719l-48 3q3 35 15 58t32.5 35t48.5 12q20 0 38 -8t38 -21q19 -12 31 -17.5t23 -5.5q23 0 34 12.5t16 41.5l48 -4q-4 -51 -28.5 -77.5t-66.5 -26.5q-21 0 -39 8
t-40 23q-15 9 -27 15t-25 6q-21 0 -33 -12.5t-17 -41.5z" />
    <glyph glyph-name="uni0205" unicode="&#x205;" horiz-adv-x="560" 
d="M311 -9q-80 0 -138 30.5t-89 87.5t-31 136q0 75 29.5 132t83.5 89.5t126 32.5q70 0 118.5 -30t74.5 -84.5t26 -130.5v-30h-394v58h338l-17 -16q0 80 -37 124.5t-108 44.5q-49 0 -84.5 -22.5t-54.5 -63t-19 -95.5v-8q0 -61 20.5 -102t60.5 -62.5t96 -21.5q42 0 83 12.5
t78 42.5l29 -60q-36 -31 -87.5 -47.5t-103.5 -16.5zM335 555l-84 200h80l53 -200h-49zM204 555l-84 200h79l54 -200h-49z" />
    <glyph glyph-name="edieresis" unicode="&#xeb;" horiz-adv-x="560" 
d="M311 -9q-80 0 -138 30.5t-89 87.5t-31 136q0 75 29.5 132t83.5 89.5t126 32.5q70 0 118.5 -30t74.5 -84.5t26 -130.5v-30h-394v58h338l-17 -16q0 80 -37 124.5t-108 44.5q-49 0 -84.5 -22.5t-54.5 -63t-19 -95.5v-8q0 -61 20.5 -102t60.5 -62.5t96 -21.5q42 0 83 12.5
t78 42.5l29 -60q-36 -31 -87.5 -47.5t-103.5 -16.5zM339 611v91h92v-91h-92zM155 611v91h92v-91h-92z" />
    <glyph glyph-name="edotaccent" unicode="&#x117;" horiz-adv-x="560" 
d="M311 -9q-80 0 -138 30.5t-89 87.5t-31 136q0 75 29.5 132t83.5 89.5t126 32.5q70 0 118.5 -30t74.5 -84.5t26 -130.5v-30h-394v58h338l-17 -16q0 80 -37 124.5t-108 44.5q-49 0 -84.5 -22.5t-54.5 -63t-19 -95.5v-8q0 -61 20.5 -102t60.5 -62.5t96 -21.5q42 0 83 12.5
t78 42.5l29 -60q-36 -31 -87.5 -47.5t-103.5 -16.5zM246 612v91h94v-91h-94z" />
    <glyph glyph-name="uni1EB9" unicode="&#x1eb9;" horiz-adv-x="560" 
d="M311 -9q-80 0 -138 30.5t-89 87.5t-31 136q0 75 29.5 132t83.5 89.5t126 32.5q70 0 118.5 -30t74.5 -84.5t26 -130.5v-30h-394v58h338l-17 -16q0 80 -37 124.5t-108 44.5q-49 0 -84.5 -22.5t-54.5 -63t-19 -95.5v-8q0 -61 20.5 -102t60.5 -62.5t96 -21.5q42 0 83 12.5
t78 42.5l29 -60q-36 -31 -87.5 -47.5t-103.5 -16.5zM245 -189v91h94v-91h-94z" />
    <glyph glyph-name="egrave" unicode="&#xe8;" horiz-adv-x="560" 
d="M311 -9q-80 0 -138 30.5t-89 87.5t-31 136q0 75 29.5 132t83.5 89.5t126 32.5q70 0 118.5 -30t74.5 -84.5t26 -130.5v-30h-394v58h338l-17 -16q0 80 -37 124.5t-108 44.5q-49 0 -84.5 -22.5t-54.5 -63t-19 -95.5v-8q0 -61 20.5 -102t60.5 -62.5t96 -21.5q42 0 83 12.5
t78 42.5l29 -60q-36 -31 -87.5 -47.5t-103.5 -16.5zM262 556l-132 199h93l103 -199h-64z" />
    <glyph glyph-name="uni1EBB" unicode="&#x1ebb;" horiz-adv-x="560" 
d="M311 -9q-80 0 -138 30.5t-89 87.5t-31 136q0 75 29.5 132t83.5 89.5t126 32.5q70 0 118.5 -30t74.5 -84.5t26 -130.5v-30h-394v58h338l-17 -16q0 80 -37 124.5t-108 44.5q-49 0 -84.5 -22.5t-54.5 -63t-19 -95.5v-8q0 -61 20.5 -102t60.5 -62.5t96 -21.5q42 0 83 12.5
t78 42.5l29 -60q-36 -31 -87.5 -47.5t-103.5 -16.5zM263 556v20q0 23 9.5 38t21.5 25.5t21.5 21t9.5 25.5q0 14 -11 21t-35 7q-15 0 -30 -3.5t-33 -12.5l-15 45q19 12 43.5 17.5t52.5 5.5q48 0 74.5 -18t26.5 -51q0 -26 -11 -41t-26 -26t-26.5 -24.5t-11.5 -34.5v-15h-60z
" />
    <glyph glyph-name="uni0207" unicode="&#x207;" horiz-adv-x="560" 
d="M311 -9q-80 0 -138 30.5t-89 87.5t-31 136q0 75 29.5 132t83.5 89.5t126 32.5q70 0 118.5 -30t74.5 -84.5t26 -130.5v-30h-394v58h338l-17 -16q0 80 -37 124.5t-108 44.5q-49 0 -84.5 -22.5t-54.5 -63t-19 -95.5v-8q0 -61 20.5 -102t60.5 -62.5t96 -21.5q42 0 83 12.5
t78 42.5l29 -60q-36 -31 -87.5 -47.5t-103.5 -16.5zM192 552l-56 6q3 59 22.5 102t54 66.5t80.5 23.5q47 0 81.5 -23.5t54 -66.5t21.5 -102l-56 -6q-4 66 -29.5 102t-71.5 36t-71.5 -36t-29.5 -102z" />
    <glyph glyph-name="emacron" unicode="&#x113;" horiz-adv-x="560" 
d="M311 -9q-80 0 -138 30.5t-89 87.5t-31 136q0 75 29.5 132t83.5 89.5t126 32.5q70 0 118.5 -30t74.5 -84.5t26 -130.5v-30h-394v58h338l-17 -16q0 80 -37 124.5t-108 44.5q-49 0 -84.5 -22.5t-54.5 -63t-19 -95.5v-8q0 -61 20.5 -102t60.5 -62.5t96 -21.5q42 0 83 12.5
t78 42.5l29 -60q-36 -31 -87.5 -47.5t-103.5 -16.5zM139 627v61h308v-61h-308z" />
    <glyph glyph-name="uni1E17" unicode="&#x1e17;" horiz-adv-x="560" 
d="M311 -9q-80 0 -138 30.5t-89 87.5t-31 136q0 75 29.5 132t83.5 89.5t126 32.5q70 0 118.5 -30t74.5 -84.5t26 -130.5v-30h-394v58h338l-17 -16q0 80 -37 124.5t-108 44.5q-49 0 -84.5 -22.5t-54.5 -63t-19 -95.5v-8q0 -61 20.5 -102t60.5 -62.5t96 -21.5q42 0 83 12.5
t78 42.5l29 -60q-36 -31 -87.5 -47.5t-103.5 -16.5zM142 577v60h302v-60h-302zM258 675l86 142h91l-117 -142h-60z" />
    <glyph glyph-name="uni1E15" unicode="&#x1e15;" horiz-adv-x="560" 
d="M311 -9q-80 0 -138 30.5t-89 87.5t-31 136q0 75 29.5 132t83.5 89.5t126 32.5q70 0 118.5 -30t74.5 -84.5t26 -130.5v-30h-394v58h338l-17 -16q0 80 -37 124.5t-108 44.5q-49 0 -84.5 -22.5t-54.5 -63t-19 -95.5v-8q0 -61 20.5 -102t60.5 -62.5t96 -21.5q42 0 83 12.5
t78 42.5l29 -60q-36 -31 -87.5 -47.5t-103.5 -16.5zM142 577v60h302v-60h-302zM268 675l-117 142h91l86 -142h-60z" />
    <glyph glyph-name="eogonek" unicode="&#x119;" horiz-adv-x="560" 
d="M311 -9q-80 0 -138 30.5t-89 87.5t-31 136q0 75 29.5 132t83.5 89.5t126 32.5q70 0 118.5 -30t74.5 -84.5t26 -130.5v-30h-394v58h338l-17 -16q0 80 -37 124.5t-108 44.5q-49 0 -84.5 -22.5t-54.5 -63t-19 -95.5v-8q0 -61 20.5 -102t60.5 -62.5t96 -21.5q42 0 83 12.5
t78 42.5l29 -60q-36 -31 -87.5 -47.5t-103.5 -16.5zM348 -194q-49 0 -78.5 26.5t-29.5 70.5q0 40 26.5 76t70.5 58l31 -37q-15 -7 -30.5 -19.5t-25.5 -29.5t-10 -37q0 -28 16.5 -40.5t39.5 -12.5q14 0 27 2.5t27 8.5l15 -49q-15 -8 -35 -12.5t-44 -4.5z" />
    <glyph glyph-name="uni1EBD" unicode="&#x1ebd;" horiz-adv-x="560" 
d="M311 -9q-80 0 -138 30.5t-89 87.5t-31 136q0 75 29.5 132t83.5 89.5t126 32.5q70 0 118.5 -30t74.5 -84.5t26 -130.5v-30h-394v58h338l-17 -16q0 80 -37 124.5t-108 44.5q-49 0 -84.5 -22.5t-54.5 -63t-19 -95.5v-8q0 -61 20.5 -102t60.5 -62.5t96 -21.5q42 0 83 12.5
t78 42.5l29 -60q-36 -31 -87.5 -47.5t-103.5 -16.5zM161 592l-50 3q6 64 34 100t74 36q24 0 43 -11.5t41 -30.5q20 -17 33.5 -25t27.5 -8q26 0 40.5 20t20.5 58l50 -3q-5 -65 -33.5 -100.5t-73.5 -35.5q-23 0 -42.5 11t-43.5 31q-19 16 -32 24.5t-28 8.5q-25 0 -40 -20
t-21 -58z" />
    <glyph glyph-name="uni0259" unicode="&#x259;" horiz-adv-x="561" 
d="M272 -9q-71 0 -120.5 29.5t-76 85t-26.5 132.5v28h395v-58h-339l20 17q0 -83 38 -126.5t108 -43.5q46 0 81 21t54.5 61.5t19.5 98.5v8q0 61 -20.5 102.5t-60 62.5t-95.5 21q-42 0 -83 -12.5t-80 -42.5l-28 61q36 31 88 47t104 16q80 0 137.5 -30.5t88.5 -86.5t31 -136
q0 -75 -29.5 -133t-82.5 -90t-124 -32z" />
    <glyph glyph-name="uni0292" unicode="&#x292;" horiz-adv-x="524" 
d="M242 -190q-69 0 -125 16t-94 46l29 63q37 -27 81.5 -41t100.5 -14q83 0 125 35.5t42 105.5q0 63 -41.5 95t-118.5 32h-104l-1 46l238 250v-24h-332v70h412v-57l-230 -242l-19 22h60q105 0 163 -49.5t58 -138.5q0 -66 -29.5 -114.5t-84 -74.5t-130.5 -26z" />
    <glyph glyph-name="uni01EF" unicode="&#x1ef;" horiz-adv-x="524" 
d="M242 -190q-69 0 -125 16t-94 46l29 63q37 -27 81.5 -41t100.5 -14q83 0 125 35.5t42 105.5q0 63 -41.5 95t-118.5 32h-104l-1 46l238 250v-24h-332v70h412v-57l-230 -242l-19 22h60q105 0 163 -49.5t58 -138.5q0 -66 -29.5 -114.5t-84 -74.5t-130.5 -26zM207 555
l-111 200h62l90 -144l90 144h62l-111 -200h-82z" />
    <glyph glyph-name="f" unicode="f" horiz-adv-x="361" 
d="M110 0v424h-98v66h121l-23 -22v35q0 97 51.5 147.5t153.5 55.5l45 3l7 -68l-53 -3q-38 -2 -64.5 -15.5t-40.5 -40t-14 -69.5v-35l-12 12h160v-66h-148v-424h-85z" />
    <glyph glyph-name="g" unicode="g" horiz-adv-x="612" 
d="M297 -189q-61 0 -117.5 17t-99.5 49l28 64q29 -20 59.5 -33.5t62 -20t64.5 -6.5q75 0 114.5 39t39.5 110v102h4q-16 -54 -64 -86.5t-111 -32.5q-68 0 -118.5 30.5t-78 85.5t-27.5 127q0 73 27.5 128t78 85t118.5 30q64 0 112 -32.5t64 -88.5h-5v112h82v-450
q0 -73 -27 -124.5t-79 -78t-127 -26.5zM292 82q71 0 113 47.5t42 126.5q0 80 -42 127t-113 47t-112.5 -47t-41.5 -127q0 -79 41.5 -126.5t112.5 -47.5z" />
    <glyph glyph-name="gbreve" unicode="&#x11f;" horiz-adv-x="612" 
d="M297 -189q-61 0 -117.5 17t-99.5 49l28 64q29 -20 59.5 -33.5t62 -20t64.5 -6.5q75 0 114.5 39t39.5 110v102h4q-16 -54 -64 -86.5t-111 -32.5q-68 0 -118.5 30.5t-78 85.5t-27.5 127q0 73 27.5 128t78 85t118.5 30q64 0 112 -32.5t64 -88.5h-5v112h82v-450
q0 -73 -27 -124.5t-79 -78t-127 -26.5zM292 82q71 0 113 47.5t42 126.5q0 80 -42 127t-113 47t-112.5 -47t-41.5 -127q0 -79 41.5 -126.5t112.5 -47.5zM302 552q-46 0 -80.5 23.5t-54 67t-22.5 102.5l56 5q4 -66 29.5 -102t71.5 -36t71.5 36t29.5 102l56 -5
q-2 -59 -21.5 -102.5t-54 -67t-81.5 -23.5z" />
    <glyph glyph-name="gcaron" unicode="&#x1e7;" horiz-adv-x="612" 
d="M297 -189q-61 0 -117.5 17t-99.5 49l28 64q29 -20 59.5 -33.5t62 -20t64.5 -6.5q75 0 114.5 39t39.5 110v102h4q-16 -54 -64 -86.5t-111 -32.5q-68 0 -118.5 30.5t-78 85.5t-27.5 127q0 73 27.5 128t78 85t118.5 30q64 0 112 -32.5t64 -88.5h-5v112h82v-450
q0 -73 -27 -124.5t-79 -78t-127 -26.5zM292 82q71 0 113 47.5t42 126.5q0 80 -42 127t-113 47t-112.5 -47t-41.5 -127q0 -79 41.5 -126.5t112.5 -47.5zM261 555l-111 200h62l90 -144l90 144h62l-111 -200h-82z" />
    <glyph glyph-name="gcircumflex" unicode="&#x11d;" horiz-adv-x="612" 
d="M297 -189q-61 0 -117.5 17t-99.5 49l28 64q29 -20 59.5 -33.5t62 -20t64.5 -6.5q75 0 114.5 39t39.5 110v102h4q-16 -54 -64 -86.5t-111 -32.5q-68 0 -118.5 30.5t-78 85.5t-27.5 127q0 73 27.5 128t78 85t118.5 30q64 0 112 -32.5t64 -88.5h-5v112h82v-450
q0 -73 -27 -124.5t-79 -78t-127 -26.5zM292 82q71 0 113 47.5t42 126.5q0 80 -42 127t-113 47t-112.5 -47t-41.5 -127q0 -79 41.5 -126.5t112.5 -47.5zM150 557l111 198h82l111 -198h-62l-90 141l-90 -141h-62z" />
    <glyph glyph-name="uni0123" unicode="&#x123;" horiz-adv-x="612" 
d="M297 -189q-61 0 -117.5 17t-99.5 49l28 64q29 -20 59.5 -33.5t62 -20t64.5 -6.5q75 0 114.5 39t39.5 110v102h4q-16 -54 -64 -86.5t-111 -32.5q-68 0 -118.5 30.5t-78 85.5t-27.5 127q0 73 27.5 128t78 85t118.5 30q64 0 112 -32.5t64 -88.5h-5v112h82v-450
q0 -73 -27 -124.5t-79 -78t-127 -26.5zM292 82q71 0 113 47.5t42 126.5q0 80 -42 127t-113 47t-112.5 -47t-41.5 -127q0 -79 41.5 -126.5t112.5 -47.5zM251 572v64q0 39 13 72.5t40 61.5l38 -28q-23 -24 -31.5 -47t-8.5 -48l-19 12h70v-87h-102z" />
    <glyph glyph-name="gdotaccent" unicode="&#x121;" horiz-adv-x="612" 
d="M297 -189q-61 0 -117.5 17t-99.5 49l28 64q29 -20 59.5 -33.5t62 -20t64.5 -6.5q75 0 114.5 39t39.5 110v102h4q-16 -54 -64 -86.5t-111 -32.5q-68 0 -118.5 30.5t-78 85.5t-27.5 127q0 73 27.5 128t78 85t118.5 30q64 0 112 -32.5t64 -88.5h-5v112h82v-450
q0 -73 -27 -124.5t-79 -78t-127 -26.5zM292 82q71 0 113 47.5t42 126.5q0 80 -42 127t-113 47t-112.5 -47t-41.5 -127q0 -79 41.5 -126.5t112.5 -47.5zM255 612v91h94v-91h-94z" />
    <glyph glyph-name="uni1E21" unicode="&#x1e21;" horiz-adv-x="612" 
d="M297 -189q-61 0 -117.5 17t-99.5 49l28 64q29 -20 59.5 -33.5t62 -20t64.5 -6.5q75 0 114.5 39t39.5 110v102h4q-16 -54 -64 -86.5t-111 -32.5q-68 0 -118.5 30.5t-78 85.5t-27.5 127q0 73 27.5 128t78 85t118.5 30q64 0 112 -32.5t64 -88.5h-5v112h82v-450
q0 -73 -27 -124.5t-79 -78t-127 -26.5zM292 82q71 0 113 47.5t42 126.5q0 80 -42 127t-113 47t-112.5 -47t-41.5 -127q0 -79 41.5 -126.5t112.5 -47.5zM148 627v61h308v-61h-308z" />
    <glyph glyph-name="uni01E5" unicode="&#x1e5;" horiz-adv-x="612" 
d="M297 -189q-62 0 -118.5 15.5t-98.5 47.5l27 62q29 -20 59.5 -32.5t62.5 -18.5t65 -6q51 0 85.5 18.5t51.5 53.5l9 -12h-142v55h155l-11 -15q3 11 4.5 23t1.5 26v126h3q-16 -54 -63 -85.5t-111 -31.5q-68 0 -118 29t-78 81.5t-28 120.5t28 120.5t78 81.5t118 29
q64 0 111.5 -32t64.5 -87h-5v110h82v-450q0 -18 -2 -34.5t-4 -30.5l-7 19h83v-55h-102l19 12q-21 -70 -77 -105t-143 -35zM292 104q47 0 81.5 20.5t53.5 56.5t19 84q0 75 -41.5 120t-112.5 45q-46 0 -81 -20t-54 -56.5t-19 -85.5q0 -50 19 -86.5t54 -57t81 -20.5z" />
    <glyph glyph-name="h" unicode="h" horiz-adv-x="596" 
d="M82 0v705h84v-321h-7q22 55 69.5 85t108.5 30q60 0 99.5 -21.5t59.5 -65t20 -108.5v-304h-85v299q0 42 -11.5 71t-36.5 43.5t-65 14.5q-45 0 -79 -19.5t-53 -53.5t-19 -78v-277h-85z" />
    <glyph glyph-name="hbar" unicode="&#x127;" horiz-adv-x="599" 
d="M86 0v554h-90v62h90v89h83v-89h193v-62h-193v-175h-6q21 55 68.5 85t109.5 30q89 0 133.5 -48.5t44.5 -146.5v-299h-85v294q0 43 -11.5 71.5t-36.5 43t-65 14.5q-44 0 -78 -19.5t-53 -53.5t-19 -78v-272h-85z" />
    <glyph glyph-name="uni1E2B" unicode="&#x1e2b;" horiz-adv-x="596" 
d="M82 0v705h84v-321h-7q22 55 69.5 85t108.5 30q60 0 99.5 -21.5t59.5 -65t20 -108.5v-304h-85v299q0 42 -11.5 71t-36.5 43.5t-65 14.5q-45 0 -79 -19.5t-53 -53.5t-19 -78v-277h-85zM301 -215q-69 0 -111.5 40t-46.5 111l55 6q4 -48 30.5 -73.5t72.5 -25.5t72.5 25.5
t30.5 73.5l55 -6q-4 -70 -46 -110.5t-112 -40.5z" />
    <glyph glyph-name="uni021F" unicode="&#x21f;" horiz-adv-x="596" 
d="M82 0v705h84v-321h-7q22 55 69.5 85t108.5 30q60 0 99.5 -21.5t59.5 -65t20 -108.5v-304h-85v299q0 42 -11.5 71t-36.5 43.5t-65 14.5q-45 0 -79 -19.5t-53 -53.5t-19 -78v-277h-85zM254 765l-124 172h67l97 -118l98 118h66l-124 -172h-80z" />
    <glyph glyph-name="hcircumflex" unicode="&#x125;" horiz-adv-x="596" 
d="M82 0v705h84v-321h-7q22 55 69.5 85t108.5 30q60 0 99.5 -21.5t59.5 -65t20 -108.5v-304h-85v299q0 42 -11.5 71t-36.5 43.5t-65 14.5q-45 0 -79 -19.5t-53 -53.5t-19 -78v-277h-85zM130 765l124 172h80l124 -172h-67l-97 117l-98 -117h-66z" />
    <glyph glyph-name="uni1E25" unicode="&#x1e25;" horiz-adv-x="596" 
d="M82 0v705h84v-321h-7q22 55 69.5 85t108.5 30q60 0 99.5 -21.5t59.5 -65t20 -108.5v-304h-85v299q0 42 -11.5 71t-36.5 43.5t-65 14.5q-45 0 -79 -19.5t-53 -53.5t-19 -78v-277h-85zM254 -189v91h94v-91h-94z" />
    <glyph glyph-name="i" unicode="i" horiz-adv-x="250" 
d="M72 610v95h104v-95h-104zM82 0v490h85v-490h-85z" />
    <glyph glyph-name="dotlessi" unicode="&#x131;" horiz-adv-x="250" 
d="M82 0v490h85v-490h-85z" />
    <glyph glyph-name="iacute" unicode="&#xed;" horiz-adv-x="250" 
d="M82 0v490h85v-490h-85zM91 555l104 200h93l-133 -200h-64z" />
    <glyph glyph-name="ibreve" unicode="&#x12d;" horiz-adv-x="250" 
d="M82 0v490h85v-490h-85zM124 552q-46 0 -80.5 23.5t-54 67t-22.5 102.5l56 5q4 -66 29.5 -102t71.5 -36t71.5 36t29.5 102l56 -5q-2 -59 -21.5 -102.5t-54 -67t-81.5 -23.5z" />
    <glyph glyph-name="icircumflex" unicode="&#xee;" horiz-adv-x="250" 
d="M82 0v490h85v-490h-85zM-28 557l111 198h82l111 -198h-62l-90 141l-90 -141h-62z" />
    <glyph glyph-name="uni0209" unicode="&#x209;" horiz-adv-x="250" 
d="M82 0v490h85v-490h-85zM166 555l-84 200h80l53 -200h-49zM35 555l-84 200h79l54 -200h-49z" />
    <glyph glyph-name="idieresis" unicode="&#xef;" horiz-adv-x="250" 
d="M82 0v490h85v-490h-85zM170 611v91h92v-91h-92zM-14 611v91h92v-91h-92z" />
    <glyph glyph-name="uni1E2F" unicode="&#x1e2f;" horiz-adv-x="250" 
d="M82 0v490h85v-490h-85zM93 671l86 142h92l-118 -142h-60zM-13 556v77h92v-77h-92zM169 556v77h92v-77h-92z" />
    <glyph glyph-name="i.loclTRK" horiz-adv-x="250" 
d="M82 0v490h85v-490h-85zM77 612v91h94v-91h-94z" />
    <glyph glyph-name="uni1ECB" unicode="&#x1ecb;" horiz-adv-x="250" 
d="M72 610v95h104v-95h-104zM82 0v490h85v-490h-85zM76 -189v91h94v-91h-94z" />
    <glyph glyph-name="igrave" unicode="&#xec;" horiz-adv-x="250" 
d="M82 0v490h85v-490h-85zM93 556l-132 199h93l103 -199h-64z" />
    <glyph glyph-name="uni1EC9" unicode="&#x1ec9;" horiz-adv-x="250" 
d="M82 0v490h85v-490h-85zM94 556v20q0 23 9.5 38t21.5 25.5t21.5 21t9.5 25.5q0 14 -11 21t-35 7q-15 0 -30 -3.5t-33 -12.5l-15 45q19 12 43.5 17.5t52.5 5.5q48 0 74.5 -18t26.5 -51q0 -26 -11 -41t-26 -26t-26.5 -24.5t-11.5 -34.5v-15h-60z" />
    <glyph glyph-name="uni020B" unicode="&#x20b;" horiz-adv-x="250" 
d="M82 0v490h85v-490h-85zM23 552l-56 6q3 59 22.5 102t54 66.5t80.5 23.5q47 0 81.5 -23.5t54 -66.5t21.5 -102l-56 -6q-4 66 -29.5 102t-71.5 36t-71.5 -36t-29.5 -102z" />
    <glyph glyph-name="ij" unicode="&#x133;" horiz-adv-x="493" 
d="M72 610v95h104v-95h-104zM82 0v490h85v-490h-85zM321 610v95h104v-95h-104zM199 -193l-6 68l45 5q45 5 69 30.5t24 77.5v502h85v-496q0 -43 -10.5 -75.5t-31 -55t-52.5 -35.5t-76 -17z" />
    <glyph glyph-name="imacron" unicode="&#x12b;" horiz-adv-x="250" 
d="M82 0v490h85v-490h-85zM-30 627v61h308v-61h-308z" />
    <glyph glyph-name="iogonek" unicode="&#x12f;" horiz-adv-x="250" 
d="M82 0v490h85v-490h-85zM72 610v95h104v-95h-104zM135 -194q-49 0 -78.5 26.5t-29.5 70.5q0 40 26.5 76t70.5 58l31 -37q-15 -7 -30.5 -19.5t-25.5 -29.5t-10 -37q0 -28 16.5 -40.5t39.5 -12.5q14 0 27 2.5t27 8.5l15 -49q-15 -8 -35 -12.5t-44 -4.5z" />
    <glyph glyph-name="itilde" unicode="&#x129;" horiz-adv-x="250" 
d="M82 0v490h85v-490h-85zM-8 592l-50 3q6 64 34 100t74 36q24 0 43 -11.5t41 -30.5q20 -17 33.5 -25t27.5 -8q26 0 40.5 20t20.5 58l50 -3q-5 -65 -33.5 -100.5t-73.5 -35.5q-23 0 -42.5 11t-43.5 31q-19 16 -32 24.5t-28 8.5q-25 0 -40 -20t-21 -58z" />
    <glyph glyph-name="j" unicode="j" horiz-adv-x="243" 
d="M71 610v95h104v-95h-104zM-51 -193l-6 68l45 5q45 5 69 30.5t24 77.5v502h85v-496q0 -43 -10.5 -75.5t-31 -55t-52.5 -35.5t-76 -17z" />
    <glyph glyph-name="uni0237" unicode="&#x237;" horiz-adv-x="243" 
d="M-51 -193l-6 68l45 5q45 5 69 30.5t24 77.5v502h85v-496q0 -43 -10.5 -75.5t-31 -55t-52.5 -35.5t-76 -17z" />
    <glyph glyph-name="jcircumflex" unicode="&#x135;" horiz-adv-x="243" 
d="M-51 -193l-6 68l45 5q45 5 69 30.5t24 77.5v502h85v-496q0 -43 -10.5 -75.5t-31 -55t-52.5 -35.5t-76 -17zM-29 557l111 198h82l111 -198h-62l-90 141l-90 -141h-62z" />
    <glyph glyph-name="k" unicode="k" horiz-adv-x="519" 
d="M82 0v705h85v-433h3l224 218h106l-266 -258l1 42l288 -274h-108l-245 228h-3v-228h-85z" />
    <glyph glyph-name="uni01E9" unicode="&#x1e9;" horiz-adv-x="519" 
d="M82 0v705h85v-433h3l224 218h106l-266 -258l1 42l288 -274h-108l-245 228h-3v-228h-85zM254 765l-124 172h67l97 -118l98 118h66l-124 -172h-80z" />
    <glyph glyph-name="uni0137" unicode="&#x137;" horiz-adv-x="519" 
d="M82 0v705h85v-433h3l224 218h106l-266 -258l1 42l288 -274h-108l-245 228h-3v-228h-85zM258 -277l-38 27q23 24 31.5 47t8.5 48l19 -11h-70v87h102v-65q0 -39 -12.5 -72.5t-40.5 -60.5z" />
    <glyph glyph-name="kgreenlandic" unicode="&#x138;" horiz-adv-x="519" 
d="M82 0v490h85v-218h3l224 218h106l-266 -258l1 42l288 -274h-108l-245 228h-3v-228h-85z" />
    <glyph glyph-name="l" unicode="l" horiz-adv-x="309" 
d="M232 -9q-73 0 -111.5 43t-38.5 122v549h85v-542q0 -32 9.5 -55t27.5 -34t44 -11q13 0 25.5 1t25.5 5l-1 -69q-16 -4 -32 -6.5t-34 -2.5z" />
    <glyph glyph-name="lacute" unicode="&#x13a;" horiz-adv-x="309" 
d="M232 -9q-73 0 -111.5 43t-38.5 122v549h85v-542q0 -32 9.5 -55t27.5 -34t44 -11q13 0 25.5 1t25.5 5l-1 -69q-16 -4 -32 -6.5t-34 -2.5zM91 765l118 172h99l-149 -172h-68z" />
    <glyph glyph-name="lcaron" unicode="&#x13e;" horiz-adv-x="309" 
d="M232 -9q-73 0 -111.5 43t-38.5 122v549h85v-542q0 -32 9.5 -55t27.5 -34t44 -11q13 0 25.5 1t25.5 5l-1 -69q-16 -4 -32 -6.5t-34 -2.5zM214 514v191h71l-24 -191h-47z" />
    <glyph glyph-name="uni013C" unicode="&#x13c;" horiz-adv-x="309" 
d="M232 -9q-73 0 -111.5 43t-38.5 122v549h85v-542q0 -32 9.5 -55t27.5 -34t44 -11q13 0 25.5 1t25.5 5l-1 -69q-16 -4 -32 -6.5t-34 -2.5zM192 -276l-38 27q23 24 31.5 47t8.5 48l19 -11h-70v87h102v-65q0 -39 -12.5 -72.5t-40.5 -60.5z" />
    <glyph glyph-name="ldot" unicode="&#x140;" horiz-adv-x="339" 
d="M232 -9q-73 0 -111.5 43t-38.5 122v549h85v-542q0 -32 9.5 -55t27.5 -34t44 -11q13 0 25.5 1t25.5 5l-1 -69q-16 -4 -32 -6.5t-34 -2.5zM241 310v95h106v-95h-106z" />
    <glyph glyph-name="uni1E37" unicode="&#x1e37;" horiz-adv-x="309" 
d="M232 -9q-73 0 -111.5 43t-38.5 122v549h85v-542q0 -32 9.5 -55t27.5 -34t44 -11q13 0 25.5 1t25.5 5l-1 -69q-16 -4 -32 -6.5t-34 -2.5zM147 -188v91h94v-91h-94z" />
    <glyph glyph-name="uni01C9" unicode="&#x1c9;" horiz-adv-x="553" 
d="M232 -9q-73 0 -111.5 43t-38.5 122v549h85v-542q0 -32 9.5 -55t27.5 -34t44 -11q13 0 25.5 1t25.5 5l-1 -69q-16 -4 -32 -6.5t-34 -2.5zM380 610v95h104v-95h-104zM258 -193l-6 68l45 5q45 5 69 30.5t24 77.5v502h85v-496q0 -43 -10.5 -75.5t-31 -55t-52.5 -35.5t-76 -17
z" />
    <glyph glyph-name="uni1E3B" unicode="&#x1e3b;" horiz-adv-x="309" 
d="M232 -9q-73 0 -111.5 43t-38.5 122v549h85v-542q0 -32 9.5 -55t27.5 -34t44 -11q13 0 25.5 1t25.5 5l-1 -69q-16 -4 -32 -6.5t-34 -2.5zM40 -159v61h308v-61h-308z" />
    <glyph glyph-name="lslash" unicode="&#x142;" horiz-adv-x="309" 
d="M232 -9q-73 0 -111.5 43t-38.5 122v549h85v-542q0 -32 9.5 -55t27.5 -34t44 -11q13 0 25.5 1t25.5 5l-1 -69q-16 -4 -32 -6.5t-34 -2.5zM18 249l-35 61l269 156l35 -61z" />
    <glyph glyph-name="m" unicode="m" horiz-adv-x="895" 
d="M84 0v490h81v-108h-6q13 35 36.5 61.5t56.5 41t73 14.5q63 0 103 -31t52 -87h-8q19 52 64 85t109 33q56 0 93 -21.5t56 -64.5t19 -109v-304h-84v299q0 65 -23.5 97t-80.5 32q-41 0 -71.5 -19.5t-46.5 -53.5t-16 -80v-275h-85v299q0 65 -24.5 97t-78.5 32q-41 0 -71.5 -20
t-46.5 -54.5t-16 -76.5v-277h-85z" />
    <glyph glyph-name="uni1E43" unicode="&#x1e43;" horiz-adv-x="895" 
d="M84 0v490h81v-108h-6q13 35 36.5 61.5t56.5 41t73 14.5q63 0 103 -31t52 -87h-8q19 52 64 85t109 33q56 0 93 -21.5t56 -64.5t19 -109v-304h-84v299q0 65 -23.5 97t-80.5 32q-41 0 -71.5 -19.5t-46.5 -53.5t-16 -80v-275h-85v299q0 65 -24.5 97t-78.5 32q-41 0 -71.5 -20
t-46.5 -54.5t-16 -76.5v-277h-85zM401 -189v91h94v-91h-94z" />
    <glyph glyph-name="n" unicode="n" horiz-adv-x="596" 
d="M82 0v490h81v-108h-5q22 57 70 87t109 30q60 0 99.5 -21t59.5 -64.5t20 -109.5v-304h-85v299q0 42 -11.5 71t-36.5 43.5t-65 14.5q-45 0 -79 -19.5t-53 -53.5t-19 -78v-277h-85z" />
    <glyph glyph-name="nacute" unicode="&#x144;" horiz-adv-x="596" 
d="M82 0v490h81v-108h-5q22 57 70 87t109 30q60 0 99.5 -21t59.5 -64.5t20 -109.5v-304h-85v299q0 42 -11.5 71t-36.5 43.5t-65 14.5q-45 0 -79 -19.5t-53 -53.5t-19 -78v-277h-85zM270 555l104 200h93l-133 -200h-64z" />
    <glyph glyph-name="napostrophe" unicode="&#x149;" horiz-adv-x="610" 
d="M42 561l-38 28q22 22 29.5 44.5t7.5 43.5l21 -10h-70v89h102v-64q0 -38 -11.5 -70.5t-40.5 -60.5zM96 0v490h81v-108h-5q22 57 70 87t109 30q60 0 99.5 -21t59.5 -64.5t20 -109.5v-304h-85v299q0 42 -11.5 71t-36.5 43.5t-65 14.5q-45 0 -79 -19.5t-53 -53.5t-19 -78
v-277h-85z" />
    <glyph glyph-name="ncaron" unicode="&#x148;" horiz-adv-x="596" 
d="M82 0v490h81v-108h-5q22 57 70 87t109 30q60 0 99.5 -21t59.5 -64.5t20 -109.5v-304h-85v299q0 42 -11.5 71t-36.5 43.5t-65 14.5q-45 0 -79 -19.5t-53 -53.5t-19 -78v-277h-85zM262 555l-111 200h62l90 -144l90 144h62l-111 -200h-82z" />
    <glyph glyph-name="uni0146" unicode="&#x146;" horiz-adv-x="596" 
d="M82 0v490h81v-108h-5q22 57 70 87t109 30q60 0 99.5 -21t59.5 -64.5t20 -109.5v-304h-85v299q0 42 -11.5 71t-36.5 43.5t-65 14.5q-45 0 -79 -19.5t-53 -53.5t-19 -78v-277h-85zM295 -277l-38 27q23 24 31.5 47t8.5 48l19 -11h-70v87h102v-65q0 -39 -12.5 -72.5
t-40.5 -60.5z" />
    <glyph glyph-name="uni1E45" unicode="&#x1e45;" horiz-adv-x="596" 
d="M82 0v490h81v-108h-5q22 57 70 87t109 30q60 0 99.5 -21t59.5 -64.5t20 -109.5v-304h-85v299q0 42 -11.5 71t-36.5 43.5t-65 14.5q-45 0 -79 -19.5t-53 -53.5t-19 -78v-277h-85zM256 612v91h94v-91h-94z" />
    <glyph glyph-name="uni1E47" unicode="&#x1e47;" horiz-adv-x="596" 
d="M82 0v490h81v-108h-5q22 57 70 87t109 30q60 0 99.5 -21t59.5 -64.5t20 -109.5v-304h-85v299q0 42 -11.5 71t-36.5 43.5t-65 14.5q-45 0 -79 -19.5t-53 -53.5t-19 -78v-277h-85zM250 -189v91h94v-91h-94z" />
    <glyph glyph-name="uni01CC" unicode="&#x1cc;" horiz-adv-x="839" 
d="M82 0v490h81v-108h-5q22 57 70 87t109 30q60 0 99.5 -21t59.5 -64.5t20 -109.5v-304h-85v299q0 42 -11.5 71t-36.5 43.5t-65 14.5q-45 0 -79 -19.5t-53 -53.5t-19 -78v-277h-85zM667 610v95h104v-95h-104zM545 -193l-6 68l45 5q45 5 69 30.5t24 77.5v502h85v-496
q0 -43 -10.5 -75.5t-31 -55t-52.5 -35.5t-76 -17z" />
    <glyph glyph-name="uni1E49" unicode="&#x1e49;" horiz-adv-x="596" 
d="M82 0v490h81v-108h-5q22 57 70 87t109 30q60 0 99.5 -21t59.5 -64.5t20 -109.5v-304h-85v299q0 42 -11.5 71t-36.5 43.5t-65 14.5q-45 0 -79 -19.5t-53 -53.5t-19 -78v-277h-85zM143 -160v61h308v-61h-308z" />
    <glyph glyph-name="ntilde" unicode="&#xf1;" horiz-adv-x="596" 
d="M82 0v490h81v-108h-5q22 57 70 87t109 30q60 0 99.5 -21t59.5 -64.5t20 -109.5v-304h-85v299q0 42 -11.5 71t-36.5 43.5t-65 14.5q-45 0 -79 -19.5t-53 -53.5t-19 -78v-277h-85zM171 592l-50 3q6 64 34 100t74 36q24 0 43 -11.5t41 -30.5q20 -17 33.5 -25t27.5 -8
q26 0 40.5 20t20.5 58l50 -3q-5 -65 -33.5 -100.5t-73.5 -35.5q-23 0 -42.5 11t-43.5 31q-19 16 -32 24.5t-28 8.5q-25 0 -40 -20t-21 -58z" />
    <glyph glyph-name="eng" unicode="&#x14b;" horiz-adv-x="596" 
d="M299 -193l-6 68l45 5q45 5 69 30.5t24 77.5v311q0 42 -11.5 71t-36.5 43.5t-66 14.5q-44 0 -78 -19.5t-53 -53.5t-19 -78v-277h-85v490h81v-108h-5q22 57 69.5 87t109.5 30q59 0 99 -21t60 -64.5t20 -109.5v-310q0 -43 -10.5 -75.5t-31.5 -55t-52.5 -35.5t-75.5 -17z" />
    <glyph glyph-name="o" unicode="o" horiz-adv-x="582" 
d="M291 -9q-73 0 -126.5 31.5t-82.5 88.5t-29 135q0 77 29 133.5t82.5 88t126.5 31.5t126.5 -31.5t82.5 -88t29 -133.5q0 -78 -29 -135t-82.5 -88.5t-126.5 -31.5zM291 61q71 0 112 49t41 136t-41 135t-112 48t-112 -48t-41 -135t41.5 -136t111.5 -49z" />
    <glyph glyph-name="oacute" unicode="&#xf3;" horiz-adv-x="582" 
d="M291 -9q-73 0 -126.5 31.5t-82.5 88.5t-29 135q0 77 29 133.5t82.5 88t126.5 31.5t126.5 -31.5t82.5 -88t29 -133.5q0 -78 -29 -135t-82.5 -88.5t-126.5 -31.5zM291 61q71 0 112 49t41 136t-41 135t-112 48t-112 -48t-41 -135t41.5 -136t111.5 -49zM258 555l104 200h93
l-133 -200h-64z" />
    <glyph glyph-name="obreve" unicode="&#x14f;" horiz-adv-x="582" 
d="M291 -9q-73 0 -126.5 31.5t-82.5 88.5t-29 135q0 77 29 133.5t82.5 88t126.5 31.5t126.5 -31.5t82.5 -88t29 -133.5q0 -78 -29 -135t-82.5 -88.5t-126.5 -31.5zM291 61q71 0 112 49t41 136t-41 135t-112 48t-112 -48t-41 -135t41.5 -136t111.5 -49zM291 552
q-46 0 -80.5 23.5t-54 67t-22.5 102.5l56 5q4 -66 29.5 -102t71.5 -36t71.5 36t29.5 102l56 -5q-2 -59 -21.5 -102.5t-54 -67t-81.5 -23.5z" />
    <glyph glyph-name="ocircumflex" unicode="&#xf4;" horiz-adv-x="582" 
d="M291 -9q-73 0 -126.5 31.5t-82.5 88.5t-29 135q0 77 29 133.5t82.5 88t126.5 31.5t126.5 -31.5t82.5 -88t29 -133.5q0 -78 -29 -135t-82.5 -88.5t-126.5 -31.5zM291 61q71 0 112 49t41 136t-41 135t-112 48t-112 -48t-41 -135t41.5 -136t111.5 -49zM139 557l111 198h82
l111 -198h-62l-90 141l-90 -141h-62z" />
    <glyph glyph-name="uni1ED1" unicode="&#x1ed1;" horiz-adv-x="582" 
d="M291 -9q-73 0 -126.5 31.5t-82.5 88.5t-29 135q0 77 29 133.5t82.5 88t126.5 31.5t126.5 -31.5t82.5 -88t29 -133.5q0 -78 -29 -135t-82.5 -88.5t-126.5 -31.5zM291 61q71 0 112 49t41 136t-41 135t-112 48t-112 -48t-41 -135t41.5 -136t111.5 -49zM138 558l112 165h82
l112 -165h-62l-91 111l-92 -111h-61zM388 666l83 150h81l-109 -150h-55z" />
    <glyph glyph-name="uni1ED9" unicode="&#x1ed9;" horiz-adv-x="582" 
d="M291 -9q-73 0 -126.5 31.5t-82.5 88.5t-29 135q0 77 29 133.5t82.5 88t126.5 31.5t126.5 -31.5t82.5 -88t29 -133.5q0 -78 -29 -135t-82.5 -88.5t-126.5 -31.5zM291 61q71 0 112 49t41 136t-41 135t-112 48t-112 -48t-41 -135t41.5 -136t111.5 -49zM244 -191v91h94v-91
h-94zM139 557l111 198h82l111 -198h-62l-90 141l-90 -141h-62z" />
    <glyph glyph-name="uni1ED3" unicode="&#x1ed3;" horiz-adv-x="582" 
d="M291 -9q-73 0 -126.5 31.5t-82.5 88.5t-29 135q0 77 29 133.5t82.5 88t126.5 31.5t126.5 -31.5t82.5 -88t29 -133.5q0 -78 -29 -135t-82.5 -88.5t-126.5 -31.5zM291 61q71 0 112 49t41 136t-41 135t-112 48t-112 -48t-41 -135t41.5 -136t111.5 -49zM138 558l112 165h82
l112 -165h-62l-91 111l-92 -111h-61zM428 666l-109 150h82l83 -150h-56z" />
    <glyph glyph-name="uni1ED5" unicode="&#x1ed5;" horiz-adv-x="582" 
d="M291 -9q-73 0 -126.5 31.5t-82.5 88.5t-29 135q0 77 29 133.5t82.5 88t126.5 31.5t126.5 -31.5t82.5 -88t29 -133.5q0 -78 -29 -135t-82.5 -88.5t-126.5 -31.5zM291 61q71 0 112 49t41 136t-41 135t-112 48t-112 -48t-41 -135t41.5 -136t111.5 -49zM138 558l112 165h82
l112 -165h-62l-91 111l-92 -111h-61zM395 667q0 21 8.5 33.5t20.5 21t20.5 16.5t8.5 19q0 12 -11.5 15.5t-32.5 3.5q-13 0 -28 -2.5t-32 -8.5l-13 40q18 8 39.5 12.5t50.5 4.5q44 0 68 -14t24 -38q0 -20 -10.5 -32t-24 -21.5t-24 -20.5t-10.5 -29h-54z" />
    <glyph glyph-name="uni1ED7" unicode="&#x1ed7;" horiz-adv-x="582" 
d="M291 -9q-73 0 -126.5 31.5t-82.5 88.5t-29 135q0 77 29 133.5t82.5 88t126.5 31.5t126.5 -31.5t82.5 -88t29 -133.5q0 -78 -29 -135t-82.5 -88.5t-126.5 -31.5zM291 61q71 0 112 49t41 136t-41 135t-112 48t-112 -48t-41 -135t41.5 -136t111.5 -49zM138 558l112 136h82
l112 -136h-61l-92 87l-92 -87h-61zM177 719l-48 3q3 35 15 58t32.5 35t48.5 12q20 0 38 -8t38 -21q19 -12 31 -17.5t23 -5.5q23 0 34 12.5t16 41.5l48 -4q-4 -51 -28.5 -77.5t-66.5 -26.5q-21 0 -39 8t-40 23q-15 9 -27 15t-25 6q-21 0 -33 -12.5t-17 -41.5z" />
    <glyph glyph-name="uni020D" unicode="&#x20d;" horiz-adv-x="582" 
d="M291 -9q-73 0 -126.5 31.5t-82.5 88.5t-29 135q0 77 29 133.5t82.5 88t126.5 31.5t126.5 -31.5t82.5 -88t29 -133.5q0 -78 -29 -135t-82.5 -88.5t-126.5 -31.5zM291 61q71 0 112 49t41 136t-41 135t-112 48t-112 -48t-41 -135t41.5 -136t111.5 -49zM333 555l-84 200h80
l53 -200h-49zM202 555l-84 200h79l54 -200h-49z" />
    <glyph glyph-name="odieresis" unicode="&#xf6;" horiz-adv-x="582" 
d="M291 -9q-73 0 -126.5 31.5t-82.5 88.5t-29 135q0 77 29 133.5t82.5 88t126.5 31.5t126.5 -31.5t82.5 -88t29 -133.5q0 -78 -29 -135t-82.5 -88.5t-126.5 -31.5zM291 61q71 0 112 49t41 136t-41 135t-112 48t-112 -48t-41 -135t41.5 -136t111.5 -49zM337 611v91h92v-91
h-92zM153 611v91h92v-91h-92z" />
    <glyph glyph-name="uni022B" unicode="&#x22b;" horiz-adv-x="582" 
d="M291 -9q-73 0 -126.5 31.5t-82.5 88.5t-29 135q0 77 29 133.5t82.5 88t126.5 31.5t126.5 -31.5t82.5 -88t29 -133.5q0 -78 -29 -135t-82.5 -88.5t-126.5 -31.5zM291 61q71 0 112 49t41 136t-41 135t-112 48t-112 -48t-41 -135t41.5 -136t111.5 -49zM137 714v60h308v-60
h-308zM154 582v77h92v-77h-92zM336 582v77h92v-77h-92z" />
    <glyph glyph-name="uni0231" unicode="&#x231;" horiz-adv-x="582" 
d="M291 -9q-73 0 -126.5 31.5t-82.5 88.5t-29 135q0 77 29 133.5t82.5 88t126.5 31.5t126.5 -31.5t82.5 -88t29 -133.5q0 -78 -29 -135t-82.5 -88.5t-126.5 -31.5zM291 61q71 0 112 49t41 136t-41 135t-112 48t-112 -48t-41 -135t41.5 -136t111.5 -49zM140 716v59h302v-59
h-302zM245 582v78h92v-78h-92z" />
    <glyph glyph-name="uni1ECD" unicode="&#x1ecd;" horiz-adv-x="582" 
d="M291 -9q-73 0 -126.5 31.5t-82.5 88.5t-29 135q0 77 29 133.5t82.5 88t126.5 31.5t126.5 -31.5t82.5 -88t29 -133.5q0 -78 -29 -135t-82.5 -88.5t-126.5 -31.5zM291 61q71 0 112 49t41 136t-41 135t-112 48t-112 -48t-41 -135t41.5 -136t111.5 -49zM244 -191v91h94v-91
h-94z" />
    <glyph glyph-name="ograve" unicode="&#xf2;" horiz-adv-x="582" 
d="M291 -9q-73 0 -126.5 31.5t-82.5 88.5t-29 135q0 77 29 133.5t82.5 88t126.5 31.5t126.5 -31.5t82.5 -88t29 -133.5q0 -78 -29 -135t-82.5 -88.5t-126.5 -31.5zM291 61q71 0 112 49t41 136t-41 135t-112 48t-112 -48t-41 -135t41.5 -136t111.5 -49zM260 556l-132 199h93
l103 -199h-64z" />
    <glyph glyph-name="uni1ECF" unicode="&#x1ecf;" horiz-adv-x="582" 
d="M291 -9q-73 0 -126.5 31.5t-82.5 88.5t-29 135q0 77 29 133.5t82.5 88t126.5 31.5t126.5 -31.5t82.5 -88t29 -133.5q0 -78 -29 -135t-82.5 -88.5t-126.5 -31.5zM291 61q71 0 112 49t41 136t-41 135t-112 48t-112 -48t-41 -135t41.5 -136t111.5 -49zM261 556v20
q0 23 9.5 38t21.5 25.5t21.5 21t9.5 25.5q0 14 -11 21t-35 7q-15 0 -30 -3.5t-33 -12.5l-15 45q19 12 43.5 17.5t52.5 5.5q48 0 74.5 -18t26.5 -51q0 -26 -11 -41t-26 -26t-26.5 -24.5t-11.5 -34.5v-15h-60z" />
    <glyph glyph-name="ohorn" unicode="&#x1a1;" horiz-adv-x="582" 
d="M291 -9q-73 0 -126.5 31.5t-82.5 88.5t-29 135q0 77 29 133.5t82.5 88t126.5 31.5t126.5 -31.5t82.5 -88t29 -133.5q0 -78 -29 -135t-82.5 -88.5t-126.5 -31.5zM291 61q71 0 112 49t41 136t-41 135t-112 48t-112 -48t-41 -135t41.5 -136t111.5 -49zM390 438l-45 30v22
q42 1 65.5 12.5t33 36.5t9.5 64v15h77v-28q0 -44 -16.5 -77t-48 -52.5t-75.5 -22.5z" />
    <glyph glyph-name="uni1EDB" unicode="&#x1edb;" horiz-adv-x="582" 
d="M291 -9q-73 0 -126.5 31.5t-82.5 88.5t-29 135q0 77 29 133.5t82.5 88t126.5 31.5t126.5 -31.5t82.5 -88t29 -133.5q0 -78 -29 -135t-82.5 -88.5t-126.5 -31.5zM291 61q71 0 112 49t41 136t-41 135t-112 48t-112 -48t-41 -135t41.5 -136t111.5 -49zM390 438l-45 30v22
q42 1 65.5 12.5t33 36.5t9.5 64v15h77v-28q0 -44 -16.5 -77t-48 -52.5t-75.5 -22.5zM252 555l104 200h93l-133 -200h-64z" />
    <glyph glyph-name="uni1EE3" unicode="&#x1ee3;" horiz-adv-x="582" 
d="M291 -9q-73 0 -126.5 31.5t-82.5 88.5t-29 135q0 77 29 133.5t82.5 88t126.5 31.5t126.5 -31.5t82.5 -88t29 -133.5q0 -78 -29 -135t-82.5 -88.5t-126.5 -31.5zM291 61q71 0 112 49t41 136t-41 135t-112 48t-112 -48t-41 -135t41.5 -136t111.5 -49zM390 438l-45 30v22
q42 1 65.5 12.5t33 36.5t9.5 64v15h77v-28q0 -44 -16.5 -77t-48 -52.5t-75.5 -22.5zM244 -189v91h94v-91h-94z" />
    <glyph glyph-name="uni1EDD" unicode="&#x1edd;" horiz-adv-x="582" 
d="M291 -9q-73 0 -126.5 31.5t-82.5 88.5t-29 135q0 77 29 133.5t82.5 88t126.5 31.5t126.5 -31.5t82.5 -88t29 -133.5q0 -78 -29 -135t-82.5 -88.5t-126.5 -31.5zM291 61q71 0 112 49t41 136t-41 135t-112 48t-112 -48t-41 -135t41.5 -136t111.5 -49zM390 438l-45 30v22
q42 1 65.5 12.5t33 36.5t9.5 64v15h77v-28q0 -44 -16.5 -77t-48 -52.5t-75.5 -22.5zM254 556l-132 199h93l103 -199h-64z" />
    <glyph glyph-name="uni1EDF" unicode="&#x1edf;" horiz-adv-x="582" 
d="M291 -9q-73 0 -126.5 31.5t-82.5 88.5t-29 135q0 77 29 133.5t82.5 88t126.5 31.5t126.5 -31.5t82.5 -88t29 -133.5q0 -78 -29 -135t-82.5 -88.5t-126.5 -31.5zM291 61q71 0 112 49t41 136t-41 135t-112 48t-112 -48t-41 -135t41.5 -136t111.5 -49zM390 438l-45 30v22
q42 1 65.5 12.5t33 36.5t9.5 64v15h77v-28q0 -44 -16.5 -77t-48 -52.5t-75.5 -22.5zM255 556v20q0 23 9.5 38t21.5 25.5t21.5 21t9.5 25.5q0 14 -11 21t-35 7q-15 0 -30 -3.5t-33 -12.5l-15 45q19 12 43.5 17.5t52.5 5.5q48 0 74.5 -18t26.5 -51q0 -26 -11 -41t-26 -26
t-26.5 -24.5t-11.5 -34.5v-15h-60z" />
    <glyph glyph-name="uni1EE1" unicode="&#x1ee1;" horiz-adv-x="582" 
d="M291 -9q-73 0 -126.5 31.5t-82.5 88.5t-29 135q0 77 29 133.5t82.5 88t126.5 31.5t126.5 -31.5t82.5 -88t29 -133.5q0 -78 -29 -135t-82.5 -88.5t-126.5 -31.5zM291 61q71 0 112 49t41 136t-41 135t-112 48t-112 -48t-41 -135t41.5 -136t111.5 -49zM390 438l-45 30v22
q42 1 65.5 12.5t33 36.5t9.5 64v15h77v-28q0 -44 -16.5 -77t-48 -52.5t-75.5 -22.5zM155 594l-50 3q6 66 33 100.5t70 34.5q22 0 40.5 -10.5t41.5 -31.5q20 -17 33 -25t27 -8q25 0 39.5 20t19.5 58l50 -3q-5 -66 -32 -100.5t-70 -34.5q-23 0 -42.5 11.5t-40.5 30.5
q-19 17 -32.5 25t-27.5 8q-25 0 -39.5 -20t-19.5 -58z" />
    <glyph glyph-name="ohungarumlaut" unicode="&#x151;" horiz-adv-x="582" 
d="M291 -9q-73 0 -126.5 31.5t-82.5 88.5t-29 135q0 77 29 133.5t82.5 88t126.5 31.5t126.5 -31.5t82.5 -88t29 -133.5q0 -78 -29 -135t-82.5 -88.5t-126.5 -31.5zM291 61q71 0 112 49t41 136t-41 135t-112 48t-112 -48t-41 -135t41.5 -136t111.5 -49zM331 556l54 199h79
l-84 -199h-49zM200 556l53 199h80l-84 -199h-49z" />
    <glyph glyph-name="uni020F" unicode="&#x20f;" horiz-adv-x="582" 
d="M291 -9q-73 0 -126.5 31.5t-82.5 88.5t-29 135q0 77 29 133.5t82.5 88t126.5 31.5t126.5 -31.5t82.5 -88t29 -133.5q0 -78 -29 -135t-82.5 -88.5t-126.5 -31.5zM291 61q71 0 112 49t41 136t-41 135t-112 48t-112 -48t-41 -135t41.5 -136t111.5 -49zM190 552l-56 6
q3 59 22.5 102t54 66.5t80.5 23.5q47 0 81.5 -23.5t54 -66.5t21.5 -102l-56 -6q-4 66 -29.5 102t-71.5 36t-71.5 -36t-29.5 -102z" />
    <glyph glyph-name="omacron" unicode="&#x14d;" horiz-adv-x="582" 
d="M291 -9q-73 0 -126.5 31.5t-82.5 88.5t-29 135q0 77 29 133.5t82.5 88t126.5 31.5t126.5 -31.5t82.5 -88t29 -133.5q0 -78 -29 -135t-82.5 -88.5t-126.5 -31.5zM291 61q71 0 112 49t41 136t-41 135t-112 48t-112 -48t-41 -135t41.5 -136t111.5 -49zM137 627v61h308v-61
h-308z" />
    <glyph glyph-name="uni1E53" unicode="&#x1e53;" horiz-adv-x="582" 
d="M291 -9q-73 0 -126.5 31.5t-82.5 88.5t-29 135q0 77 29 133.5t82.5 88t126.5 31.5t126.5 -31.5t82.5 -88t29 -133.5q0 -78 -29 -135t-82.5 -88.5t-126.5 -31.5zM291 61q71 0 112 49t41 136t-41 135t-112 48t-112 -48t-41 -135t41.5 -136t111.5 -49zM140 577v60h302v-60
h-302zM256 675l86 142h91l-117 -142h-60z" />
    <glyph glyph-name="uni1E51" unicode="&#x1e51;" horiz-adv-x="582" 
d="M291 -9q-73 0 -126.5 31.5t-82.5 88.5t-29 135q0 77 29 133.5t82.5 88t126.5 31.5t126.5 -31.5t82.5 -88t29 -133.5q0 -78 -29 -135t-82.5 -88.5t-126.5 -31.5zM291 61q71 0 112 49t41 136t-41 135t-112 48t-112 -48t-41 -135t41.5 -136t111.5 -49zM140 577v60h302v-60
h-302zM266 675l-117 142h91l86 -142h-60z" />
    <glyph glyph-name="uni01EB" unicode="&#x1eb;" horiz-adv-x="582" 
d="M291 -9q-73 0 -126.5 31.5t-82.5 88.5t-29 135q0 77 29 133.5t82.5 88t126.5 31.5t126.5 -31.5t82.5 -88t29 -133.5q0 -78 -29 -135t-82.5 -88.5t-126.5 -31.5zM291 61q71 0 112 49t41 136t-41 135t-112 48t-112 -48t-41 -135t41.5 -136t111.5 -49zM332 -194
q-49 0 -78.5 26.5t-29.5 70.5q0 40 26.5 76t70.5 58l31 -37q-15 -7 -30.5 -19.5t-25.5 -29.5t-10 -37q0 -28 16.5 -40.5t39.5 -12.5q14 0 27 2.5t27 8.5l15 -49q-15 -8 -35 -12.5t-44 -4.5z" />
    <glyph glyph-name="oslash" unicode="&#xf8;" horiz-adv-x="582" 
d="M291 -9q-73 0 -126.5 31.5t-82.5 88.5t-29 135q0 77 29 133.5t82.5 88t126.5 31.5t126.5 -31.5t82.5 -88t29 -133.5q0 -78 -29 -135t-82.5 -88.5t-126.5 -31.5zM291 59q71 0 113 49.5t42 137.5t-41.5 136.5t-113.5 48.5q-71 0 -113 -48.5t-42 -136.5t42 -137.5t113 -49.5
zM152 -49l-50 30l328 558l50 -29z" />
    <glyph glyph-name="oslashacute" unicode="&#x1ff;" horiz-adv-x="582" 
d="M291 -9q-73 0 -126.5 31.5t-82.5 88.5t-29 135q0 77 29 133.5t82.5 88t126.5 31.5t126.5 -31.5t82.5 -88t29 -133.5q0 -78 -29 -135t-82.5 -88.5t-126.5 -31.5zM291 59q71 0 113 49.5t42 137.5t-41.5 136.5t-113.5 48.5q-71 0 -113 -48.5t-42 -136.5t42 -137.5t113 -49.5
zM152 -49l-50 30l328 558l50 -29zM258 555l104 200h93l-133 -200h-64z" />
    <glyph glyph-name="otilde" unicode="&#xf5;" horiz-adv-x="582" 
d="M291 -9q-73 0 -126.5 31.5t-82.5 88.5t-29 135q0 77 29 133.5t82.5 88t126.5 31.5t126.5 -31.5t82.5 -88t29 -133.5q0 -78 -29 -135t-82.5 -88.5t-126.5 -31.5zM291 61q71 0 112 49t41 136t-41 135t-112 48t-112 -48t-41 -135t41.5 -136t111.5 -49zM159 592l-50 3
q6 64 34 100t74 36q24 0 43 -11.5t41 -30.5q20 -17 33.5 -25t27.5 -8q26 0 40.5 20t20.5 58l50 -3q-5 -65 -33.5 -100.5t-73.5 -35.5q-23 0 -42.5 11t-43.5 31q-19 16 -32 24.5t-28 8.5q-25 0 -40 -20t-21 -58z" />
    <glyph glyph-name="uni1E4D" unicode="&#x1e4d;" horiz-adv-x="582" 
d="M291 -9q-73 0 -126.5 31.5t-82.5 88.5t-29 135q0 77 29 133.5t82.5 88t126.5 31.5t126.5 -31.5t82.5 -88t29 -133.5q0 -78 -29 -135t-82.5 -88.5t-126.5 -31.5zM291 61q71 0 112 49t41 136t-41 135t-112 48t-112 -48t-41 -135t41.5 -136t111.5 -49zM177 550l-48 3
q3 34 15 57.5t32.5 35t48.5 11.5q19 0 37 -7t39 -22q16 -10 29 -16.5t25 -6.5q23 0 34 13.5t16 40.5l48 -3q-4 -51 -29 -77.5t-66 -26.5q-21 0 -38.5 8t-38.5 21q-17 11 -29.5 17t-24.5 6q-22 0 -33.5 -13t-16.5 -41zM261 673l86 143h91l-117 -143h-60z" />
    <glyph glyph-name="uni1E4F" unicode="&#x1e4f;" horiz-adv-x="582" 
d="M291 -9q-73 0 -126.5 31.5t-82.5 88.5t-29 135q0 77 29 133.5t82.5 88t126.5 31.5t126.5 -31.5t82.5 -88t29 -133.5q0 -78 -29 -135t-82.5 -88.5t-126.5 -31.5zM291 61q71 0 112 49t41 136t-41 135t-112 48t-112 -48t-41 -135t41.5 -136t111.5 -49zM177 550l-48 3
q3 34 15 57.5t32.5 35t48.5 11.5q19 0 37 -7t39 -22q16 -10 29 -16.5t25 -6.5q23 0 34 13.5t16 40.5l48 -3q-4 -51 -29 -77.5t-66 -26.5q-21 0 -38.5 8t-38.5 21q-17 11 -29.5 17t-24.5 6q-22 0 -33.5 -13t-16.5 -41zM154 699v77h92v-77h-92zM336 699v77h92v-77h-92z" />
    <glyph glyph-name="uni022D" unicode="&#x22d;" horiz-adv-x="582" 
d="M291 -9q-73 0 -126.5 31.5t-82.5 88.5t-29 135q0 77 29 133.5t82.5 88t126.5 31.5t126.5 -31.5t82.5 -88t29 -133.5q0 -78 -29 -135t-82.5 -88.5t-126.5 -31.5zM291 61q71 0 112 49t41 136t-41 135t-112 48t-112 -48t-41 -135t41.5 -136t111.5 -49zM137 712v59h308v-59
h-308zM177 550l-48 3q3 34 15 57.5t32.5 35t48.5 11.5q19 0 37 -7t39 -22q16 -10 29 -16.5t25 -6.5q23 0 34 13.5t16 40.5l48 -3q-4 -51 -29 -77.5t-66 -26.5q-21 0 -38.5 8t-38.5 21q-17 11 -29.5 17t-24.5 6q-22 0 -33.5 -13t-16.5 -41z" />
    <glyph glyph-name="oe" unicode="&#x153;" horiz-adv-x="949" 
d="M289 -9q-72 0 -125 32t-82 89t-29 134t29 133.5t82 88t125 31.5q73 0 127 -37.5t77 -105.5h-14q22 66 76.5 104.5t129.5 38.5q66 0 114.5 -30t74.5 -83.5t26 -126.5v-35h-392v58h336l-18 -15q0 52 -16 89.5t-47 58t-79 20.5t-83 -22t-54 -62.5t-19 -95.5v-9
q0 -62 20.5 -103t59 -62t93.5 -21q44 0 84 13t77 43l29 -61q-35 -31 -86 -47.5t-105 -16.5q-56 0 -100.5 16t-75 48t-46.5 80h14q-14 -43 -42.5 -75.5t-69 -50.5t-91.5 -18zM291 61q47 0 81 22t53 63.5t19 99.5t-19 99t-53 62.5t-81 21.5q-46 0 -80.5 -21.5t-53.5 -62.5
t-19 -99t19 -99.5t53.5 -63.5t80.5 -22z" />
    <glyph glyph-name="p" unicode="p" horiz-adv-x="611" 
d="M82 -180v670h81v-111h-5q19 56 66.5 88t112.5 32q67 0 116.5 -31.5t77 -88t27.5 -134.5q0 -76 -27 -133.5t-76.5 -89t-117.5 -31.5q-64 0 -110.5 32t-65.5 85h6v-288h-85zM319 60q71 0 112 49t41 137t-41 136t-112 48q-70 0 -111.5 -48t-41.5 -136t41.5 -137t111.5 -49z
" />
    <glyph glyph-name="thorn" unicode="&#xfe;" horiz-adv-x="611" 
d="M82 -180v885h84v-325h-6q19 55 65.5 87t111.5 32q67 0 116.5 -31.5t77 -88t27.5 -134.5q0 -77 -27.5 -134t-77 -88.5t-115.5 -31.5q-64 0 -111 31.5t-66 86.5h6v-289h-85zM319 60q71 0 112 49t41 137t-41 136t-112 48q-70 0 -111.5 -48t-41.5 -136t41.5 -137t111.5 -49z
" />
    <glyph glyph-name="q" unicode="q" horiz-adv-x="611" 
d="M443 -180v288h6q-18 -53 -64.5 -85t-111.5 -32q-67 0 -116.5 31.5t-76.5 89t-27 133.5q0 78 27 134.5t77 88t117 31.5q65 0 112.5 -32t65.5 -89h-4v112h80v-670h-85zM292 60q70 0 111.5 49t41.5 137q0 87 -41.5 135.5t-112.5 48.5q-70 0 -111.5 -48.5t-41.5 -135.5
q0 -88 41.5 -137t112.5 -49z" />
    <glyph glyph-name="r" unicode="r" horiz-adv-x="388" 
d="M82 0v490h80v-114h-4q17 57 60.5 87.5t110.5 35.5l37 3l8 -76l-62 -6q-69 -6 -106.5 -44.5t-37.5 -100.5v-275h-86z" />
    <glyph glyph-name="racute" unicode="&#x155;" horiz-adv-x="388" 
d="M82 0v490h80v-114h-4q17 57 60.5 87.5t110.5 35.5l37 3l8 -76l-62 -6q-69 -6 -106.5 -44.5t-37.5 -100.5v-275h-86zM192 555l104 200h93l-133 -200h-64z" />
    <glyph glyph-name="rcaron" unicode="&#x159;" horiz-adv-x="388" 
d="M82 0v490h80v-114h-4q17 57 60.5 87.5t110.5 35.5l37 3l8 -76l-62 -6q-69 -6 -106.5 -44.5t-37.5 -100.5v-275h-86zM184 555l-111 200h62l90 -144l90 144h62l-111 -200h-82z" />
    <glyph glyph-name="uni0157" unicode="&#x157;" horiz-adv-x="388" 
d="M82 0v490h80v-114h-4q17 57 60.5 87.5t110.5 35.5l37 3l8 -76l-62 -6q-69 -6 -106.5 -44.5t-37.5 -100.5v-275h-86zM123 -277l-38 27q23 24 31.5 47t8.5 48l19 -11h-70v87h102v-65q0 -39 -12.5 -72.5t-40.5 -60.5z" />
    <glyph glyph-name="uni0211" unicode="&#x211;" horiz-adv-x="388" 
d="M82 0v490h80v-114h-4q17 57 60.5 87.5t110.5 35.5l37 3l8 -76l-62 -6q-69 -6 -106.5 -44.5t-37.5 -100.5v-275h-86zM267 555l-84 200h80l53 -200h-49zM136 555l-84 200h79l54 -200h-49z" />
    <glyph glyph-name="uni1E5B" unicode="&#x1e5b;" horiz-adv-x="388" 
d="M82 0v490h80v-114h-4q17 57 60.5 87.5t110.5 35.5l37 3l8 -76l-62 -6q-69 -6 -106.5 -44.5t-37.5 -100.5v-275h-86zM78 -189v91h94v-91h-94z" />
    <glyph glyph-name="uni0213" unicode="&#x213;" horiz-adv-x="388" 
d="M82 0v490h80v-114h-4q17 57 60.5 87.5t110.5 35.5l37 3l8 -76l-62 -6q-69 -6 -106.5 -44.5t-37.5 -100.5v-275h-86zM124 552l-56 6q3 59 22.5 102t54 66.5t80.5 23.5q47 0 81.5 -23.5t54 -66.5t21.5 -102l-56 -6q-4 66 -29.5 102t-71.5 36t-71.5 -36t-29.5 -102z" />
    <glyph glyph-name="uni1E5F" unicode="&#x1e5f;" horiz-adv-x="388" 
d="M82 0v490h80v-114h-4q17 57 60.5 87.5t110.5 35.5l37 3l8 -76l-62 -6q-69 -6 -106.5 -44.5t-37.5 -100.5v-275h-86zM-29 -160v61h308v-61h-308z" />
    <glyph glyph-name="s" unicode="s" horiz-adv-x="510" 
d="M255 -9q-39 0 -76.5 7.5t-69.5 21t-55 32.5l27 61q25 -19 54 -31.5t60 -18t61 -5.5q59 0 90.5 19.5t31.5 54.5q0 29 -19.5 45t-62.5 25l-97 18q-65 13 -98 46.5t-33 86.5q0 44 24 77t69 51t105 18q34 0 68 -7t63.5 -20.5t49.5 -33.5l-28 -60q-20 18 -45.5 30.5
t-53.5 18.5t-55 6q-56 0 -87 -21t-31 -56q0 -29 18.5 -45.5t58.5 -24.5l95 -19q70 -14 104.5 -45.5t34.5 -85.5q0 -45 -25.5 -77.5t-70.5 -50t-107 -17.5z" />
    <glyph glyph-name="sacute" unicode="&#x15b;" horiz-adv-x="510" 
d="M255 -9q-39 0 -76.5 7.5t-69.5 21t-55 32.5l27 61q25 -19 54 -31.5t60 -18t61 -5.5q59 0 90.5 19.5t31.5 54.5q0 29 -19.5 45t-62.5 25l-97 18q-65 13 -98 46.5t-33 86.5q0 44 24 77t69 51t105 18q34 0 68 -7t63.5 -20.5t49.5 -33.5l-28 -60q-20 18 -45.5 30.5
t-53.5 18.5t-55 6q-56 0 -87 -21t-31 -56q0 -29 18.5 -45.5t58.5 -24.5l95 -19q70 -14 104.5 -45.5t34.5 -85.5q0 -45 -25.5 -77.5t-70.5 -50t-107 -17.5zM229 555l104 200h93l-133 -200h-64z" />
    <glyph glyph-name="uni1E65" unicode="&#x1e65;" horiz-adv-x="510" 
d="M255 -9q-39 0 -76.5 7.5t-69.5 21t-55 32.5l27 61q25 -19 54 -31.5t60 -18t61 -5.5q59 0 90.5 19.5t31.5 54.5q0 29 -19.5 45t-62.5 25l-97 18q-65 13 -98 46.5t-33 86.5q0 44 24 77t69 51t105 18q34 0 68 -7t63.5 -20.5t49.5 -33.5l-28 -60q-20 18 -45.5 30.5
t-53.5 18.5t-55 6q-56 0 -87 -21t-31 -56q0 -29 18.5 -45.5t58.5 -24.5l95 -19q70 -14 104.5 -45.5t34.5 -85.5q0 -45 -25.5 -77.5t-70.5 -50t-107 -17.5zM230 555l106 200h92l-135 -200h-63zM170 757v76h92v-76h-92z" />
    <glyph glyph-name="scaron" unicode="&#x161;" horiz-adv-x="510" 
d="M255 -9q-39 0 -76.5 7.5t-69.5 21t-55 32.5l27 61q25 -19 54 -31.5t60 -18t61 -5.5q59 0 90.5 19.5t31.5 54.5q0 29 -19.5 45t-62.5 25l-97 18q-65 13 -98 46.5t-33 86.5q0 44 24 77t69 51t105 18q34 0 68 -7t63.5 -20.5t49.5 -33.5l-28 -60q-20 18 -45.5 30.5
t-53.5 18.5t-55 6q-56 0 -87 -21t-31 -56q0 -29 18.5 -45.5t58.5 -24.5l95 -19q70 -14 104.5 -45.5t34.5 -85.5q0 -45 -25.5 -77.5t-70.5 -50t-107 -17.5zM221 555l-111 200h62l90 -144l90 144h62l-111 -200h-82z" />
    <glyph glyph-name="uni1E67" unicode="&#x1e67;" horiz-adv-x="510" 
d="M255 -9q-39 0 -76.5 7.5t-69.5 21t-55 32.5l27 61q25 -19 54 -31.5t60 -18t61 -5.5q59 0 90.5 19.5t31.5 54.5q0 29 -19.5 45t-62.5 25l-97 18q-65 13 -98 46.5t-33 86.5q0 44 24 77t69 51t105 18q34 0 68 -7t63.5 -20.5t49.5 -33.5l-28 -60q-20 18 -45.5 30.5
t-53.5 18.5t-55 6q-56 0 -87 -21t-31 -56q0 -29 18.5 -45.5t58.5 -24.5l95 -19q70 -14 104.5 -45.5t34.5 -85.5q0 -45 -25.5 -77.5t-70.5 -50t-107 -17.5zM221 555l-109 159h61l89 -106l89 106h61l-109 -159h-82zM216 759v76h93v-76h-93z" />
    <glyph glyph-name="scedilla" unicode="&#x15f;" horiz-adv-x="510" 
d="M255 -9q-39 0 -76.5 7.5t-69.5 21t-55 32.5l27 61q25 -19 54 -31.5t60 -18t61 -5.5q59 0 90.5 19.5t31.5 54.5q0 29 -19.5 45t-62.5 25l-97 18q-65 13 -98 46.5t-33 86.5q0 44 24 77t69 51t105 18q34 0 68 -7t63.5 -20.5t49.5 -33.5l-28 -60q-20 18 -45.5 30.5
t-53.5 18.5t-55 6q-56 0 -87 -21t-31 -56q0 -29 18.5 -45.5t58.5 -24.5l95 -19q70 -14 104.5 -45.5t34.5 -85.5q0 -45 -25.5 -77.5t-70.5 -50t-107 -17.5zM259 -194q-26 0 -51 5t-42 15l14 46q19 -9 36 -13t41 -4q26 0 42 9t16 27q0 13 -10 20.5t-29 7.5q-10 0 -21.5 -2
t-26.5 -6l-17 15l14 94h53l-13 -77l-25 8q12 4 25 6t24 2q25 0 44 -8t30.5 -23.5t11.5 -38.5q0 -25 -15 -44t-41 -29t-60 -10z" />
    <glyph glyph-name="scircumflex" unicode="&#x15d;" horiz-adv-x="510" 
d="M255 -9q-39 0 -76.5 7.5t-69.5 21t-55 32.5l27 61q25 -19 54 -31.5t60 -18t61 -5.5q59 0 90.5 19.5t31.5 54.5q0 29 -19.5 45t-62.5 25l-97 18q-65 13 -98 46.5t-33 86.5q0 44 24 77t69 51t105 18q34 0 68 -7t63.5 -20.5t49.5 -33.5l-28 -60q-20 18 -45.5 30.5
t-53.5 18.5t-55 6q-56 0 -87 -21t-31 -56q0 -29 18.5 -45.5t58.5 -24.5l95 -19q70 -14 104.5 -45.5t34.5 -85.5q0 -45 -25.5 -77.5t-70.5 -50t-107 -17.5zM110 557l111 198h82l111 -198h-62l-90 141l-90 -141h-62z" />
    <glyph glyph-name="uni0219" unicode="&#x219;" horiz-adv-x="510" 
d="M255 -9q-39 0 -76.5 7.5t-69.5 21t-55 32.5l27 61q25 -19 54 -31.5t60 -18t61 -5.5q59 0 90.5 19.5t31.5 54.5q0 29 -19.5 45t-62.5 25l-97 18q-65 13 -98 46.5t-33 86.5q0 44 24 77t69 51t105 18q34 0 68 -7t63.5 -20.5t49.5 -33.5l-28 -60q-20 18 -45.5 30.5
t-53.5 18.5t-55 6q-56 0 -87 -21t-31 -56q0 -29 18.5 -45.5t58.5 -24.5l95 -19q70 -14 104.5 -45.5t34.5 -85.5q0 -45 -25.5 -77.5t-70.5 -50t-107 -17.5zM253 -277l-38 27q23 24 31.5 47t8.5 48l19 -11h-70v87h102v-65q0 -39 -12.5 -72.5t-40.5 -60.5z" />
    <glyph glyph-name="uni1E61" unicode="&#x1e61;" horiz-adv-x="510" 
d="M255 -9q-39 0 -76.5 7.5t-69.5 21t-55 32.5l27 61q25 -19 54 -31.5t60 -18t61 -5.5q59 0 90.5 19.5t31.5 54.5q0 29 -19.5 45t-62.5 25l-97 18q-65 13 -98 46.5t-33 86.5q0 44 24 77t69 51t105 18q34 0 68 -7t63.5 -20.5t49.5 -33.5l-28 -60q-20 18 -45.5 30.5
t-53.5 18.5t-55 6q-56 0 -87 -21t-31 -56q0 -29 18.5 -45.5t58.5 -24.5l95 -19q70 -14 104.5 -45.5t34.5 -85.5q0 -45 -25.5 -77.5t-70.5 -50t-107 -17.5zM215 612v91h94v-91h-94z" />
    <glyph glyph-name="uni1E63" unicode="&#x1e63;" horiz-adv-x="510" 
d="M255 -9q-39 0 -76.5 7.5t-69.5 21t-55 32.5l27 61q25 -19 54 -31.5t60 -18t61 -5.5q59 0 90.5 19.5t31.5 54.5q0 29 -19.5 45t-62.5 25l-97 18q-65 13 -98 46.5t-33 86.5q0 44 24 77t69 51t105 18q34 0 68 -7t63.5 -20.5t49.5 -33.5l-28 -60q-20 18 -45.5 30.5
t-53.5 18.5t-55 6q-56 0 -87 -21t-31 -56q0 -29 18.5 -45.5t58.5 -24.5l95 -19q70 -14 104.5 -45.5t34.5 -85.5q0 -45 -25.5 -77.5t-70.5 -50t-107 -17.5zM208 -189v91h94v-91h-94z" />
    <glyph glyph-name="uni1E69" unicode="&#x1e69;" horiz-adv-x="510" 
d="M255 -9q-39 0 -76.5 7.5t-69.5 21t-55 32.5l27 61q25 -19 54 -31.5t60 -18t61 -5.5q59 0 90.5 19.5t31.5 54.5q0 29 -19.5 45t-62.5 25l-97 18q-65 13 -98 46.5t-33 86.5q0 44 24 77t69 51t105 18q34 0 68 -7t63.5 -20.5t49.5 -33.5l-28 -60q-20 18 -45.5 30.5
t-53.5 18.5t-55 6q-56 0 -87 -21t-31 -56q0 -29 18.5 -45.5t58.5 -24.5l95 -19q70 -14 104.5 -45.5t34.5 -85.5q0 -45 -25.5 -77.5t-70.5 -50t-107 -17.5zM208 -189v91h94v-91h-94zM215 612v91h94v-91h-94z" />
    <glyph glyph-name="germandbls" unicode="&#xdf;" horiz-adv-x="637" 
d="M419 -9q-36 0 -71.5 7t-67 21t-54.5 33l27 62q38 -29 81.5 -42t81.5 -13q50 0 78 19.5t28 55.5q0 30 -23.5 49t-80.5 38q-51 16 -80.5 34.5t-42.5 42t-13 54.5t16 60t59 68q30 27 42.5 49t12.5 46q0 23 -12 38.5t-34 24t-52 8.5q-69 0 -108 -40.5t-39 -117.5v-488h-85
v479q0 74 28 126.5t80.5 80t124.5 27.5q54 0 94 -16t62.5 -45t22.5 -69q0 -24 -7 -45t-23.5 -42.5t-42.5 -45.5q-33 -30 -46.5 -49.5t-13.5 -38.5q0 -16 9 -29.5t31 -25.5t59 -25q77 -25 110 -59t33 -87q0 -43 -23 -75.5t-65 -51t-96 -18.5z" />
    <glyph glyph-name="t" unicode="t" horiz-adv-x="384" 
d="M284 -9q-88 0 -132 46.5t-44 132.5v252h-98v68h100v148h83v-148h166v-68h-166v-244q0 -57 24.5 -85.5t78.5 -28.5q18 0 36 4t33 10l15 -66q-17 -9 -43.5 -15t-52.5 -6z" />
    <glyph glyph-name="tbar" unicode="&#x167;" horiz-adv-x="384" 
d="M284 -9q-88 0 -132 46.5t-44 132.5v252h-98v68h100v148h83v-148h166v-68h-166v-244q0 -57 24.5 -85.5t78.5 -28.5q18 0 36 4t33 10l15 -66q-17 -9 -43.5 -15t-52.5 -6zM33 241v59h280v-59h-280z" />
    <glyph glyph-name="tcaron" unicode="&#x165;" horiz-adv-x="384" 
d="M284 -9q-88 0 -132 46.5t-44 132.5v252h-98v68h100v148h83v-148h166v-68h-166v-244q0 -57 24.5 -85.5t78.5 -28.5q18 0 36 4t33 10l15 -66q-17 -9 -43.5 -15t-52.5 -6zM255 538v167h70l-23 -167h-47z" />
    <glyph glyph-name="uni0163" unicode="&#x163;" horiz-adv-x="384" 
d="M284 -9q-88 0 -132 46.5t-44 132.5v252h-98v68h100v148h83v-148h166v-68h-166v-244q0 -57 24.5 -85.5t78.5 -28.5q18 0 36 4t33 10l15 -66q-17 -9 -43.5 -15t-52.5 -6zM237 -196q-26 0 -51 5t-42 15l14 46q19 -9 36 -13t41 -4q26 0 42 9t16 27q0 13 -10 20.5t-29 7.5
q-10 0 -21.5 -2t-26.5 -6l-17 15l14 94h53l-13 -77l-25 8q12 4 25 6t24 2q25 0 44 -8t30.5 -23.5t11.5 -38.5q0 -25 -15 -44t-41 -29t-60 -10z" />
    <glyph glyph-name="uni021B" unicode="&#x21b;" horiz-adv-x="384" 
d="M284 -9q-88 0 -132 46.5t-44 132.5v252h-98v68h100v148h83v-148h166v-68h-166v-244q0 -57 24.5 -85.5t78.5 -28.5q18 0 36 4t33 10l15 -66q-17 -9 -43.5 -15t-52.5 -6zM231 -279l-38 27q23 24 31.5 47t8.5 48l19 -11h-70v87h102v-65q0 -39 -12.5 -72.5t-40.5 -60.5z" />
    <glyph glyph-name="uni1E97" unicode="&#x1e97;" horiz-adv-x="384" 
d="M284 -9q-88 0 -132 46.5t-44 132.5v252h-98v68h100v148h83v-148h166v-68h-166v-244q0 -57 24.5 -85.5t78.5 -28.5q18 0 36 4t33 10l15 -66q-17 -9 -43.5 -15t-52.5 -6zM195 742v90h92v-90h-92zM11 742v90h92v-90h-92z" />
    <glyph glyph-name="uni1E6D" unicode="&#x1e6d;" horiz-adv-x="384" 
d="M284 -9q-88 0 -132 46.5t-44 132.5v252h-98v68h100v148h83v-148h166v-68h-166v-244q0 -57 24.5 -85.5t78.5 -28.5q18 0 36 4t33 10l15 -66q-17 -9 -43.5 -15t-52.5 -6zM186 -191v91h94v-91h-94z" />
    <glyph glyph-name="uni1E6F" unicode="&#x1e6f;" horiz-adv-x="384" 
d="M284 -9q-88 0 -132 46.5t-44 132.5v252h-98v68h100v148h83v-148h166v-68h-166v-244q0 -57 24.5 -85.5t78.5 -28.5q18 0 36 4t33 10l15 -66q-17 -9 -43.5 -15t-52.5 -6zM79 -162v61h308v-61h-308z" />
    <glyph glyph-name="u" unicode="u" horiz-adv-x="590" 
d="M261 -9q-60 0 -100.5 22t-60.5 65.5t-20 107.5v304h85v-301q0 -41 11.5 -69.5t36.5 -43t65 -14.5q42 0 74.5 20t51 54t18.5 77v277h85v-490h-80v110h6q-22 -57 -66.5 -88t-105.5 -31z" />
    <glyph glyph-name="uacute" unicode="&#xfa;" horiz-adv-x="590" 
d="M261 -9q-60 0 -100.5 22t-60.5 65.5t-20 107.5v304h85v-301q0 -41 11.5 -69.5t36.5 -43t65 -14.5q42 0 74.5 20t51 54t18.5 77v277h85v-490h-80v110h6q-22 -57 -66.5 -88t-105.5 -31zM261 556l104 200h93l-133 -200h-64z" />
    <glyph glyph-name="ubreve" unicode="&#x16d;" horiz-adv-x="590" 
d="M261 -9q-60 0 -100.5 22t-60.5 65.5t-20 107.5v304h85v-301q0 -41 11.5 -69.5t36.5 -43t65 -14.5q42 0 74.5 20t51 54t18.5 77v277h85v-490h-80v110h6q-22 -57 -66.5 -88t-105.5 -31zM294 553q-46 0 -80.5 23.5t-54 67t-22.5 102.5l56 5q4 -66 29.5 -102t71.5 -36
t71.5 36t29.5 102l56 -5q-2 -59 -21.5 -102.5t-54 -67t-81.5 -23.5z" />
    <glyph glyph-name="uni01D4" unicode="&#x1d4;" horiz-adv-x="590" 
d="M261 -9q-60 0 -100.5 22t-60.5 65.5t-20 107.5v304h85v-301q0 -41 11.5 -69.5t36.5 -43t65 -14.5q42 0 74.5 20t51 54t18.5 77v277h85v-490h-80v110h6q-22 -57 -66.5 -88t-105.5 -31zM253 556l-111 200h62l90 -144l90 144h62l-111 -200h-82z" />
    <glyph glyph-name="ucircumflex" unicode="&#xfb;" horiz-adv-x="590" 
d="M261 -9q-60 0 -100.5 22t-60.5 65.5t-20 107.5v304h85v-301q0 -41 11.5 -69.5t36.5 -43t65 -14.5q42 0 74.5 20t51 54t18.5 77v277h85v-490h-80v110h6q-22 -57 -66.5 -88t-105.5 -31zM142 558l111 198h82l111 -198h-62l-90 141l-90 -141h-62z" />
    <glyph glyph-name="uni0215" unicode="&#x215;" horiz-adv-x="590" 
d="M261 -9q-60 0 -100.5 22t-60.5 65.5t-20 107.5v304h85v-301q0 -41 11.5 -69.5t36.5 -43t65 -14.5q42 0 74.5 20t51 54t18.5 77v277h85v-490h-80v110h6q-22 -57 -66.5 -88t-105.5 -31zM336 556l-84 200h80l53 -200h-49zM205 556l-84 200h79l54 -200h-49z" />
    <glyph glyph-name="udieresis" unicode="&#xfc;" horiz-adv-x="590" 
d="M261 -9q-60 0 -100.5 22t-60.5 65.5t-20 107.5v304h85v-301q0 -41 11.5 -69.5t36.5 -43t65 -14.5q42 0 74.5 20t51 54t18.5 77v277h85v-490h-80v110h6q-22 -57 -66.5 -88t-105.5 -31zM340 612v91h92v-91h-92zM156 612v91h92v-91h-92z" />
    <glyph glyph-name="uni1EE5" unicode="&#x1ee5;" horiz-adv-x="590" 
d="M261 -9q-60 0 -100.5 22t-60.5 65.5t-20 107.5v304h85v-301q0 -41 11.5 -69.5t36.5 -43t65 -14.5q42 0 74.5 20t51 54t18.5 77v277h85v-490h-80v110h6q-22 -57 -66.5 -88t-105.5 -31zM242 -189v91h94v-91h-94z" />
    <glyph glyph-name="ugrave" unicode="&#xf9;" horiz-adv-x="590" 
d="M261 -9q-60 0 -100.5 22t-60.5 65.5t-20 107.5v304h85v-301q0 -41 11.5 -69.5t36.5 -43t65 -14.5q42 0 74.5 20t51 54t18.5 77v277h85v-490h-80v110h6q-22 -57 -66.5 -88t-105.5 -31zM263 557l-132 199h93l103 -199h-64z" />
    <glyph glyph-name="uni1EE7" unicode="&#x1ee7;" horiz-adv-x="590" 
d="M261 -9q-60 0 -100.5 22t-60.5 65.5t-20 107.5v304h85v-301q0 -41 11.5 -69.5t36.5 -43t65 -14.5q42 0 74.5 20t51 54t18.5 77v277h85v-490h-80v110h6q-22 -57 -66.5 -88t-105.5 -31zM264 557v20q0 23 9.5 38t21.5 25.5t21.5 21t9.5 25.5q0 14 -11 21t-35 7
q-15 0 -30 -3.5t-33 -12.5l-15 45q19 12 43.5 17.5t52.5 5.5q48 0 74.5 -18t26.5 -51q0 -26 -11 -41t-26 -26t-26.5 -24.5t-11.5 -34.5v-15h-60z" />
    <glyph glyph-name="uhorn" unicode="&#x1b0;" horiz-adv-x="590" 
d="M261 -9q-60 0 -100.5 22t-60.5 65.5t-20 107.5v304h85v-301q0 -41 11.5 -69.5t36.5 -43t65 -14.5q42 0 74.5 20t51 54t18.5 77v277h85v-490h-80v110h6q-22 -57 -66.5 -88t-105.5 -31zM485 438l-45 30v22q42 1 65.5 12.5t33 36.5t9.5 64v15h77v-28q0 -44 -16.5 -77
t-48 -52.5t-75.5 -22.5z" />
    <glyph glyph-name="uni1EE9" unicode="&#x1ee9;" horiz-adv-x="590" 
d="M261 -9q-60 0 -100.5 22t-60.5 65.5t-20 107.5v304h85v-301q0 -41 11.5 -69.5t36.5 -43t65 -14.5q42 0 74.5 20t51 54t18.5 77v277h85v-490h-80v110h6q-22 -57 -66.5 -88t-105.5 -31zM485 438l-45 30v22q42 1 65.5 12.5t33 36.5t9.5 64v15h77v-28q0 -44 -16.5 -77
t-48 -52.5t-75.5 -22.5zM261 555l104 200h93l-133 -200h-64z" />
    <glyph glyph-name="uni1EF1" unicode="&#x1ef1;" horiz-adv-x="590" 
d="M261 -9q-60 0 -100.5 22t-60.5 65.5t-20 107.5v304h85v-301q0 -41 11.5 -69.5t36.5 -43t65 -14.5q42 0 74.5 20t51 54t18.5 77v277h85v-490h-80v110h6q-22 -57 -66.5 -88t-105.5 -31zM485 438l-45 30v22q42 1 65.5 12.5t33 36.5t9.5 64v15h77v-28q0 -44 -16.5 -77
t-48 -52.5t-75.5 -22.5zM242 -189v91h94v-91h-94z" />
    <glyph glyph-name="uni1EEB" unicode="&#x1eeb;" horiz-adv-x="590" 
d="M261 -9q-60 0 -100.5 22t-60.5 65.5t-20 107.5v304h85v-301q0 -41 11.5 -69.5t36.5 -43t65 -14.5q42 0 74.5 20t51 54t18.5 77v277h85v-490h-80v110h6q-22 -57 -66.5 -88t-105.5 -31zM485 438l-45 30v22q42 1 65.5 12.5t33 36.5t9.5 64v15h77v-28q0 -44 -16.5 -77
t-48 -52.5t-75.5 -22.5zM263 556l-132 199h93l103 -199h-64z" />
    <glyph glyph-name="uni1EED" unicode="&#x1eed;" horiz-adv-x="590" 
d="M261 -9q-60 0 -100.5 22t-60.5 65.5t-20 107.5v304h85v-301q0 -41 11.5 -69.5t36.5 -43t65 -14.5q42 0 74.5 20t51 54t18.5 77v277h85v-490h-80v110h6q-22 -57 -66.5 -88t-105.5 -31zM485 438l-45 30v22q42 1 65.5 12.5t33 36.5t9.5 64v15h77v-28q0 -44 -16.5 -77
t-48 -52.5t-75.5 -22.5zM264 556v20q0 23 9.5 38t21.5 25.5t21.5 21t9.5 25.5q0 14 -11 21t-35 7q-15 0 -30 -3.5t-33 -12.5l-15 45q19 12 43.5 17.5t52.5 5.5q48 0 74.5 -18t26.5 -51q0 -26 -11 -41t-26 -26t-26.5 -24.5t-11.5 -34.5v-15h-60z" />
    <glyph glyph-name="uni1EEF" unicode="&#x1eef;" horiz-adv-x="590" 
d="M261 -9q-60 0 -100.5 22t-60.5 65.5t-20 107.5v304h85v-301q0 -41 11.5 -69.5t36.5 -43t65 -14.5q42 0 74.5 20t51 54t18.5 77v277h85v-490h-80v110h6q-22 -57 -66.5 -88t-105.5 -31zM485 438l-45 30v22q42 1 65.5 12.5t33 36.5t9.5 64v15h77v-28q0 -44 -16.5 -77
t-48 -52.5t-75.5 -22.5zM164 594l-50 3q6 66 33 100.5t70 34.5q22 0 40.5 -10.5t41.5 -31.5q20 -17 33 -25t27 -8q25 0 39.5 20t19.5 58l50 -3q-5 -66 -32 -100.5t-70 -34.5q-23 0 -42.5 11.5t-40.5 30.5q-19 17 -32.5 25t-27.5 8q-25 0 -39.5 -20t-19.5 -58z" />
    <glyph glyph-name="uhungarumlaut" unicode="&#x171;" horiz-adv-x="590" 
d="M261 -9q-60 0 -100.5 22t-60.5 65.5t-20 107.5v304h85v-301q0 -41 11.5 -69.5t36.5 -43t65 -14.5q42 0 74.5 20t51 54t18.5 77v277h85v-490h-80v110h6q-22 -57 -66.5 -88t-105.5 -31zM334 557l54 199h79l-84 -199h-49zM203 557l53 199h80l-84 -199h-49z" />
    <glyph glyph-name="uni0217" unicode="&#x217;" horiz-adv-x="590" 
d="M261 -9q-60 0 -100.5 22t-60.5 65.5t-20 107.5v304h85v-301q0 -41 11.5 -69.5t36.5 -43t65 -14.5q42 0 74.5 20t51 54t18.5 77v277h85v-490h-80v110h6q-22 -57 -66.5 -88t-105.5 -31zM193 553l-56 6q3 59 22.5 102t54 66.5t80.5 23.5q47 0 81.5 -23.5t54 -66.5t21.5 -102
l-56 -6q-4 66 -29.5 102t-71.5 36t-71.5 -36t-29.5 -102z" />
    <glyph glyph-name="umacron" unicode="&#x16b;" horiz-adv-x="590" 
d="M261 -9q-60 0 -100.5 22t-60.5 65.5t-20 107.5v304h85v-301q0 -41 11.5 -69.5t36.5 -43t65 -14.5q42 0 74.5 20t51 54t18.5 77v277h85v-490h-80v110h6q-22 -57 -66.5 -88t-105.5 -31zM140 628v61h308v-61h-308z" />
    <glyph glyph-name="uni1E7B" unicode="&#x1e7b;" horiz-adv-x="590" 
d="M261 -9q-60 0 -100.5 22t-60.5 65.5t-20 107.5v304h85v-301q0 -41 11.5 -69.5t36.5 -43t65 -14.5q42 0 74.5 20t51 54t18.5 77v277h85v-490h-80v110h6q-22 -57 -66.5 -88t-105.5 -31zM140 586v60h308v-60h-308zM157 700v77h92v-77h-92zM339 700v77h92v-77h-92z" />
    <glyph glyph-name="uogonek" unicode="&#x173;" horiz-adv-x="590" 
d="M261 -9q-60 0 -100.5 22t-60.5 65.5t-20 107.5v304h85v-301q0 -41 11.5 -69.5t36.5 -43t65 -14.5q42 0 74.5 20t51 54t18.5 77v277h85v-490h-80v110h6q-22 -57 -66.5 -88t-105.5 -31zM471 -194q-49 0 -78.5 26.5t-29.5 70.5q0 40 26.5 76t70.5 58l31 -37
q-15 -7 -30.5 -19.5t-25.5 -29.5t-10 -37q0 -28 16.5 -40.5t39.5 -12.5q14 0 27 2.5t27 8.5l15 -49q-15 -8 -35 -12.5t-44 -4.5z" />
    <glyph glyph-name="uring" unicode="&#x16f;" horiz-adv-x="590" 
d="M261 -9q-60 0 -100.5 22t-60.5 65.5t-20 107.5v304h85v-301q0 -41 11.5 -69.5t36.5 -43t65 -14.5q42 0 74.5 20t51 54t18.5 77v277h85v-490h-80v110h6q-22 -57 -66.5 -88t-105.5 -31zM294 551q-34 0 -61.5 16t-44 42.5t-16.5 59.5q0 34 16 60t44 42t62 16q35 0 62.5 -16
t43.5 -42.5t16 -59.5t-16 -59.5t-43.5 -42.5t-62.5 -16zM294 597q32 0 52 20.5t20 51.5t-20 51.5t-52 20.5q-31 0 -51.5 -20.5t-20.5 -51.5t20.5 -51.5t51.5 -20.5z" />
    <glyph glyph-name="utilde" unicode="&#x169;" horiz-adv-x="590" 
d="M261 -9q-60 0 -100.5 22t-60.5 65.5t-20 107.5v304h85v-301q0 -41 11.5 -69.5t36.5 -43t65 -14.5q42 0 74.5 20t51 54t18.5 77v277h85v-490h-80v110h6q-22 -57 -66.5 -88t-105.5 -31zM162 593l-50 3q6 64 34 100t74 36q24 0 43 -11.5t41 -30.5q20 -17 33.5 -25t27.5 -8
q26 0 40.5 20t20.5 58l50 -3q-5 -65 -33.5 -100.5t-73.5 -35.5q-23 0 -42.5 11t-43.5 31q-19 16 -32 24.5t-28 8.5q-25 0 -40 -20t-21 -58z" />
    <glyph glyph-name="uni1E79" unicode="&#x1e79;" horiz-adv-x="590" 
d="M261 -9q-60 0 -100.5 22t-60.5 65.5t-20 107.5v304h85v-301q0 -41 11.5 -69.5t36.5 -43t65 -14.5q42 0 74.5 20t51 54t18.5 77v277h85v-490h-80v110h6q-22 -57 -66.5 -88t-105.5 -31zM180 551l-48 3q3 34 15 57.5t32.5 35t48.5 11.5q19 0 37 -7t39 -22q16 -10 29 -16.5
t25 -6.5q23 0 34 13.5t16 40.5l48 -3q-4 -51 -29 -77.5t-66 -26.5q-21 0 -38.5 8t-38.5 21q-17 11 -29.5 17t-24.5 6q-22 0 -33.5 -13t-16.5 -41zM264 674l86 143h91l-117 -143h-60z" />
    <glyph glyph-name="v" unicode="v" horiz-adv-x="530" 
d="M224 0l-208 490h91l167 -416h-15l169 416h87l-209 -490h-82z" />
    <glyph glyph-name="w" unicode="w" horiz-adv-x="851" 
d="M203 0l-176 490h87l141 -414h-15l151 414h72l149 -414h-14l142 414h85l-178 -490h-80l-155 423h27l-155 -423h-81z" />
    <glyph glyph-name="wacute" unicode="&#x1e83;" horiz-adv-x="851" 
d="M203 0l-176 490h87l141 -414h-15l151 414h72l149 -414h-14l142 414h85l-178 -490h-80l-155 423h27l-155 -423h-81zM393 555l104 200h93l-133 -200h-64z" />
    <glyph glyph-name="wcircumflex" unicode="&#x175;" horiz-adv-x="851" 
d="M203 0l-176 490h87l141 -414h-15l151 414h72l149 -414h-14l142 414h85l-178 -490h-80l-155 423h27l-155 -423h-81zM274 557l111 198h82l111 -198h-62l-90 141l-90 -141h-62z" />
    <glyph glyph-name="wdieresis" unicode="&#x1e85;" horiz-adv-x="851" 
d="M203 0l-176 490h87l141 -414h-15l151 414h72l149 -414h-14l142 414h85l-178 -490h-80l-155 423h27l-155 -423h-81zM472 611v91h92v-91h-92zM288 611v91h92v-91h-92z" />
    <glyph glyph-name="wgrave" unicode="&#x1e81;" horiz-adv-x="851" 
d="M203 0l-176 490h87l141 -414h-15l151 414h72l149 -414h-14l142 414h85l-178 -490h-80l-155 423h27l-155 -423h-81zM395 556l-132 199h93l103 -199h-64z" />
    <glyph glyph-name="x" unicode="x" horiz-adv-x="535" 
d="M20 0l211 275l1 -45l-201 260h98l148 -194h-18l148 194h98l-200 -258v40l211 -272h-99l-158 206h17l-158 -206h-98z" />
    <glyph glyph-name="y" unicode="y" horiz-adv-x="530" 
d="M141 -180l92 208v-49l-218 511h92l167 -417h-15l168 417h89l-286 -670h-89z" />
    <glyph glyph-name="yacute" unicode="&#xfd;" horiz-adv-x="530" 
d="M141 -180l92 208v-49l-218 511h92l167 -417h-15l168 417h89l-286 -670h-89zM232 555l104 200h93l-133 -200h-64z" />
    <glyph glyph-name="ycircumflex" unicode="&#x177;" horiz-adv-x="530" 
d="M141 -180l92 208v-49l-218 511h92l167 -417h-15l168 417h89l-286 -670h-89zM113 557l111 198h82l111 -198h-62l-90 141l-90 -141h-62z" />
    <glyph glyph-name="ydieresis" unicode="&#xff;" horiz-adv-x="530" 
d="M141 -180l92 208v-49l-218 511h92l167 -417h-15l168 417h89l-286 -670h-89zM311 611v91h92v-91h-92zM127 611v91h92v-91h-92z" />
    <glyph glyph-name="uni1E8F" unicode="&#x1e8f;" horiz-adv-x="530" 
d="M141 -180l92 208v-49l-218 511h92l167 -417h-15l168 417h89l-286 -670h-89zM218 612v91h94v-91h-94z" />
    <glyph glyph-name="uni1EF5" unicode="&#x1ef5;" horiz-adv-x="530" 
d="M141 -180l92 208v-49l-218 511h92l167 -417h-15l168 417h89l-286 -670h-89zM350 -189v91h94v-91h-94z" />
    <glyph glyph-name="ygrave" unicode="&#x1ef3;" horiz-adv-x="530" 
d="M141 -180l92 208v-49l-218 511h92l167 -417h-15l168 417h89l-286 -670h-89zM234 556l-132 199h93l103 -199h-64z" />
    <glyph glyph-name="uni01B4" unicode="&#x1b4;" horiz-adv-x="565" 
d="M389 394q14 35 33.5 58.5t47 35t64.5 11.5q18 0 33 -2t27 -7l-12 -67q-9 3 -19 4.5t-19 1.5q-20 0 -35.5 -7.5t-27.5 -23.5t-24 -45l-227 -533h-89l92 208v-49l-218 511h92l167 -417h-15z" />
    <glyph glyph-name="uni1EF7" unicode="&#x1ef7;" horiz-adv-x="530" 
d="M141 -180l92 208v-49l-218 511h92l167 -417h-15l168 417h89l-286 -670h-89zM235 556v20q0 23 9.5 38t21.5 25.5t21.5 21t9.5 25.5q0 14 -11 21t-35 7q-15 0 -30 -3.5t-33 -12.5l-15 45q19 12 43.5 17.5t52.5 5.5q48 0 74.5 -18t26.5 -51q0 -26 -11 -41t-26 -26
t-26.5 -24.5t-11.5 -34.5v-15h-60z" />
    <glyph glyph-name="uni0233" unicode="&#x233;" horiz-adv-x="530" 
d="M141 -180l92 208v-49l-218 511h92l167 -417h-15l168 417h89l-286 -670h-89zM111 627v61h308v-61h-308z" />
    <glyph glyph-name="uni1EF9" unicode="&#x1ef9;" horiz-adv-x="530" 
d="M141 -180l92 208v-49l-218 511h92l167 -417h-15l168 417h89l-286 -670h-89zM133 592l-50 3q6 64 34 100t74 36q24 0 43 -11.5t41 -30.5q20 -17 33.5 -25t27.5 -8q26 0 40.5 20t20.5 58l50 -3q-5 -65 -33.5 -100.5t-73.5 -35.5q-23 0 -42.5 11t-43.5 31q-19 16 -32 24.5
t-28 8.5q-25 0 -40 -20t-21 -58z" />
    <glyph glyph-name="z" unicode="z" horiz-adv-x="491" 
d="M57 0v55l304 391l2 -24h-302v68h381v-55l-306 -393l-2 27h319v-69h-396z" />
    <glyph glyph-name="zacute" unicode="&#x17a;" horiz-adv-x="491" 
d="M57 0v55l304 391l2 -24h-302v68h381v-55l-306 -393l-2 27h319v-69h-396zM220 555l104 200h93l-133 -200h-64z" />
    <glyph glyph-name="zcaron" unicode="&#x17e;" horiz-adv-x="491" 
d="M57 0v55l304 391l2 -24h-302v68h381v-55l-306 -393l-2 27h319v-69h-396zM212 555l-111 200h62l90 -144l90 144h62l-111 -200h-82z" />
    <glyph glyph-name="zdotaccent" unicode="&#x17c;" horiz-adv-x="491" 
d="M57 0v55l304 391l2 -24h-302v68h381v-55l-306 -393l-2 27h319v-69h-396zM206 612v91h94v-91h-94z" />
    <glyph glyph-name="uni1E93" unicode="&#x1e93;" horiz-adv-x="491" 
d="M57 0v55l304 391l2 -24h-302v68h381v-55l-306 -393l-2 27h319v-69h-396zM205 -189v91h94v-91h-94z" />
    <glyph glyph-name="germandbls.calt" horiz-adv-x="737" 
d="M444 -9q-60 0 -108 15.5t-87 47.5l30 66q39 -30 75.5 -42.5t82.5 -12.5q70 0 107.5 34t37.5 95q0 62 -40.5 93.5t-120.5 31.5h-127v71h102q43 0 76 14.5t51.5 43t18.5 69.5q0 61 -42 92t-121 31q-98 0 -148 -44.5t-50 -139.5v-456h-86v459q0 84 33.5 140.5t97.5 85.5
t155 29q76 0 131 -23t85.5 -64.5t30.5 -99.5q0 -41 -14.5 -75t-41 -58t-62.5 -36v9q71 -10 114 -56.5t43 -119.5q0 -62 -26.5 -107t-76.5 -69t-120 -24z" />
    <glyph glyph-name="iacute_j.loclNLD" horiz-adv-x="493" 
d="M82 0v490h85v-490h-85zM91 555l104 200h93l-133 -200h-64zM199 -193l-6 68l45 5q45 5 69 30.5t24 77.5v502h85v-496q0 -43 -10.5 -75.5t-31 -55t-52.5 -35.5t-76 -17zM340 555l104 200h93l-133 -200h-64z" />
    <glyph glyph-name="a.ss01" horiz-adv-x="611" 
d="M273 -9q-66 0 -116 31.5t-77 88.5t-27 134q0 78 27 134.5t76.5 88t115.5 31.5q65 0 112 -31.5t65 -85.5h-4v108h83v-490h-80v112h4q-19 -56 -66 -88.5t-113 -32.5zM291 60q71 0 112.5 48.5t41.5 136.5t-41.5 136.5t-111.5 48.5q-71 0 -112.5 -48.5t-41.5 -136.5
t41.5 -136.5t111.5 -48.5z" />
    <glyph glyph-name="aacute.ss01" horiz-adv-x="611" 
d="M273 -9q-66 0 -116 31.5t-77 88.5t-27 134q0 78 27 134.5t76.5 88t115.5 31.5q65 0 112 -31.5t65 -85.5h-4v108h83v-490h-80v112h4q-19 -56 -66 -88.5t-113 -32.5zM291 60q71 0 112.5 48.5t41.5 136.5t-41.5 136.5t-111.5 48.5q-71 0 -112.5 -48.5t-41.5 -136.5
t41.5 -136.5t111.5 -48.5zM263 555l104 200h93l-133 -200h-64z" />
    <glyph glyph-name="abreve.ss01" horiz-adv-x="611" 
d="M273 -9q-66 0 -116 31.5t-77 88.5t-27 134q0 78 27 134.5t76.5 88t115.5 31.5q65 0 112 -31.5t65 -85.5h-4v108h83v-490h-80v112h4q-19 -56 -66 -88.5t-113 -32.5zM291 60q71 0 112.5 48.5t41.5 136.5t-41.5 136.5t-111.5 48.5q-71 0 -112.5 -48.5t-41.5 -136.5
t41.5 -136.5t111.5 -48.5zM296 552q-46 0 -80.5 23.5t-54 67t-22.5 102.5l56 5q4 -66 29.5 -102t71.5 -36t71.5 36t29.5 102l56 -5q-2 -59 -21.5 -102.5t-54 -67t-81.5 -23.5z" />
    <glyph glyph-name="uni1EAF.ss01" horiz-adv-x="611" 
d="M273 -9q-66 0 -116 31.5t-77 88.5t-27 134q0 78 27 134.5t76.5 88t115.5 31.5q65 0 112 -31.5t65 -85.5h-4v108h83v-490h-80v112h4q-19 -56 -66 -88.5t-113 -32.5zM291 60q71 0 112.5 48.5t41.5 136.5t-41.5 136.5t-111.5 48.5q-71 0 -112.5 -48.5t-41.5 -136.5
t41.5 -136.5t111.5 -48.5zM296 552q-70 0 -112.5 41t-47.5 111l51 6q6 -49 34 -75.5t75 -26.5q48 0 76 26t33 76l51 -6q-4 -70 -47 -111t-113 -41zM260 672l86 142h91l-117 -142h-60z" />
    <glyph glyph-name="uni1EB7.ss01" horiz-adv-x="611" 
d="M273 -9q-66 0 -116 31.5t-77 88.5t-27 134q0 78 27 134.5t76.5 88t115.5 31.5q65 0 112 -31.5t65 -85.5h-4v108h83v-490h-80v112h4q-19 -56 -66 -88.5t-113 -32.5zM291 60q71 0 112.5 48.5t41.5 136.5t-41.5 136.5t-111.5 48.5q-71 0 -112.5 -48.5t-41.5 -136.5
t41.5 -136.5t111.5 -48.5zM245 -189v91h94v-91h-94zM296 552q-46 0 -80.5 23.5t-54 67t-22.5 102.5l56 5q4 -66 29.5 -102t71.5 -36t71.5 36t29.5 102l56 -5q-2 -59 -21.5 -102.5t-54 -67t-81.5 -23.5z" />
    <glyph glyph-name="uni1EB1.ss01" horiz-adv-x="611" 
d="M273 -9q-66 0 -116 31.5t-77 88.5t-27 134q0 78 27 134.5t76.5 88t115.5 31.5q65 0 112 -31.5t65 -85.5h-4v108h83v-490h-80v112h4q-19 -56 -66 -88.5t-113 -32.5zM291 60q71 0 112.5 48.5t41.5 136.5t-41.5 136.5t-111.5 48.5q-71 0 -112.5 -48.5t-41.5 -136.5
t41.5 -136.5t111.5 -48.5zM296 552q-70 0 -112.5 41t-47.5 111l51 6q6 -49 34 -75.5t75 -26.5q48 0 76 26t33 76l51 -6q-4 -70 -47 -111t-113 -41zM273 672l-115 142h90l85 -142h-60z" />
    <glyph glyph-name="uni1EB3.ss01" horiz-adv-x="611" 
d="M273 -9q-66 0 -116 31.5t-77 88.5t-27 134q0 78 27 134.5t76.5 88t115.5 31.5q65 0 112 -31.5t65 -85.5h-4v108h83v-490h-80v112h4q-19 -56 -66 -88.5t-113 -32.5zM291 60q71 0 112.5 48.5t41.5 136.5t-41.5 136.5t-111.5 48.5q-71 0 -112.5 -48.5t-41.5 -136.5
t41.5 -136.5t111.5 -48.5zM296 552q-70 0 -112.5 41t-47.5 111l51 6q6 -49 34 -75.5t75 -26.5q48 0 76 26t33 76l51 -6q-4 -69 -47 -110.5t-113 -41.5zM268 672q0 21 9 33t20.5 20t20.5 16t9 19t-11.5 15t-32.5 4q-13 0 -28.5 -2.5t-32.5 -9.5l-13 41q18 9 40 13t51 4
q44 0 68.5 -14t24.5 -38q0 -20 -10.5 -31.5t-24 -20.5t-24 -20t-10.5 -29h-56z" />
    <glyph glyph-name="uni1EB5.ss01" horiz-adv-x="611" 
d="M273 -9q-66 0 -116 31.5t-77 88.5t-27 134q0 78 27 134.5t76.5 88t115.5 31.5q65 0 112 -31.5t65 -85.5h-4v108h83v-490h-80v112h4q-19 -56 -66 -88.5t-113 -32.5zM291 60q71 0 112.5 48.5t41.5 136.5t-41.5 136.5t-111.5 48.5q-71 0 -112.5 -48.5t-41.5 -136.5
t41.5 -136.5t111.5 -48.5zM296 552q-63 0 -105.5 31.5t-54.5 84.5l51 9q10 -33 38.5 -51t70.5 -18q43 0 71 18t38 51l51 -9q-11 -53 -54 -84.5t-106 -31.5zM182 717l-48 3q3 34 15 57.5t32.5 35t48.5 11.5q20 0 38 -7.5t38 -21.5q19 -12 31 -17.5t23 -5.5q23 0 34 13.5
t16 40.5l48 -3q-4 -51 -29 -77.5t-66 -26.5q-21 0 -39 8t-40 22q-15 10 -27 16t-25 6q-22 0 -33.5 -13t-16.5 -41z" />
    <glyph glyph-name="uni01CE.ss01" horiz-adv-x="611" 
d="M273 -9q-66 0 -116 31.5t-77 88.5t-27 134q0 78 27 134.5t76.5 88t115.5 31.5q65 0 112 -31.5t65 -85.5h-4v108h83v-490h-80v112h4q-19 -56 -66 -88.5t-113 -32.5zM291 60q71 0 112.5 48.5t41.5 136.5t-41.5 136.5t-111.5 48.5q-71 0 -112.5 -48.5t-41.5 -136.5
t41.5 -136.5t111.5 -48.5zM255 555l-111 200h62l90 -144l90 144h62l-111 -200h-82z" />
    <glyph glyph-name="acircumflex.ss01" horiz-adv-x="611" 
d="M273 -9q-66 0 -116 31.5t-77 88.5t-27 134q0 78 27 134.5t76.5 88t115.5 31.5q65 0 112 -31.5t65 -85.5h-4v108h83v-490h-80v112h4q-19 -56 -66 -88.5t-113 -32.5zM291 60q71 0 112.5 48.5t41.5 136.5t-41.5 136.5t-111.5 48.5q-71 0 -112.5 -48.5t-41.5 -136.5
t41.5 -136.5t111.5 -48.5zM144 557l111 198h82l111 -198h-62l-90 141l-90 -141h-62z" />
    <glyph glyph-name="uni1EA5.ss01" horiz-adv-x="611" 
d="M273 -9q-66 0 -116 31.5t-77 88.5t-27 134q0 78 27 134.5t76.5 88t115.5 31.5q65 0 112 -31.5t65 -85.5h-4v108h83v-490h-80v112h4q-19 -56 -66 -88.5t-113 -32.5zM291 60q71 0 112.5 48.5t41.5 136.5t-41.5 136.5t-111.5 48.5q-71 0 -112.5 -48.5t-41.5 -136.5
t41.5 -136.5t111.5 -48.5zM143 558l112 165h82l112 -165h-62l-91 111l-92 -111h-61zM393 666l83 150h81l-109 -150h-55z" />
    <glyph glyph-name="uni1EAD.ss01" horiz-adv-x="611" 
d="M273 -9q-66 0 -116 31.5t-77 88.5t-27 134q0 78 27 134.5t76.5 88t115.5 31.5q65 0 112 -31.5t65 -85.5h-4v108h83v-490h-80v112h4q-19 -56 -66 -88.5t-113 -32.5zM291 60q71 0 112.5 48.5t41.5 136.5t-41.5 136.5t-111.5 48.5q-71 0 -112.5 -48.5t-41.5 -136.5
t41.5 -136.5t111.5 -48.5zM245 -189v91h94v-91h-94zM144 557l111 198h82l111 -198h-62l-90 141l-90 -141h-62z" />
    <glyph glyph-name="uni1EA7.ss01" horiz-adv-x="611" 
d="M273 -9q-66 0 -116 31.5t-77 88.5t-27 134q0 78 27 134.5t76.5 88t115.5 31.5q65 0 112 -31.5t65 -85.5h-4v108h83v-490h-80v112h4q-19 -56 -66 -88.5t-113 -32.5zM291 60q71 0 112.5 48.5t41.5 136.5t-41.5 136.5t-111.5 48.5q-71 0 -112.5 -48.5t-41.5 -136.5
t41.5 -136.5t111.5 -48.5zM143 558l112 165h82l112 -165h-62l-91 111l-92 -111h-61zM433 666l-109 150h82l83 -150h-56z" />
    <glyph glyph-name="uni1EA9.ss01" horiz-adv-x="611" 
d="M273 -9q-66 0 -116 31.5t-77 88.5t-27 134q0 78 27 134.5t76.5 88t115.5 31.5q65 0 112 -31.5t65 -85.5h-4v108h83v-490h-80v112h4q-19 -56 -66 -88.5t-113 -32.5zM291 60q71 0 112.5 48.5t41.5 136.5t-41.5 136.5t-111.5 48.5q-71 0 -112.5 -48.5t-41.5 -136.5
t41.5 -136.5t111.5 -48.5zM143 558l112 165h82l112 -165h-62l-91 111l-92 -111h-61zM400 667q0 21 8.5 33.5t20.5 21t20.5 16.5t8.5 19q0 12 -11.5 15.5t-32.5 3.5q-13 0 -28 -2.5t-32 -8.5l-13 40q18 8 39.5 12.5t50.5 4.5q44 0 68 -14t24 -38q0 -20 -10.5 -32t-24 -21.5
t-24 -20.5t-10.5 -29h-54z" />
    <glyph glyph-name="uni1EAB.ss01" horiz-adv-x="611" 
d="M273 -9q-66 0 -116 31.5t-77 88.5t-27 134q0 78 27 134.5t76.5 88t115.5 31.5q65 0 112 -31.5t65 -85.5h-4v108h83v-490h-80v112h4q-19 -56 -66 -88.5t-113 -32.5zM291 60q71 0 112.5 48.5t41.5 136.5t-41.5 136.5t-111.5 48.5q-71 0 -112.5 -48.5t-41.5 -136.5
t41.5 -136.5t111.5 -48.5zM143 558l112 136h82l112 -136h-61l-92 87l-92 -87h-61zM182 719l-48 3q3 35 15 58t32.5 35t48.5 12q20 0 38 -8t38 -21q19 -12 31 -17.5t23 -5.5q23 0 34 12.5t16 41.5l48 -4q-4 -51 -28.5 -77.5t-66.5 -26.5q-21 0 -39 8t-40 23q-15 9 -27 15
t-25 6q-21 0 -33 -12.5t-17 -41.5z" />
    <glyph glyph-name="uni0201.ss01" horiz-adv-x="611" 
d="M273 -9q-66 0 -116 31.5t-77 88.5t-27 134q0 78 27 134.5t76.5 88t115.5 31.5q65 0 112 -31.5t65 -85.5h-4v108h83v-490h-80v112h4q-19 -56 -66 -88.5t-113 -32.5zM291 60q71 0 112.5 48.5t41.5 136.5t-41.5 136.5t-111.5 48.5q-71 0 -112.5 -48.5t-41.5 -136.5
t41.5 -136.5t111.5 -48.5zM338 555l-84 200h80l53 -200h-49zM207 555l-84 200h79l54 -200h-49z" />
    <glyph glyph-name="adieresis.ss01" horiz-adv-x="611" 
d="M273 -9q-66 0 -116 31.5t-77 88.5t-27 134q0 78 27 134.5t76.5 88t115.5 31.5q65 0 112 -31.5t65 -85.5h-4v108h83v-490h-80v112h4q-19 -56 -66 -88.5t-113 -32.5zM291 60q71 0 112.5 48.5t41.5 136.5t-41.5 136.5t-111.5 48.5q-71 0 -112.5 -48.5t-41.5 -136.5
t41.5 -136.5t111.5 -48.5zM342 611v91h92v-91h-92zM158 611v91h92v-91h-92z" />
    <glyph glyph-name="uni0227.ss01" horiz-adv-x="611" 
d="M273 -9q-66 0 -116 31.5t-77 88.5t-27 134q0 78 27 134.5t76.5 88t115.5 31.5q65 0 112 -31.5t65 -85.5h-4v108h83v-490h-80v112h4q-19 -56 -66 -88.5t-113 -32.5zM291 60q71 0 112.5 48.5t41.5 136.5t-41.5 136.5t-111.5 48.5q-71 0 -112.5 -48.5t-41.5 -136.5
t41.5 -136.5t111.5 -48.5zM249 612v91h94v-91h-94z" />
    <glyph glyph-name="uni1EA1.ss01" horiz-adv-x="611" 
d="M273 -9q-66 0 -116 31.5t-77 88.5t-27 134q0 78 27 134.5t76.5 88t115.5 31.5q65 0 112 -31.5t65 -85.5h-4v108h83v-490h-80v112h4q-19 -56 -66 -88.5t-113 -32.5zM291 60q71 0 112.5 48.5t41.5 136.5t-41.5 136.5t-111.5 48.5q-71 0 -112.5 -48.5t-41.5 -136.5
t41.5 -136.5t111.5 -48.5zM245 -189v91h94v-91h-94z" />
    <glyph glyph-name="agrave.ss01" horiz-adv-x="611" 
d="M273 -9q-66 0 -116 31.5t-77 88.5t-27 134q0 78 27 134.5t76.5 88t115.5 31.5q65 0 112 -31.5t65 -85.5h-4v108h83v-490h-80v112h4q-19 -56 -66 -88.5t-113 -32.5zM291 60q71 0 112.5 48.5t41.5 136.5t-41.5 136.5t-111.5 48.5q-71 0 -112.5 -48.5t-41.5 -136.5
t41.5 -136.5t111.5 -48.5zM265 556l-132 199h93l103 -199h-64z" />
    <glyph glyph-name="uni1EA3.ss01" horiz-adv-x="611" 
d="M273 -9q-66 0 -116 31.5t-77 88.5t-27 134q0 78 27 134.5t76.5 88t115.5 31.5q65 0 112 -31.5t65 -85.5h-4v108h83v-490h-80v112h4q-19 -56 -66 -88.5t-113 -32.5zM291 60q71 0 112.5 48.5t41.5 136.5t-41.5 136.5t-111.5 48.5q-71 0 -112.5 -48.5t-41.5 -136.5
t41.5 -136.5t111.5 -48.5zM266 556v20q0 23 9.5 38t21.5 25.5t21.5 21t9.5 25.5q0 14 -11 21t-35 7q-15 0 -30 -3.5t-33 -12.5l-15 45q19 12 43.5 17.5t52.5 5.5q48 0 74.5 -18t26.5 -51q0 -26 -11 -41t-26 -26t-26.5 -24.5t-11.5 -34.5v-15h-60z" />
    <glyph glyph-name="uni0203.ss01" horiz-adv-x="611" 
d="M273 -9q-66 0 -116 31.5t-77 88.5t-27 134q0 78 27 134.5t76.5 88t115.5 31.5q65 0 112 -31.5t65 -85.5h-4v108h83v-490h-80v112h4q-19 -56 -66 -88.5t-113 -32.5zM291 60q71 0 112.5 48.5t41.5 136.5t-41.5 136.5t-111.5 48.5q-71 0 -112.5 -48.5t-41.5 -136.5
t41.5 -136.5t111.5 -48.5zM195 552l-56 6q3 59 22.5 102t54 66.5t80.5 23.5q47 0 81.5 -23.5t54 -66.5t21.5 -102l-56 -6q-4 66 -29.5 102t-71.5 36t-71.5 -36t-29.5 -102z" />
    <glyph glyph-name="amacron.ss01" horiz-adv-x="611" 
d="M273 -9q-66 0 -116 31.5t-77 88.5t-27 134q0 78 27 134.5t76.5 88t115.5 31.5q65 0 112 -31.5t65 -85.5h-4v108h83v-490h-80v112h4q-19 -56 -66 -88.5t-113 -32.5zM291 60q71 0 112.5 48.5t41.5 136.5t-41.5 136.5t-111.5 48.5q-71 0 -112.5 -48.5t-41.5 -136.5
t41.5 -136.5t111.5 -48.5zM142 627v61h308v-61h-308z" />
    <glyph glyph-name="aogonek.ss01" horiz-adv-x="611" 
d="M273 -9q-66 0 -116 31.5t-77 88.5t-27 134q0 78 27 134.5t76.5 88t115.5 31.5q65 0 112 -31.5t65 -85.5h-4v108h83v-490h-80v112h4q-19 -56 -66 -88.5t-113 -32.5zM291 60q71 0 112.5 48.5t41.5 136.5t-41.5 136.5t-111.5 48.5q-71 0 -112.5 -48.5t-41.5 -136.5
t41.5 -136.5t111.5 -48.5zM492 -194q-49 0 -78.5 26.5t-29.5 70.5q0 40 26.5 76t70.5 58l31 -37q-15 -7 -30.5 -19.5t-25.5 -29.5t-10 -37q0 -28 16.5 -40.5t39.5 -12.5q14 0 27 2.5t27 8.5l15 -49q-15 -8 -35 -12.5t-44 -4.5z" />
    <glyph glyph-name="aring.ss01" horiz-adv-x="611" 
d="M273 -9q-66 0 -116 31.5t-77 88.5t-27 134q0 78 27 134.5t76.5 88t115.5 31.5q65 0 112 -31.5t65 -85.5h-4v108h83v-490h-80v112h4q-19 -56 -66 -88.5t-113 -32.5zM291 60q71 0 112.5 48.5t41.5 136.5t-41.5 136.5t-111.5 48.5q-71 0 -112.5 -48.5t-41.5 -136.5
t41.5 -136.5t111.5 -48.5zM296 550q-34 0 -61.5 16t-44 42.5t-16.5 59.5q0 34 16 60t44 42t62 16q35 0 62.5 -16t43.5 -42.5t16 -59.5t-16 -59.5t-43.5 -42.5t-62.5 -16zM296 596q32 0 52 20.5t20 51.5t-20 51.5t-52 20.5q-31 0 -51.5 -20.5t-20.5 -51.5t20.5 -51.5
t51.5 -20.5z" />
    <glyph glyph-name="aringacute.ss01" horiz-adv-x="611" 
d="M273 -9q-66 0 -116 31.5t-77 88.5t-27 134q0 78 27 134.5t76.5 88t115.5 31.5q65 0 112 -31.5t65 -85.5h-4v108h83v-490h-80v112h4q-19 -56 -66 -88.5t-113 -32.5zM291 60q71 0 112.5 48.5t41.5 136.5t-41.5 136.5t-111.5 48.5q-71 0 -112.5 -48.5t-41.5 -136.5
t41.5 -136.5t111.5 -48.5zM296 548q-34 0 -61 16t-43 42t-16 59q0 32 16 58.5t43 42t61 15.5q20 0 37 -5.5t32 -14.5l67 63h85l-117 -100q8 -13 12 -28t4 -31q0 -33 -15.5 -59t-43 -42t-61.5 -16zM296 593q32 0 52 20.5t20 51.5t-20 51t-52 20q-31 0 -51.5 -20t-20.5 -51
t20.5 -51.5t51.5 -20.5z" />
    <glyph glyph-name="atilde.ss01" horiz-adv-x="611" 
d="M273 -9q-66 0 -116 31.5t-77 88.5t-27 134q0 78 27 134.5t76.5 88t115.5 31.5q65 0 112 -31.5t65 -85.5h-4v108h83v-490h-80v112h4q-19 -56 -66 -88.5t-113 -32.5zM291 60q71 0 112.5 48.5t41.5 136.5t-41.5 136.5t-111.5 48.5q-71 0 -112.5 -48.5t-41.5 -136.5
t41.5 -136.5t111.5 -48.5zM164 592l-50 3q6 64 34 100t74 36q24 0 43 -11.5t41 -30.5q20 -17 33.5 -25t27.5 -8q26 0 40.5 20t20.5 58l50 -3q-5 -65 -33.5 -100.5t-73.5 -35.5q-23 0 -42.5 11t-43.5 31q-19 16 -32 24.5t-28 8.5q-25 0 -40 -20t-21 -58z" />
    <glyph glyph-name="l.ss02" horiz-adv-x="249" 
d="M82 0v705h85v-705h-85z" />
    <glyph glyph-name="lacute.ss02" horiz-adv-x="249" 
d="M82 0v705h85v-705h-85zM91 765l118 172h99l-149 -172h-68z" />
    <glyph glyph-name="lcaron.ss02" horiz-adv-x="249" 
d="M82 0v705h85v-705h-85zM214 514v191h71l-24 -191h-47z" />
    <glyph glyph-name="uni013C.ss02" horiz-adv-x="249" 
d="M82 0v705h85v-705h-85zM123 -277l-38 27q23 24 31.5 47t8.5 48l19 -11h-70v87h102v-65q0 -39 -12.5 -72.5t-40.5 -60.5z" />
    <glyph glyph-name="ldot.ss02" horiz-adv-x="308" 
d="M82 0v705h85v-705h-85zM226 310v95h106v-95h-106z" />
    <glyph glyph-name="uni1E37.ss02" horiz-adv-x="249" 
d="M82 0v705h85v-705h-85zM78 -189v91h94v-91h-94z" />
    <glyph glyph-name="uni01C9.ss02" horiz-adv-x="492" 
d="M82 0v705h85v-705h-85zM320 610v95h104v-95h-104zM198 -193l-6 68l45 5q45 5 69 30.5t24 77.5v502h85v-496q0 -43 -10.5 -75.5t-31 -55t-52.5 -35.5t-76 -17z" />
    <glyph glyph-name="uni1E3B.ss02" horiz-adv-x="249" 
d="M82 0v705h85v-705h-85zM-29 -160v61h308v-61h-308z" />
    <glyph glyph-name="lslash.ss02" horiz-adv-x="299" 
d="M107 0v705h85v-705h-85zM32 249l-35 61l269 156l35 -61z" />
    <glyph glyph-name="i_j.loclNLD" horiz-adv-x="493" 
d="M72 610v95h104v-95h-104zM82 0v490h85v-490h-85zM321 610v95h104v-95h-104zM199 -193l-6 68l45 5q45 5 69 30.5t24 77.5v502h85v-496q0 -43 -10.5 -75.5t-31 -55t-52.5 -35.5t-76 -17z" />
    <glyph glyph-name="fl.ss02" horiz-adv-x="610" 
d="M110 0v424h-98v66h121l-23 -22v35q0 97 51.5 147.5t153.5 55.5l45 3l7 -68l-53 -3q-38 -2 -64.5 -15.5t-40.5 -40t-14 -69.5v-35l-12 12h160v-66h-148v-424h-85zM443 0v705h85v-705h-85z" />
    <glyph glyph-name="ordfeminine" unicode="&#xaa;" horiz-adv-x="342" 
d="M143 400q-49 0 -80.5 26.5t-31.5 67.5q0 47 42.5 68t116.5 21h61v-39h-59q-34 0 -56.5 -5.5t-33.5 -16t-11 -27.5q0 -22 16 -35.5t48 -13.5q26 0 46 11t31.5 32t11.5 51v58q0 34 -18.5 50.5t-56.5 16.5q-27 0 -55.5 -7.5t-52.5 -22.5l-17 47q25 16 60 24t68 8
q65 0 97.5 -29.5t32.5 -88.5v-190h-56v55h-2q-17 -32 -42 -46.5t-59 -14.5z" />
    <glyph glyph-name="ordmasculine" unicode="&#xba;" horiz-adv-x="354" 
d="M177 401q-43 0 -77 19t-54 54.5t-20 83.5q0 47 20 82t54 54.5t77 19.5t77 -19.5t53.5 -54.5t19.5 -82q0 -48 -19.5 -83.5t-53.5 -54.5t-77 -19zM177 451q41 0 65 27.5t24 79.5q0 51 -24 78t-65 27t-65.5 -27t-24.5 -78q0 -52 24.5 -79.5t65.5 -27.5z" />
    <glyph glyph-name="uni0410" unicode="&#x410;" horiz-adv-x="747" 
d="M26 0l310 705h75l310 -705h-89l-86 201l42 -25h-430l42 25l-86 -201h-88zM372 606l-160 -376l-24 19h370l-24 -19l-159 376h-3z" />
    <glyph glyph-name="uni0411" unicode="&#x411;" horiz-adv-x="680" 
d="M95 0v705h468v-73h-383v-236h215q74 0 127 -22t80.5 -66t27.5 -109q0 -66 -27.5 -110t-80.5 -66.5t-127 -22.5h-300zM180 72h206q80 0 119 31t39 95t-39 94.5t-119 30.5h-206v-251z" />
    <glyph glyph-name="uni0412" unicode="&#x412;" horiz-adv-x="699" 
d="M95 0v705h287q110 0 170.5 -48t60.5 -136q0 -65 -36.5 -107.5t-95.5 -56.5v8q44 -6 77.5 -27.5t52.5 -57.5t19 -86q0 -63 -27.5 -106t-80.5 -65.5t-128 -22.5h-299zM180 71h208q32 0 57 5t43.5 15t31 25t19 35t6.5 44q0 27 -6.5 47t-19.5 35t-31.5 25t-43.5 14.5t-56 4.5
h-208v-250zM180 392h192q77 0 116.5 31.5t39.5 91.5q0 59 -39 89t-117 30h-192v-242z" />
    <glyph glyph-name="uni0413" unicode="&#x413;" horiz-adv-x="564" 
d="M95 0v705h448v-75h-362v-630h-86z" />
    <glyph glyph-name="uni0403" unicode="&#x403;" horiz-adv-x="564" 
d="M95 0v705h448v-75h-362v-630h-86zM253 765l118 172h99l-149 -172h-68z" />
    <glyph glyph-name="uni0490" unicode="&#x490;" horiz-adv-x="565" 
d="M95 0v705h370v155h79v-230h-363v-630h-86z" />
    <glyph glyph-name="uni04F6" unicode="&#x4f6;" horiz-adv-x="564" 
d="M204 -156v156h-105v71h183v-227h-78zM95 0v705h448v-75h-362v-630h-86z" />
    <glyph glyph-name="uni0492" unicode="&#x492;" horiz-adv-x="591" 
d="M122 0v317h-99v68h99v320h448v-75h-362v-245h193v-69l-193 1v-317h-86z" />
    <glyph glyph-name="uni0494" unicode="&#x494;" horiz-adv-x="692" 
d="M424 -189q-35 0 -65.5 6t-52.5 15l17 68q19 -7 42 -11.5t50 -4.5q62 0 97.5 41t35.5 124v89q0 110 -52 164.5t-155 54.5q-31 0 -60 -4t-54 -12.5t-46 -21.5v-319h-86v705h466v-75h-380v-232q19 11 46 19t58.5 12.5t62.5 4.5q138 0 211.5 -73t73.5 -217v-93
q0 -77 -25.5 -130.5t-72.5 -81.5t-111 -28z" />
    <glyph glyph-name="uni0414" unicode="&#x414;" horiz-adv-x="795" 
d="M22 -158v232h69q36 44 58.5 107.5t33 148t10.5 191.5v184h475v-631h99v-232h-78v158h-589v-158h-78zM181 73h401v559h-308v-117q0 -106 -9.5 -187.5t-30.5 -143.5t-53 -111z" />
    <glyph glyph-name="uni0415" unicode="&#x415;" horiz-adv-x="610" 
d="M95 0v705h453v-73h-368v-238h347v-73h-347v-248h368v-73h-453z" />
    <glyph glyph-name="uni0400" unicode="&#x400;" horiz-adv-x="610" 
d="M95 0v705h453v-73h-368v-238h347v-73h-347v-248h368v-73h-453zM301 765l-150 172h98l118 -172h-66z" />
    <glyph glyph-name="uni0401" unicode="&#x401;" horiz-adv-x="610" 
d="M95 0v705h453v-73h-368v-238h347v-73h-347v-248h368v-73h-453zM379 804v90h92v-90h-92zM195 804v90h92v-90h-92z" />
    <glyph glyph-name="uni0416" unicode="&#x416;" horiz-adv-x="989" 
d="M14 0l119 245q21 43 48 74t60.5 48.5t73.5 22.5l-33 -27l-230 342h97l216 -328l-22 17h109v311h85v-311h111l-24 -17l216 328h97l-230 -342l-33 27q41 -5 74 -23t59.5 -48.5t47.5 -73.5l119 -245h-93l-99 206q-28 60 -65 86.5t-93 26.5h-87v-319h-85v319h-87
q-55 0 -93.5 -26.5t-66.5 -86.5l-97 -206h-94z" />
    <glyph glyph-name="uni0417" unicode="&#x417;" horiz-adv-x="655" 
d="M316 -9q-60 0 -112 10.5t-93.5 30.5t-71.5 47l31 69q48 -42 106.5 -61.5t134.5 -19.5q98 0 143.5 33t45.5 98q0 64 -39.5 93.5t-121.5 29.5h-176v72h160q80 0 120 30.5t40 89.5t-42.5 92t-129.5 33q-62 0 -120 -19t-105 -60l-31 68q32 29 74 48t90.5 29t98.5 10
q85 0 140.5 -24t83 -67.5t27.5 -101.5q0 -62 -34.5 -105t-96.5 -59v8q69 -12 108.5 -56t39.5 -115q0 -63 -29 -108.5t-89 -70t-152 -24.5z" />
    <glyph glyph-name="uni0418" unicode="&#x418;" horiz-adv-x="770" 
d="M95 0v705h81v-587h-13l439 587h72v-705h-81v587h13l-440 -587h-71z" />
    <glyph glyph-name="uni0419" unicode="&#x419;" horiz-adv-x="770" 
d="M95 0v705h81v-587h-13l439 587h72v-705h-81v587h13l-440 -587h-71zM385 762q-45 0 -83 15.5t-65.5 46t-41.5 75.5l53 17q20 -50 53.5 -73t83.5 -23q51 0 84 21.5t59 73.5l51 -16q-27 -73 -78.5 -105t-115.5 -32z" />
    <glyph glyph-name="uni040D" unicode="&#x40d;" horiz-adv-x="770" 
d="M95 0v705h81v-587h-13l439 587h72v-705h-81v587h13l-440 -587h-71zM354 765l-150 172h98l118 -172h-66z" />
    <glyph glyph-name="uni048A" unicode="&#x48a;" horiz-adv-x="787" 
d="M626 -156l52 156h-85v594l13 -6l-440 -588h-71v705h81v-592l-13 5l439 587h72v-634h104l-76 -227h-76zM385 762q-45 0 -83 15.5t-65.5 46t-41.5 75.5l53 17q19 -50 53 -73t83 -23q52 0 85 21.5t59 73.5l51 -16q-27 -73 -78.5 -105t-115.5 -32z" />
    <glyph glyph-name="uni041A" unicode="&#x41a;" horiz-adv-x="663" 
d="M95 0v705h86v-311h141l-24 -18l217 329h97l-230 -343l-33 28q41 -5 73.5 -23t59.5 -48.5t48 -73.5l119 -245h-94l-98 206q-28 60 -65.5 86.5t-92.5 26.5h-118v-319h-86z" />
    <glyph glyph-name="uni040C" unicode="&#x40c;" horiz-adv-x="663" 
d="M95 0v705h86v-311h141l-24 -18l217 329h97l-230 -343l-33 28q41 -5 73.5 -23t59.5 -48.5t48 -73.5l119 -245h-94l-98 206q-28 60 -65.5 86.5t-92.5 26.5h-118v-319h-86zM303 765l118 172h99l-149 -172h-68z" />
    <glyph glyph-name="uni041B" unicode="&#x41b;" horiz-adv-x="757" 
d="M59 -15l-41 66q41 23 72 54t52.5 80t33 124t11.5 184v212h474v-705h-86v630h-308v-159q0 -108 -13.5 -188t-39.5 -137.5t-65 -96t-90 -64.5z" />
    <glyph glyph-name="uni041C" unicode="&#x41c;" horiz-adv-x="882" 
d="M97 0v705h85l270 -520h-19l269 520h83v-705h-80v587h14l-247 -477h-60l-249 477h15v-587h-81z" />
    <glyph glyph-name="uni041D" unicode="&#x41d;" horiz-adv-x="780" 
d="M95 0v705h86v-310h418v310h86v-705h-86v320h-418v-320h-86z" />
    <glyph glyph-name="uni041E" unicode="&#x41e;" horiz-adv-x="786" 
d="M393 -9q-75 0 -135 25t-102.5 72.5t-65 114t-22.5 150.5t22.5 150.5t65 113.5t102.5 72t135 25t135 -25t103 -72t65.5 -113.5t22.5 -149.5q0 -84 -23 -151t-65.5 -114.5t-102.5 -72.5t-135 -25zM393 68q75 0 127.5 33t80.5 97t28 155q0 92 -27.5 155t-80.5 96t-128 33
q-74 0 -126.5 -33t-80.5 -96.5t-28 -154.5t28 -154.5t80.5 -97t126.5 -33.5z" />
    <glyph glyph-name="uni041F" unicode="&#x41f;" horiz-adv-x="776" 
d="M95 0v705h585v-705h-85v630h-414v-630h-86z" />
    <glyph glyph-name="uni0420" unicode="&#x420;" horiz-adv-x="660" 
d="M95 0v705h285q76 0 129 -25t80.5 -72t27.5 -115q0 -67 -28 -114.5t-80.5 -73t-128.5 -25.5h-199v-280h-86zM181 352h188q80 0 121 35.5t41 105.5t-41 105t-121 35h-188v-281z" />
    <glyph glyph-name="uni0421" unicode="&#x421;" horiz-adv-x="689" 
d="M399 -9q-103 0 -177 44t-114 125t-40 193t40 192.5t114 124.5t177 44q73 0 134.5 -22.5t104.5 -66.5l-33 -69q-46 42 -95.5 61t-109.5 19q-115 0 -178.5 -73t-63.5 -210q0 -136 63.5 -210t178.5 -74q60 0 109.5 19t95.5 61l33 -69q-43 -43 -104.5 -66t-134.5 -23z" />
    <glyph glyph-name="uni0422" unicode="&#x422;" horiz-adv-x="621" 
d="M268 0v630h-255v75h596v-75h-255v-630h-86z" />
    <glyph glyph-name="uni0423" unicode="&#x423;" horiz-adv-x="647" 
d="M198 0l118 229l-1 -33l-317 509h94l262 -423h-10l217 423h90l-362 -705h-91z" />
    <glyph glyph-name="uni040E" unicode="&#x40e;" horiz-adv-x="647" 
d="M198 0l118 229l-1 -33l-317 509h94l262 -423h-10l217 423h90l-362 -705h-91zM324 762q-45 0 -83 15.5t-65.5 46t-41.5 75.5l53 17q20 -50 53.5 -73t83.5 -23q51 0 84 21.5t59 73.5l51 -16q-27 -73 -78.5 -105t-115.5 -32z" />
    <glyph glyph-name="uni0424" unicode="&#x424;" horiz-adv-x="883" 
d="M398 -23v107l23 -19h-25q-99 0 -172.5 34.5t-114.5 100t-41 158.5q0 95 40 160t113.5 98.5t174.5 33.5h25l-23 -19v102h87v-102l-23 19h25q101 0 174.5 -33.5t113.5 -98.5t40 -160q0 -93 -41 -158.5t-114.5 -100t-172.5 -34.5h-25l23 19v-107h-87zM399 116v484l20 -22
h-34q-67 0 -118.5 -23.5t-81 -72t-29.5 -124.5q0 -55 17.5 -96.5t48.5 -69t72.5 -41.5t90.5 -14h34zM484 116l-21 21h35q49 0 90.5 14t72.5 41.5t48.5 69t17.5 96.5q0 75 -29.5 124t-81 72.5t-118.5 23.5h-35l21 22v-484z" />
    <glyph glyph-name="uni0425" unicode="&#x425;" horiz-adv-x="663" 
d="M17 0l270 377l1 -32l-258 360h100l210 -297h-16l210 297h100l-259 -360v32l271 -377h-101l-224 316h20l-223 -316h-101z" />
    <glyph glyph-name="uni0427" unicode="&#x427;" horiz-adv-x="700" 
d="M518 0v296q-20 -11 -49 -19t-61.5 -12t-64.5 -4q-134 0 -206.5 72.5t-72.5 216.5v155h85v-148q0 -113 52 -166t150 -53q43 0 86.5 8.5t80.5 30.5v328h86v-705h-86z" />
    <glyph glyph-name="uni0426" unicode="&#x426;" horiz-adv-x="808" 
d="M702 -158v158h-607v705h86v-630h413v630h86v-631h101v-232h-79z" />
    <glyph glyph-name="uni0428" unicode="&#x428;" horiz-adv-x="1074" 
d="M95 0v705h86v-630h313v630h86v-630h314v630h85v-705h-884z" />
    <glyph glyph-name="uni0429" unicode="&#x429;" horiz-adv-x="1106" 
d="M999 -158v158h-904v705h86v-630h313v630h86v-630h314v630h85v-632h99v-231h-79z" />
    <glyph glyph-name="uni040F" unicode="&#x40f;" horiz-adv-x="775" 
d="M348 -158v158h-253v705h86v-630h413v630h85v-705h-252v-158h-79z" />
    <glyph glyph-name="uni042C" unicode="&#x42c;" horiz-adv-x="682" 
d="M95 0v705h86v-308h214q74 0 127 -22.5t80.5 -66t27.5 -109.5q0 -65 -27.5 -109t-80.5 -67t-127 -23h-300zM181 73h205q80 0 119 30.5t39 95.5t-39 95t-119 30h-205v-251z" />
    <glyph glyph-name="uni042B" unicode="&#x42b;" horiz-adv-x="886" 
d="M95 0v705h86v-308h190q74 0 126.5 -22.5t80.5 -66t28 -109.5q0 -65 -28 -109t-80.5 -67t-126.5 -23h-276zM181 73h180q81 0 120 30.5t39 95.5t-39.5 95t-119.5 30h-180v-251zM704 0v705h86v-705h-86z" />
    <glyph glyph-name="uni042A" unicode="&#x42a;" horiz-adv-x="816" 
d="M232 0v630h-219v75h305v-308h212q74 0 126.5 -22.5t80.5 -66t28 -108.5q0 -66 -28 -110t-80.5 -67t-126.5 -23h-298zM318 73h203q79 0 118.5 30.5t39.5 95.5t-39.5 95t-118.5 30h-203v-251z" />
    <glyph glyph-name="uni0409" unicode="&#x409;" horiz-adv-x="1145" 
d="M59 -15l-41 66q41 23 72 54t52.5 80t33 124t11.5 184v212h459v-308h212q74 0 126.5 -22.5t80.5 -66t28 -109.5q0 -65 -28 -109t-80.5 -67t-126.5 -23h-298v630h-293v-159q0 -108 -13.5 -188t-39.5 -137.5t-65 -96t-90 -64.5zM646 73h202q81 0 120 30.5t39 95.5t-39.5 95
t-119.5 30h-202v-251z" />
    <glyph glyph-name="uni040A" unicode="&#x40a;" horiz-adv-x="1178" 
d="M95 0v705h86v-309h413v309h86v-308h211q75 0 127.5 -22t80 -66t27.5 -109q0 -66 -27.5 -110t-80.5 -67t-127 -23h-297v321h-413v-321h-86zM680 73h202q81 0 120 30.5t39 95.5t-39.5 95.5t-119.5 30.5h-202v-252z" />
    <glyph glyph-name="uni0405" unicode="&#x405;" horiz-adv-x="635" 
d="M327 -9q-56 0 -106 9.5t-92 27.5t-75 45l31 70q35 -26 72 -43t79 -25t91 -8q87 0 131 33.5t44 89.5q0 30 -14 50.5t-44.5 34.5t-79.5 23l-109 22q-96 20 -140.5 66.5t-44.5 121.5q0 62 33.5 108.5t93.5 72t137 25.5q49 0 92 -9.5t80 -29t65 -46.5l-31 -69
q-44 41 -94.5 59.5t-112.5 18.5q-52 0 -92 -15.5t-62.5 -44.5t-22.5 -69q0 -46 28.5 -72.5t96.5 -40.5l108 -22q102 -20 150.5 -63.5t48.5 -116.5q0 -59 -31.5 -105t-90.5 -72t-139 -26z" />
    <glyph glyph-name="uni0404" unicode="&#x404;" horiz-adv-x="690" 
d="M400 -9q-103 0 -177.5 44t-114.5 125t-40 193t40 192.5t114 124.5t178 44q72 0 133.5 -22.5t105.5 -66.5l-32 -68q-47 42 -96.5 60.5t-109.5 18.5q-114 0 -177 -69.5t-66 -196.5l-28 24h387v-73h-388l29 23q2 -133 65.5 -204t177.5 -71q60 0 109.5 18.5t96.5 60.5l32 -68
q-44 -44 -105.5 -66.5t-133.5 -22.5z" />
    <glyph glyph-name="uni042D" unicode="&#x42d;" horiz-adv-x="690" 
d="M290 -9q-72 0 -133 22.5t-106 66.5l33 68q47 -42 96 -60.5t110 -18.5q114 0 177 71t65 203l29 -22h-388v73h387l-28 -25q-3 129 -64.5 198t-171.5 69q-60 0 -110.5 -19t-101.5 -60l-33 68q50 44 112 66.5t134 22.5q101 0 174 -43.5t112 -124.5t39 -193t-39.5 -193
t-114 -125t-178.5 -44z" />
    <glyph glyph-name="uni0406" unicode="&#x406;" horiz-adv-x="276" 
d="M95 0v705h86v-705h-86z" />
    <glyph glyph-name="uni0407" unicode="&#x407;" horiz-adv-x="276" 
d="M95 0v705h86v-705h-86zM184 804v90h92v-90h-92zM0 804v90h92v-90h-92z" />
    <glyph glyph-name="uni0408" unicode="&#x408;" horiz-adv-x="356" 
d="M3 -7l-6 73l69 4q34 3 58 18t37.5 42t13.5 63v512h86v-515q0 -57 -22 -99.5t-63 -66t-99 -27.5z" />
    <glyph glyph-name="uni040B" unicode="&#x40b;" horiz-adv-x="869" 
d="M268 0v630h-255v75h596v-75h-255v-232q20 11 49 19t62 12.5t63 4.5q90 0 153 -32.5t96 -96.5t33 -160v-145h-86v139q0 113 -53 165.5t-150 52.5q-43 0 -87 -9t-80 -30v-318h-86z" />
    <glyph glyph-name="uni042E" unicode="&#x42e;" horiz-adv-x="1037" 
d="M652 -9q-91 0 -159.5 40t-108.5 114t-47 176h-156v-321h-86v705h86v-310h157q8 99 48 170.5t108 110t158 38.5q98 0 169 -44t109.5 -124.5t38.5 -192.5q0 -83 -22 -150t-63.5 -114t-100 -72.5t-131.5 -25.5zM652 68q73 0 123.5 33.5t77 97.5t26.5 154q0 135 -59 209.5
t-168 74.5q-72 0 -122.5 -33.5t-77.5 -97t-27 -153.5q0 -135 60 -210t167 -75z" />
    <glyph glyph-name="uni042F" unicode="&#x42f;" horiz-adv-x="695" 
d="M48 0l124 232q22 40 45.5 58.5t55.5 20.5l18 1l-4 -8q-64 3 -111 27t-72.5 67.5t-25.5 103.5q0 98 61.5 150.5t175.5 52.5h284v-705h-86v295h-123q-32 0 -55 -6t-40 -21.5t-33 -44.5l-120 -223h-94zM324 365h189v268h-187q-82 0 -122 -33t-40 -100q0 -68 39.5 -101.5
t120.5 -33.5z" />
    <glyph glyph-name="uni0402" unicode="&#x402;" horiz-adv-x="864" 
d="M595 -189q-34 0 -64.5 6t-52.5 15l17 69q19 -8 42 -12.5t50 -4.5q62 0 97 41t35 124v89q0 110 -51 164.5t-155 54.5q-31 0 -59.5 -4.5t-53.5 -13t-46 -21.5v-318h-86v630h-255v75h595v-75h-254v-232q18 11 45 19t58.5 12.5t63.5 4.5q137 0 210.5 -73t73.5 -217v-93
q0 -77 -25.5 -130.5t-72.5 -81.5t-112 -28z" />
    <glyph glyph-name="uni0462" unicode="&#x462;" horiz-adv-x="747" 
d="M162 0v532h-170v69h170v104h85v-104h244v-69h-244v-139h213q75 0 127.5 -21.5t80 -65t27.5 -108.5q0 -66 -27.5 -109.5t-80 -66t-127.5 -22.5h-298zM247 72h204q81 0 120 30.5t39 94.5t-39.5 94t-119.5 30h-204v-249z" />
    </font>
</defs>
</svg>
