<?xml version="1.0" standalone="no"?>
<!DOCTYPE svg PUBLIC "-//W3C//DTD SVG 1.1//EN" "http://www.w3.org/Graphics/SVG/1.1/DTD/svg11.dtd" >
<svg xmlns="http://www.w3.org/2000/svg" xmlns:xlink="http://www.w3.org/1999/xlink" version="1.1">
<metadata>
Created by FontForge 20201107 at Thu Nov 26 12:40:42 2020
 By Unknown
Copyright 2020 The Newsreader Project Authors (http://github.com/productiontype/Newsreader)
</metadata>
<defs>
<font id="Newsreader24pt-Regular" horiz-adv-x="0" >
  <font-face 
    font-family="Newsreader 24pt"
    font-weight="400"
    font-stretch="normal"
    units-per-em="2000"
    panose-1="2 0 0 0 0 0 0 0 0 0"
    ascent="1470"
    descent="-530"
    x-height="871"
    cap-height="1350"
    bbox="-550 -523 2663 2116"
    underline-thickness="96"
    underline-position="-303"
    unicode-range="U+0020-FB04"
  />
<missing-glyph horiz-adv-x="1000" 
d="M100 -523v2000h800v-2000h-800zM200 -423h600v1800h-600v-1800z" />
    <glyph glyph-name="fi" unicode="fi" horiz-adv-x="1124" 
d="M846 777h-597l-40 -23l-171 26v31l185 61l35 -1h445l227 21h16l-5 -165v-645l153 -46v-36h-455v36l151 46v737zM358 82l168 -46v-36h-469v36l151 46v821q0 139 44 238t118.5 162t166.5 93t186 30q68 0 109.5 -14t60.5 -37.5t19 -50.5t-12 -47.5t-33.5 -32.5t-47.5 -12
q-31 0 -55 15t-46.5 35t-51 35t-69.5 15q-62 0 -116.5 -30t-88.5 -99.5t-34 -188.5v-932z" />
    <glyph glyph-name="fl" unicode="fl" horiz-adv-x="1124" 
d="M358 82l168 -46v-36h-469v36l151 46v821q0 137 43.5 235t113 159.5t150 91t154.5 29.5q76 0 135.5 -14t101.5 -46l-96 -4l121 72h19l-9 -161v-1183l153 -46v-36h-455v36l151 46v1149q-5 48 -50 76t-123 28q-69 0 -128 -30.5t-95 -100.5t-36 -191v-931zM632 871l-17 -94
h-366l-40 -23l-171 26v31l185 61l47 -1h362z" />
    <glyph glyph-name="f_f" unicode="ff" horiz-adv-x="1238" 
d="M526 0h-469v36l151 46v816q0 129 43.5 224t116 158t163 94t182.5 31q55 0 104 -10.5t92.5 -30.5t82.5 -51l-104 -128q-61 76 -118.5 106.5t-125.5 30.5q-82 0 -147 -37t-102 -108t-37 -175v-920l168 -46v-36zM1201 777h-952l-40 -23l-171 26v31l185 61l47 -1h949zM941 82
l170 -46v-36h-472v36l151 46v821q0 139 44.5 238t118.5 162t166 93t186 30q67 0 108 -13.5t60.5 -37t19.5 -50.5q0 -26 -12.5 -47t-33.5 -32.5t-47 -11.5q-32 0 -55 15t-45.5 34t-50.5 34t-69 15q-62 0 -116.5 -30t-88.5 -99.5t-34 -188.5v-932z" />
    <glyph glyph-name="f_f_i" unicode="ffi" horiz-adv-x="1707" 
d="M1428 777h-1179l-40 -23l-171 26v31l185 61l32 -1h1031l226 21h17l-5 -165v-645l153 -46v-36h-455v36l151 46v736zM526 0h-469v36l151 46v816q0 129 43.5 224t116 158t163 94t182.5 31q55 0 104 -10.5t92.5 -30.5t82.5 -51l-104 -128q-61 76 -118.5 106.5t-125.5 30.5
q-82 0 -147 -37t-102 -108t-37 -175v-920l168 -46v-36zM941 82l168 -46v-36h-470v36l151 46v821q0 139 44.5 238t119 162t166 93t186.5 30q68 0 109.5 -14t60.5 -37.5t19 -50.5t-12.5 -47.5t-33.5 -32.5t-47 -12q-32 0 -55.5 15t-46 35t-51 35t-69.5 15q-62 0 -116.5 -30
t-88.5 -99.5t-34 -188.5v-932z" />
    <glyph glyph-name="f_f_l" unicode="ffl" horiz-adv-x="1707" 
d="M941 82l168 -46v-36h-470v36l151 46v821q0 137 44 235t113.5 159.5t150 91t154.5 29.5q76 0 135.5 -14t101.5 -46l-96 -4l121 72h18l-8 -161v-1183l153 -46v-36h-455v36l151 46v1149q-5 48 -50 76t-123 28q-70 0 -128.5 -30.5t-94.5 -100.5t-36 -191v-931zM526 0h-469v36
l151 46v816q0 129 43.5 224t116 158t163 94t182.5 31q55 0 104 -10.5t92.5 -30.5t82.5 -51l-104 -128q-61 76 -118.5 106.5t-125.5 30.5q-82 0 -147 -37t-102 -108t-37 -175v-920l168 -46v-36zM1233 871l-18 -94h-966l-40 -23l-171 26v31l185 61l47 -1h963z" />
    <glyph glyph-name=".notdef" horiz-adv-x="1000" 
d="M100 -523v2000h800v-2000h-800zM200 -423h600v1800h-600v-1800z" />
    <glyph glyph-name="NULL" 
 />
    <glyph glyph-name="CR" horiz-adv-x="446" 
 />
    <glyph glyph-name="space" unicode=" " horiz-adv-x="446" 
 />
    <glyph glyph-name="uni00A0" unicode="&#xa0;" horiz-adv-x="446" 
 />
    <glyph glyph-name="A" unicode="A" horiz-adv-x="1384" 
d="M350 507v88h666v-88h-666zM1253 91l148 -53v-38h-497v38l174 51l-466 1107h62l-434 -1107l166 -51v-38h-421v38l153 52l523 1280h46z" />
    <glyph glyph-name="B" unicode="B" horiz-adv-x="1257" 
d="M327 1261l11 89h332q148 0 240 -41.5t134.5 -113.5t42.5 -162q0 -127 -83.5 -212t-225.5 -98l6 15q180 -11 283 -103t103 -231q0 -116 -51.5 -207.5t-162 -144t-287.5 -52.5h-330l-8 89h327q105 0 180.5 32t116 98.5t40.5 170.5q0 83 -34.5 146.5t-106.5 99.5t-185 36
h-339l-3 89h327q124 0 196.5 64.5t72.5 193.5q0 72 -32.5 126t-99 85t-168.5 31h-296zM83 0v38l160 51v1172l-160 51v38h326v-1350h-326z" />
    <glyph glyph-name="C" unicode="C" horiz-adv-x="1385" 
d="M854 64q79 0 151.5 14.5t146.5 46.5l-46 -38l143 271h50l-38 -302q-71 -34 -180.5 -55t-233.5 -21q-167 0 -305 46t-238.5 134.5t-155 216t-54.5 289.5q0 213 93.5 371.5t269 245.5t419.5 87q64 0 127 -8t148 -28l-54 -10l123 84h18l61 -462l-43 -8l-166 303l40 -40
q-85 46 -153.5 64t-147.5 18q-136 0 -240.5 -37t-175 -108t-107 -174.5t-36.5 -235.5q0 -161 44 -284.5t123 -208t185.5 -128t231.5 -43.5z" />
    <glyph glyph-name="D" unicode="D" horiz-adv-x="1501" 
d="M1227 692q0 289 -174.5 428.5t-481.5 139.5h-264v90h314q262 0 436.5 -70t261.5 -211.5t87 -354.5q0 -227 -102.5 -386.5t-279.5 -243.5t-399 -84h-318v90h288q191 0 333 62t220.5 194.5t78.5 345.5zM83 0v38l160 51v1172l-160 51v38h326v-1350h-326z" />
    <glyph glyph-name="E" unicode="E" horiz-adv-x="1249" 
d="M889 973l-4 -265l4 -265h-69l-31 219l-485 3v86l485 3l31 219h69zM1148 970l-45 -9l-169 320l66 -21h-696v90h649l115 50h15zM952 64l188 319l39 -10l-76 -431h-15l-116 58h-668v90h706zM83 0v38l160 51v1172l-160 51v38h326v-1350h-326z" />
    <glyph glyph-name="F" unicode="F" horiz-adv-x="1151" 
d="M896 943l-4 -266l4 -265h-68l-32 220l-488 2v86l488 3l32 220h68zM1033 1400h11l70 -430l-45 -9l-173 320l136 -21h-755v90h642zM409 1350v-1261l160 -51v-38h-486v38l160 51v1172l-160 51v38h326z" />
    <glyph glyph-name="G" unicode="G" horiz-adv-x="1472" 
d="M1295 169l29 -85v-2q-67 -32 -144 -55t-160.5 -35t-170.5 -12q-165 0 -303.5 46t-239.5 134.5t-156.5 216t-55.5 289.5q0 213 92 371.5t265 245.5t414 87q77 0 144.5 -9.5t145.5 -30.5l-73 -9l128 87h17l62 -462l-44 -8l-181 329l109 -104q-82 60 -166 90t-189 30
q-133 0 -235 -36.5t-172 -108t-105.5 -174.5t-35.5 -236q0 -214 75 -362.5t204.5 -225t293.5 -76.5q67 0 133 12t120.5 35t85.5 53l-50 -111v456l-192 56v39h484v-39l-129 -50v-346z" />
    <glyph glyph-name="H" unicode="H" horiz-adv-x="1569" 
d="M409 89l160 -51v-38h-486v38l160 51v1172l-160 51v38h486v-38l-160 -51v-1172zM1326 89l160 -51v-38h-486v38l160 51v1172l-160 51v38h486v-38l-160 -51v-1172zM306 644v90h957v-90h-957z" />
    <glyph glyph-name="I" unicode="I" horiz-adv-x="652" 
d="M569 38v-38h-486v38l160 51v1172l-160 51v38h486v-38l-160 -51v-1172z" />
    <glyph glyph-name="J" unicode="J" horiz-adv-x="839" 
d="M626 441q0 -110 -36.5 -195.5t-100 -145t-145 -90t-172.5 -30.5q-47 0 -83 13t-56 37.5t-20 57.5t20.5 57.5t62.5 24.5q17 0 38 -13.5t46.5 -31.5t54 -31.5t60.5 -13.5q69 0 116.5 57t47.5 196v928l-161 51v38h485v-38l-159 -51z" />
    <glyph glyph-name="K" unicode="K" horiz-adv-x="1426" 
d="M1289 92l153 -54v-38h-528v38l155 51l-536 567h-182v87h192l512 523l-159 46v38h436v-38l-155 -50l-575 -561l40 62zM409 1261v-1172l160 -51v-38h-486v38l160 51v1172l-160 51v38h486v-38z" />
    <glyph glyph-name="L" unicode="L" horiz-adv-x="1175" 
d="M1057 -58h-19l-120 58h-614v90h738l-143 -28l202 340l40 -10zM409 1261v-1261h-326v38l160 51v1172l-160 51v38h486v-38z" />
    <glyph glyph-name="M" unicode="M" horiz-adv-x="1925" 
d="M1717 89l159 -51v-38h-484v38l160 51l-79 1122l14 -2l-539 -1228h-41l-550 1213l14 3l-68 -1108l162 -51v-38h-415v38l161 51l85 1165l-165 58v38h338l512 -1143h-25l507 1143h326v-38l-162 -51z" />
    <glyph glyph-name="N" unicode="N" horiz-adv-x="1506" 
d="M246 89v1156l-167 67v38h324l829 -1098l-48 -105v1114l-174 51v38h427v-38l-160 -51v-1280h-43l-928 1227l33 36v-1155l174 -51v-38h-427v38z" />
    <glyph glyph-name="O" unicode="O" horiz-adv-x="1533" 
d="M765 1370q147 0 270.5 -51t214 -143t140 -219t49.5 -280t-49 -280.5t-139.5 -221t-213 -144.5t-269.5 -51t-270 51t-213.5 143t-140.5 219.5t-50 279.5q0 153 49.5 280.5t140 221t213 144.5t268.5 51zM775 67q150 0 259 70.5t168 200.5t59 307q0 203 -64.5 345.5
t-178 217.5t-260.5 75q-150 0 -259 -70.5t-168 -200.5t-59 -307q0 -202 64.5 -345t178.5 -218t260 -75z" />
    <glyph glyph-name="P" unicode="P" horiz-adv-x="1189" 
d="M966 970q0 93 -40 158t-132 98.5t-250 33.5h-283l12 90h367q180 0 289.5 -48.5t160.5 -132t51 -187.5q0 -106 -52.5 -195.5t-162.5 -143t-286 -53.5h-367l-12 90h396q88 0 158 33t110.5 98t40.5 159zM409 1350v-1261l160 -51v-38h-486v38l160 51v1172l-160 51v38h326z
" />
    <glyph glyph-name="Q" unicode="Q" horiz-adv-x="1533" 
d="M877 -256l-453 317q-121 84 -193.5 176.5t-104.5 200t-32 235.5q0 153 49.5 280.5t140 221t213 144.5t268.5 51q147 0 270.5 -51t214 -143t140 -219t49.5 -280t-51 -283.5t-146 -224.5t-226.5 -139.5t-290.5 -29.5l-51 35l394 -232q72 -42 125 -68.5t100 -40.5t99 -17
t121 2v-35q-39 -11 -82.5 -21.5t-92 -17t-104.5 -6.5q-51 0 -89 5.5t-74.5 21t-82.5 44.5t-111 74zM775 67q150 0 259 70.5t168 200.5t59 307q0 203 -64.5 345.5t-178 217.5t-260.5 75q-150 0 -259 -70.5t-168 -200.5t-59 -307q0 -202 64.5 -345t178.5 -218t260 -75z" />
    <glyph glyph-name="R" unicode="R" horiz-adv-x="1257" 
d="M618 730q127 0 210 68t83 199q0 83 -37.5 142t-124 90.5t-232.5 31.5h-250l3 89h344q170 0 273.5 -45.5t150.5 -122t47 -170.5q0 -87 -39.5 -156.5t-116.5 -115.5t-190 -62v7q69 -4 113 -25t75.5 -66.5t60.5 -123.5l103 -271q27 -69 50 -100t52.5 -38t72.5 -7v-54
q-91 -7 -147.5 -5t-90 19t-56 52.5t-45.5 97.5l-103 273q-29 79 -53.5 123t-58 62t-89.5 18h-353l-3 90h351zM409 1350v-1261l160 -51v-38h-486v38l160 51v1172l-160 51v38h326z" />
    <glyph glyph-name="S" unicode="S" horiz-adv-x="1073" 
d="M880 1287l-143 37l120 84h17l62 -444l-42 -7l-174 310l37 -48q-53 39 -109 56.5t-122 17.5q-129 0 -199 -61t-70 -162q0 -68 27.5 -114t76 -78t110 -56t129.5 -48q67 -24 133.5 -53t121.5 -71.5t88 -106.5t33 -158q0 -129 -61.5 -219.5t-169 -138t-247.5 -47.5
q-97 0 -172.5 13.5t-156.5 46.5l-87 350h55l238 -351l-165 105q79 -43 141 -63.5t132 -20.5q111 0 190.5 29.5t121.5 89t42 148.5q0 78 -34.5 130t-92 86t-125 59t-134.5 50q-66 25 -124 54.5t-102 69.5t-69 97t-25 136q0 111 52 191.5t148 125t227 44.5q90 0 166.5 -20
t155.5 -63z" />
    <glyph glyph-name="T" unicode="T" horiz-adv-x="1314" 
d="M574 1292h166v-1203l160 -51v-38h-486v38l160 51v1203zM1179 1260h-1044l94 19l-142 -299l-44 9l42 430h18l142 -85l-87 16h998l-87 -16l142 85h18l42 -430l-44 -9l-142 299z" />
    <glyph glyph-name="U" unicode="U" horiz-adv-x="1507" 
d="M1200 497v764l-163 51v38h416v-38l-160 -51v-748q0 -170 -62 -289t-180.5 -181.5t-288.5 -62.5q-176 0 -299 64t-187 190.5t-64 312.5v714l-160 51v38h485v-38l-160 -51v-724q0 -146 46 -243t137.5 -144.5t229.5 -47.5q133 0 224 46t138.5 134t47.5 215z" />
    <glyph glyph-name="V" unicode="V" horiz-adv-x="1344" 
d="M127 1259l-149 53v38h498v-38l-174 -51l461 -1107h-63l407 1107l-166 51v38h413v-38l-153 -52l-487 -1280h-46z" />
    <glyph glyph-name="W" unicode="W" horiz-adv-x="1889" 
d="M982 1192l-468 -1212h-46l-329 1279l-149 53v38h492v-38l-174 -51l262 -1036h-40l430 1145h49l469 -1180l-76 -33l254 1104l-173 51v38h411v-38l-146 -52l-314 -1280h-46l-471 1176z" />
    <glyph glyph-name="X" unicode="X" horiz-adv-x="1395" 
d="M696 655l-433 -566l166 -51v-38h-421v38l153 52l488 619l40 36l384 516l-166 51v38h422v-38l-153 -52l-442 -573zM1061 89l-403 543l-24 25l-442 602l-149 53v38h514v-38l-174 -51l354 -486l25 -25l489 -659l149 -53v-38h-513v38z" />
    <glyph glyph-name="Y" unicode="Y" horiz-adv-x="1334" 
d="M136 1259l-149 53v38h519v-38l-168 -51l436 -630l-60 2l352 628l-166 51v38h425v-38l-153 -52l-400 -665v-506l160 -51v-38h-486v38l161 51v500z" />
    <glyph glyph-name="Z" unicode="Z" horiz-adv-x="1249" 
d="M1148 1350v-19l-844 -1267l-16 26h714l148 269l42 -8l-63 -400h-16l-115 49h-895v19l839 1267l28 -26h-685l-178 -295l-40 10l75 434h20l122 -59h864z" />
    <glyph glyph-name="Agrave" unicode="&#xc0;" horiz-adv-x="1384" 
d="M350 507v88h666v-88h-666zM1253 91l148 -53v-38h-497v38l174 51l-466 1107h62l-434 -1107l166 -51v-38h-421v38l153 52l523 1280h46zM719 1484h-55l-272 232v17h218z" />
    <glyph glyph-name="Aacute" unicode="&#xc1;" horiz-adv-x="1384" 
d="M350 507v88h666v-88h-666zM1253 91l148 -53v-38h-497v38l174 51l-466 1107h62l-434 -1107l166 -51v-38h-421v38l153 52l523 1280h46zM647 1484l109 249h218v-17l-272 -232h-55z" />
    <glyph glyph-name="Acircumflex" unicode="&#xc2;" horiz-adv-x="1384" 
d="M350 507v88h666v-88h-666zM1253 91l148 -53v-38h-497v38l174 51l-466 1107h62l-434 -1107l166 -51v-38h-421v38l153 52l523 1280h46zM668 1626h30l-233 -142h-71l214 249h150l214 -249h-71z" />
    <glyph glyph-name="Atilde" unicode="&#xc3;" horiz-adv-x="1384" 
d="M350 507v88h666v-88h-666zM1253 91l148 -53v-38h-497v38l174 51l-466 1107h62l-434 -1107l166 -51v-38h-421v38l153 52l523 1280h46zM956 1731q-19 -104 -39.5 -158.5t-48.5 -74.5t-72 -20q-36 0 -69.5 19t-64 44.5t-57.5 44.5t-51 19q-17 0 -31 -9t-26.5 -34.5
t-26.5 -75.5h-62q21 104 41 158.5t48.5 74.5t71.5 20q36 0 69 -19t63.5 -44.5t58 -44.5t51.5 -19q17 0 30.5 8.5t27 34.5t26.5 76h61z" />
    <glyph glyph-name="Adieresis" unicode="&#xc4;" horiz-adv-x="1384" 
d="M350 507v88h666v-88h-666zM1253 91l148 -53v-38h-497v38l174 51l-466 1107h62l-434 -1107l166 -51v-38h-421v38l153 52l523 1280h46zM500 1500q-49 0 -79.5 32t-30.5 76q0 45 30.5 77t79.5 32q48 0 78.5 -32t30.5 -77q0 -44 -30.5 -76t-78.5 -32zM866 1500
q-48 0 -78.5 32t-30.5 76q0 45 30.5 77t78.5 32q49 0 79.5 -32t30.5 -77q0 -44 -30.5 -76t-79.5 -32z" />
    <glyph glyph-name="Aring" unicode="&#xc5;" horiz-adv-x="1384" 
d="M350 507v88h666v-88h-666zM1253 91l148 -53v-38h-497v38l174 51l-466 1107h62l-434 -1107l166 -51v-38h-421v38l153 52l523 1280h46zM683 1784q77 0 127.5 -49.5t50.5 -126.5q0 -76 -50.5 -126t-127.5 -50q-76 0 -127 50t-51 126q0 77 51 126.5t127 49.5zM683 1491
q50 0 82.5 33t32.5 84q0 52 -32.5 84.5t-82.5 32.5t-82.5 -32.5t-32.5 -84.5q0 -51 32.5 -84t82.5 -33z" />
    <glyph glyph-name="Amacron" unicode="&#x100;" horiz-adv-x="1384" 
d="M350 507v88h666v-88h-666zM1253 91l148 -53v-38h-497v38l174 51l-466 1107h62l-434 -1107l166 -51v-38h-421v38l153 52l523 1280h46zM429 1557v103h508v-103h-508z" />
    <glyph glyph-name="Abreve" unicode="&#x102;" horiz-adv-x="1384" 
d="M350 507v88h666v-88h-666zM1253 91l148 -53v-38h-497v38l174 51l-466 1107h62l-434 -1107l166 -51v-38h-421v38l153 52l523 1280h46zM683 1600q79 0 134.5 32t74.5 101h64q-24 -98 -58.5 -154t-86.5 -79.5t-128 -23.5t-128 23.5t-86.5 79.5t-58.5 154h64q19 -69 75 -101
t134 -32z" />
    <glyph glyph-name="Aogonek" unicode="&#x104;" horiz-adv-x="1384" 
d="M350 507v88h666v-88h-666zM1253 91l148 -53v-38h-497v38l174 51l-466 1107h62l-434 -1107l166 -51v-38h-421v38l153 52l523 1280h46zM1127 -125q-32 -63 -44 -109.5t-12 -84.5q0 -50 30.5 -77t77.5 -27q31 0 65.5 16.5t84.5 66.5l27 -26q-39 -57 -76.5 -91t-75.5 -50
t-82 -16q-73 0 -120.5 44.5t-47.5 120.5q0 31 7.5 64.5t28 75t58.5 97.5l116 170h49z" />
    <glyph glyph-name="Aringacute" unicode="&#x1fa;" horiz-adv-x="1384" 
d="M350 507v88h666v-88h-666zM1253 91l148 -53v-38h-497v38l174 51l-466 1107h62l-434 -1107l166 -51v-38h-421v38l153 52l523 1280h46zM683 1784q77 0 127.5 -49.5t50.5 -126.5q0 -76 -50.5 -126t-127.5 -50q-76 0 -127 50t-51 126q0 77 51 126.5t127 49.5zM683 1491
q50 0 82.5 33t32.5 84q0 52 -32.5 84.5t-82.5 32.5t-82.5 -32.5t-32.5 -84.5q0 -51 32.5 -84t82.5 -33zM647 1867l109 249h218v-17l-272 -232h-55z" />
    <glyph glyph-name="uni0200" unicode="&#x200;" horiz-adv-x="1384" 
d="M350 507v88h666v-88h-666zM1253 91l148 -53v-38h-497v38l174 51l-466 1107h62l-434 -1107l166 -51v-38h-421v38l153 52l523 1280h46zM593 1484h-62l-320 235v14h227zM834 1484h-51l-223 235v14h207z" />
    <glyph glyph-name="uni0202" unicode="&#x202;" horiz-adv-x="1384" 
d="M350 507v88h666v-88h-666zM1253 91l148 -53v-38h-497v38l174 51l-466 1107h62l-434 -1107l166 -51v-38h-421v38l153 52l523 1280h46zM683 1617q-78 0 -134 -32t-75 -101h-64q24 98 59 154t87 79t127 23q76 0 127.5 -23t86.5 -79t59 -154h-64q-19 69 -74.5 101t-134.5 32z
" />
    <glyph glyph-name="uni1EA0" unicode="&#x1ea0;" horiz-adv-x="1384" 
d="M350 507v88h666v-88h-666zM1253 91l148 -53v-38h-497v38l174 51l-466 1107h62l-434 -1107l166 -51v-38h-421v38l153 52l523 1280h46zM693 -367q-52 0 -84.5 34t-32.5 82q0 49 32.5 82.5t84.5 33.5q53 0 85 -33.5t32 -82.5q0 -48 -32 -82t-85 -34z" />
    <glyph glyph-name="uni1EA2" unicode="&#x1ea2;" horiz-adv-x="1384" 
d="M350 507v88h666v-88h-666zM1253 91l148 -53v-38h-497v38l174 51l-466 1107h62l-434 -1107l166 -51v-38h-421v38l153 52l523 1280h46zM534 1673l25 134q86 -7 143 -23t90.5 -38.5t48 -51t14.5 -60.5q0 -41 -17.5 -76t-69 -62t-153.5 -43l-10 54q52 10 81 21.5t40.5 27.5
t11.5 37t-16 36.5t-59.5 26.5t-128.5 17z" />
    <glyph glyph-name="uni1EA4" unicode="&#x1ea4;" horiz-adv-x="1384" 
d="M350 507v88h666v-88h-666zM1253 91l148 -53v-38h-497v38l174 51l-466 1107h62l-434 -1107l166 -51v-38h-421v38l153 52l523 1280h46zM915 1639l96 221h222v-13l-263 -208h-55zM668 1626h30l-233 -142h-71l214 249h150l214 -249h-71z" />
    <glyph glyph-name="uni1EA6" unicode="&#x1ea6;" horiz-adv-x="1384" 
d="M350 507v88h666v-88h-666zM1253 91l148 -53v-38h-497v38l174 51l-466 1107h62l-434 -1107l166 -51v-38h-421v38l153 52l523 1280h46zM451 1639h-55l-263 208v13h222zM698 1626l-233 -142h-71l214 249h150l214 -249h-71l-233 142h30z" />
    <glyph glyph-name="uni1EA8" unicode="&#x1ea8;" horiz-adv-x="1384" 
d="M350 507v88h666v-88h-666zM1253 91l148 -53v-38h-497v38l174 51l-466 1107h62l-434 -1107l166 -51v-38h-421v38l153 52l523 1280h46zM698 1626l-233 -142h-71l214 249h150l214 -249h-71l-233 142h30zM922 1683q75 14 98 32t23 43q0 18 -14.5 32t-55.5 24.5t-119 16.5
l24 120q81 -6 134.5 -20.5t84.5 -35t44.5 -46t13.5 -54.5q0 -40 -19 -71.5t-67.5 -54t-138.5 -35.5z" />
    <glyph glyph-name="uni1EAA" unicode="&#x1eaa;" horiz-adv-x="1384" 
d="M350 507v88h666v-88h-666zM1253 91l148 -53v-38h-497v38l174 51l-466 1107h62l-434 -1107l166 -51v-38h-421v38l153 52l523 1280h46zM699 1546l-221 -108h-73l202 202h152l202 -202h-73l-222 108h33zM485 1684h-56q28 66 51.5 106t51.5 58t67 18q24 0 49 -11t50.5 -24.5
t49.5 -24.5t46 -11q31 0 50 14.5t37 54.5h56q-28 -66 -51.5 -106t-51 -58t-67.5 -18q-25 0 -50.5 10.5t-50.5 24.5t-48.5 24.5t-45.5 10.5q-31 0 -50 -14.5t-37 -53.5z" />
    <glyph glyph-name="uni1EAC" unicode="&#x1eac;" horiz-adv-x="1384" 
d="M350 507v88h666v-88h-666zM1253 91l148 -53v-38h-497v38l174 51l-466 1107h62l-434 -1107l166 -51v-38h-421v38l153 52l523 1280h46zM668 1626h30l-233 -142h-71l214 249h150l214 -249h-71zM693 -367q-52 0 -84.5 34t-32.5 82q0 49 32.5 82.5t84.5 33.5q53 0 85 -33.5
t32 -82.5q0 -48 -32 -82t-85 -34z" />
    <glyph glyph-name="uni1EAE" unicode="&#x1eae;" horiz-adv-x="1384" 
d="M350 507v88h666v-88h-666zM1253 91l148 -53v-38h-497v38l174 51l-466 1107h62l-434 -1107l166 -51v-38h-421v38l153 52l523 1280h46zM649 1623l90 241h199v-17l-238 -224h-51zM683 1553q86 0 133.5 25.5t65.5 79.5h52q-18 -77 -50 -126t-81 -72.5t-120 -23.5
q-70 0 -119.5 23.5t-81 72.5t-50.5 126h52q18 -54 65.5 -79.5t133.5 -25.5z" />
    <glyph glyph-name="uni1EB0" unicode="&#x1eb0;" horiz-adv-x="1384" 
d="M350 507v88h666v-88h-666zM1253 91l148 -53v-38h-497v38l174 51l-466 1107h62l-434 -1107l166 -51v-38h-421v38l153 52l523 1280h46zM717 1623h-51l-238 224v17h198zM683 1553q86 0 133.5 25.5t65.5 79.5h52q-18 -78 -50 -126.5t-81 -72t-120 -23.5q-70 0 -119.5 23.5
t-81.5 72t-50 126.5h52q18 -54 65.5 -79.5t133.5 -25.5z" />
    <glyph glyph-name="uni1EB2" unicode="&#x1eb2;" horiz-adv-x="1384" 
d="M350 507v88h666v-88h-666zM1253 91l148 -53v-38h-497v38l174 51l-466 1107h62l-434 -1107l166 -51v-38h-421v38l153 52l523 1280h46zM683 1553q86 0 134 23t65 72h52q-17 -74 -49 -121t-81.5 -69t-120.5 -22q-70 0 -120 22t-81.5 69t-49.5 121h52q17 -50 65 -72.5
t134 -22.5zM629 1656q73 6 98 18t25 39q0 16 -11 28.5t-46 22t-105 15.5l14 117q101 -7 155 -29t75 -52.5t21 -64.5q0 -45 -19.5 -75.5t-68.5 -47t-135 -18.5z" />
    <glyph glyph-name="uni1EB4" unicode="&#x1eb4;" horiz-adv-x="1384" 
d="M350 507v88h666v-88h-666zM1253 91l148 -53v-38h-497v38l174 51l-466 1107h62l-434 -1107l166 -51v-38h-421v38l153 52l523 1280h46zM683 1553q86 0 134 23t65 72h52q-17 -74 -49 -121t-81.5 -69t-120.5 -22q-70 0 -120 22t-81.5 69t-49.5 121h52q17 -50 65 -72.5
t134 -22.5zM485 1684h-56q28 66 51.5 106t51.5 58t67 18q24 0 49 -11t50.5 -24.5t49.5 -24.5t46 -11q31 0 50 14.5t37 54.5h56q-28 -66 -51.5 -106t-51 -58t-67.5 -18q-25 0 -50.5 10.5t-50.5 24.5t-48.5 24.5t-45.5 10.5q-31 0 -50 -14.5t-37 -53.5z" />
    <glyph glyph-name="uni1EB6" unicode="&#x1eb6;" horiz-adv-x="1384" 
d="M350 507v88h666v-88h-666zM1253 91l148 -53v-38h-497v38l174 51l-466 1107h62l-434 -1107l166 -51v-38h-421v38l153 52l523 1280h46zM683 1600q79 0 134.5 32t74.5 101h64q-24 -98 -58.5 -154t-86.5 -79.5t-128 -23.5t-128 23.5t-86.5 79.5t-58.5 154h64q19 -69 75 -101
t134 -32zM693 -367q-52 0 -84.5 34t-32.5 82q0 49 32.5 82.5t84.5 33.5q53 0 85 -33.5t32 -82.5q0 -48 -32 -82t-85 -34z" />
    <glyph glyph-name="AE" unicode="&#xc6;" horiz-adv-x="1935" 
d="M450 507v88h563v-88h-563zM878 1350h81v-40l-724 -1223l165 -50v-37h-426v37l155 50zM684 1313v37h211l-38 -91zM1575 973l-3 -265l3 -265h-68l-32 219l-484 3v86l484 3l32 219h68zM1835 970l-45 -9l-169 320l66 -21h-697v90h650l114 50h15zM1639 64l188 319l39 -10
l-76 -431h-15l-117 58h-668v90h706zM770 0v38l160 51v1261h165v-1350h-325z" />
    <glyph glyph-name="AEacute" unicode="&#x1fc;" horiz-adv-x="1935" 
d="M450 507v88h563v-88h-563zM878 1350h81v-40l-724 -1223l165 -50v-37h-426v37l155 50zM684 1313v37h211l-38 -91zM1575 973l-3 -265l3 -265h-68l-32 219l-484 3v86l484 3l32 219h68zM1835 970l-45 -9l-169 320l66 -21h-697v90h650l114 50h15zM1639 64l188 319l39 -10
l-76 -431h-15l-117 58h-668v90h706zM770 0v38l160 51v1261h165v-1350h-325zM977 1484l109 249h218v-17l-272 -232h-55z" />
    <glyph glyph-name="Ccedilla" unicode="&#xc7;" horiz-adv-x="1385" 
d="M854 64q79 0 151.5 14.5t146.5 46.5l-46 -38l143 271h50l-38 -302q-71 -34 -180.5 -55t-233.5 -21q-167 0 -305 46t-238.5 134.5t-155 216t-54.5 289.5q0 213 93.5 371.5t269 245.5t419.5 87q64 0 127 -8t148 -28l-54 -10l123 84h18l61 -462l-43 -8l-166 303l40 -40
q-85 46 -153.5 64t-147.5 18q-136 0 -240.5 -37t-175 -108t-107 -174.5t-36.5 -235.5q0 -161 44 -284.5t123 -208t185.5 -128t231.5 -43.5zM669 -523q-73 0 -104 25.5t-31 57.5q0 22 15 35.5t37 13.5q27 0 44.5 -15.5t37.5 -32t54 -16.5q47 0 76 26.5t29 71.5
q0 35 -21.5 60.5t-72 42.5t-136.5 28v17l196 253h73l-188 -259v92q93 -16 146 -43.5t75 -63t22 -76.5q0 -64 -36.5 -113t-94 -76.5t-121.5 -27.5z" />
    <glyph glyph-name="Cacute" unicode="&#x106;" horiz-adv-x="1385" 
d="M854 64q79 0 151.5 14.5t146.5 46.5l-46 -38l143 271h50l-38 -302q-71 -34 -180.5 -55t-233.5 -21q-167 0 -305 46t-238.5 134.5t-155 216t-54.5 289.5q0 213 93.5 371.5t269 245.5t419.5 87q64 0 127 -8t148 -28l-54 -10l123 84h18l61 -462l-43 -8l-166 303l40 -40
q-85 46 -153.5 64t-147.5 18q-136 0 -240.5 -37t-175 -108t-107 -174.5t-36.5 -235.5q0 -161 44 -284.5t123 -208t185.5 -128t231.5 -43.5zM749 1484l109 249h218v-17l-272 -232h-55z" />
    <glyph glyph-name="Ccircumflex" unicode="&#x108;" horiz-adv-x="1385" 
d="M854 64q79 0 151.5 14.5t146.5 46.5l-46 -38l143 271h50l-38 -302q-71 -34 -180.5 -55t-233.5 -21q-167 0 -305 46t-238.5 134.5t-155 216t-54.5 289.5q0 213 93.5 371.5t269 245.5t419.5 87q64 0 127 -8t148 -28l-54 -10l123 84h18l61 -462l-43 -8l-166 303l40 -40
q-85 46 -153.5 64t-147.5 18q-136 0 -240.5 -37t-175 -108t-107 -174.5t-36.5 -235.5q0 -161 44 -284.5t123 -208t185.5 -128t231.5 -43.5zM770 1626h30l-233 -142h-71l214 249h150l214 -249h-71z" />
    <glyph glyph-name="Cdotaccent" unicode="&#x10a;" horiz-adv-x="1385" 
d="M854 64q79 0 151.5 14.5t146.5 46.5l-46 -38l143 271h50l-38 -302q-71 -34 -180.5 -55t-233.5 -21q-167 0 -305 46t-238.5 134.5t-155 216t-54.5 289.5q0 213 93.5 371.5t269 245.5t419.5 87q64 0 127 -8t148 -28l-54 -10l123 84h18l61 -462l-43 -8l-166 303l40 -40
q-85 46 -153.5 64t-147.5 18q-136 0 -240.5 -37t-175 -108t-107 -174.5t-36.5 -235.5q0 -161 44 -284.5t123 -208t185.5 -128t231.5 -43.5zM785 1492q-52 0 -84.5 34t-32.5 82q0 50 32.5 83t84.5 33q53 0 85 -33t32 -83q0 -48 -32 -82t-85 -34z" />
    <glyph glyph-name="Ccaron" unicode="&#x10c;" horiz-adv-x="1385" 
d="M854 64q79 0 151.5 14.5t146.5 46.5l-46 -38l143 271h50l-38 -302q-71 -34 -180.5 -55t-233.5 -21q-167 0 -305 46t-238.5 134.5t-155 216t-54.5 289.5q0 213 93.5 371.5t269 245.5t419.5 87q64 0 127 -8t148 -28l-54 -10l123 84h18l61 -462l-43 -8l-166 303l40 -40
q-85 46 -153.5 64t-147.5 18q-136 0 -240.5 -37t-175 -108t-107 -174.5t-36.5 -235.5q0 -161 44 -284.5t123 -208t185.5 -128t231.5 -43.5zM800 1591h-30l233 142h71l-214 -249h-150l-214 249h71z" />
    <glyph glyph-name="Dcaron" unicode="&#x10e;" horiz-adv-x="1501" 
d="M1227 692q0 289 -174.5 428.5t-481.5 139.5h-264v90h314q262 0 436.5 -70t261.5 -211.5t87 -354.5q0 -227 -102.5 -386.5t-279.5 -243.5t-399 -84h-318v90h288q191 0 333 62t220.5 194.5t78.5 345.5zM83 0v38l160 51v1172l-160 51v38h326v-1350h-326zM769 1591h-30
l233 142h71l-214 -249h-150l-214 249h71z" />
    <glyph glyph-name="Dcroat" unicode="&#x110;" horiz-adv-x="1503" 
d="M85 643v91h651v-91h-651zM1230 692q0 289 -174.5 428.5t-481.5 139.5h-265v90h314q262 0 436.5 -70t261.5 -211.5t87 -354.5q0 -227 -102.5 -386.5t-279.5 -243.5t-399 -84h-318v90h288q191 0 333 62t221 194.5t79 345.5zM85 0v38l161 51v1172l-161 51v38h326v-1350h-326
z" />
    <glyph glyph-name="Egrave" unicode="&#xc8;" horiz-adv-x="1249" 
d="M889 973l-4 -265l4 -265h-69l-31 219l-485 3v86l485 3l31 219h69zM1148 970l-45 -9l-169 320l66 -21h-696v90h649l115 50h15zM952 64l188 319l39 -10l-76 -431h-15l-116 58h-668v90h706zM83 0v38l160 51v1172l-160 51v38h326v-1350h-326zM678 1484h-55l-272 232v17h218z
" />
    <glyph glyph-name="Eacute" unicode="&#xc9;" horiz-adv-x="1249" 
d="M889 973l-4 -265l4 -265h-69l-31 219l-485 3v86l485 3l31 219h69zM1148 970l-45 -9l-169 320l66 -21h-696v90h649l115 50h15zM952 64l188 319l39 -10l-76 -431h-15l-116 58h-668v90h706zM83 0v38l160 51v1172l-160 51v38h326v-1350h-326zM606 1484l109 249h218v-17
l-272 -232h-55z" />
    <glyph glyph-name="Ecircumflex" unicode="&#xca;" horiz-adv-x="1249" 
d="M889 973l-4 -265l4 -265h-69l-31 219l-485 3v86l485 3l31 219h69zM1148 970l-45 -9l-169 320l66 -21h-696v90h649l115 50h15zM952 64l188 319l39 -10l-76 -431h-15l-116 58h-668v90h706zM83 0v38l160 51v1172l-160 51v38h326v-1350h-326zM627 1626h30l-233 -142h-71
l214 249h150l214 -249h-71z" />
    <glyph glyph-name="Edieresis" unicode="&#xcb;" horiz-adv-x="1249" 
d="M889 973l-4 -265l4 -265h-69l-31 219l-485 3v86l485 3l31 219h69zM1148 970l-45 -9l-169 320l66 -21h-696v90h649l115 50h15zM952 64l188 319l39 -10l-76 -431h-15l-116 58h-668v90h706zM83 0v38l160 51v1172l-160 51v38h326v-1350h-326zM459 1500q-49 0 -79.5 32
t-30.5 76q0 45 30.5 77t79.5 32q48 0 78.5 -32t30.5 -77q0 -44 -30.5 -76t-78.5 -32zM825 1500q-48 0 -78.5 32t-30.5 76q0 45 30.5 77t78.5 32q49 0 79.5 -32t30.5 -77q0 -44 -30.5 -76t-79.5 -32z" />
    <glyph glyph-name="Emacron" unicode="&#x112;" horiz-adv-x="1249" 
d="M889 973l-4 -265l4 -265h-69l-31 219l-485 3v86l485 3l31 219h69zM1148 970l-45 -9l-169 320l66 -21h-696v90h649l115 50h15zM952 64l188 319l39 -10l-76 -431h-15l-116 58h-668v90h706zM83 0v38l160 51v1172l-160 51v38h326v-1350h-326zM388 1557v103h508v-103h-508z
" />
    <glyph glyph-name="Ebreve" unicode="&#x114;" horiz-adv-x="1249" 
d="M889 973l-4 -265l4 -265h-69l-31 219l-485 3v86l485 3l31 219h69zM1148 970l-45 -9l-169 320l66 -21h-696v90h649l115 50h15zM952 64l188 319l39 -10l-76 -431h-15l-116 58h-668v90h706zM83 0v38l160 51v1172l-160 51v38h326v-1350h-326zM642 1600q79 0 134.5 32
t74.5 101h64q-24 -98 -58.5 -154t-86.5 -79.5t-128 -23.5t-128 23.5t-86.5 79.5t-58.5 154h64q19 -69 75 -101t134 -32z" />
    <glyph glyph-name="Edotaccent" unicode="&#x116;" horiz-adv-x="1249" 
d="M889 973l-4 -265l4 -265h-69l-31 219l-485 3v86l485 3l31 219h69zM1148 970l-45 -9l-169 320l66 -21h-696v90h649l115 50h15zM952 64l188 319l39 -10l-76 -431h-15l-116 58h-668v90h706zM83 0v38l160 51v1172l-160 51v38h326v-1350h-326zM642 1492q-52 0 -84.5 34
t-32.5 82q0 50 32.5 83t84.5 33q53 0 85 -33t32 -83q0 -48 -32 -82t-85 -34z" />
    <glyph glyph-name="Eogonek" unicode="&#x118;" horiz-adv-x="1249" 
d="M889 973l-4 -265l4 -265h-69l-31 219l-485 3v86l485 3l31 219h69zM1148 970l-45 -9l-169 320l66 -21h-696v90h649l115 50h15zM952 64l188 319l39 -10l-76 -431h-15l-116 58h-668v90h706zM83 0v38l160 51v1172l-160 51v38h326v-1350h-326zM907 -125q-23 -43 -36 -77.5
t-18.5 -63t-5.5 -53.5q0 -50 30 -77t77 -27q31 0 66 16.5t84 66.5l27 -26q-38 -57 -75.5 -91t-76 -50t-82.5 -16q-73 0 -120 44.5t-47 120.5q0 31 8 64.5t29 75t61 97.5l120 170h49z" />
    <glyph glyph-name="Ecaron" unicode="&#x11a;" horiz-adv-x="1249" 
d="M889 973l-4 -265l4 -265h-69l-31 219l-485 3v86l485 3l31 219h69zM1148 970l-45 -9l-169 320l66 -21h-696v90h649l115 50h15zM952 64l188 319l39 -10l-76 -431h-15l-116 58h-668v90h706zM83 0v38l160 51v1172l-160 51v38h326v-1350h-326zM657 1591h-30l233 142h71
l-214 -249h-150l-214 249h71z" />
    <glyph glyph-name="uni0204" unicode="&#x204;" horiz-adv-x="1249" 
d="M889 973l-4 -265l4 -265h-69l-31 219l-485 3v86l485 3l31 219h69zM1148 970l-45 -9l-169 320l66 -21h-696v90h649l115 50h15zM952 64l188 319l39 -10l-76 -431h-15l-116 58h-668v90h706zM83 0v38l160 51v1172l-160 51v38h326v-1350h-326zM552 1484h-62l-320 235v14h227z
M793 1484h-51l-223 235v14h207z" />
    <glyph glyph-name="uni0206" unicode="&#x206;" horiz-adv-x="1249" 
d="M889 973l-4 -265l4 -265h-69l-31 219l-485 3v86l485 3l31 219h69zM1148 970l-45 -9l-169 320l66 -21h-696v90h649l115 50h15zM952 64l188 319l39 -10l-76 -431h-15l-116 58h-668v90h706zM83 0v38l160 51v1172l-160 51v38h326v-1350h-326zM642 1617q-78 0 -134 -32
t-75 -101h-64q24 98 59 154t87 79t127 23q76 0 127.5 -23t86.5 -79t59 -154h-64q-19 69 -74.5 101t-134.5 32z" />
    <glyph glyph-name="uni1EB8" unicode="&#x1eb8;" horiz-adv-x="1249" 
d="M889 973l-4 -265l4 -265h-69l-31 219l-485 3v86l485 3l31 219h69zM1148 970l-45 -9l-169 320l66 -21h-696v90h649l115 50h15zM952 64l188 319l39 -10l-76 -431h-15l-116 58h-668v90h706zM83 0v38l160 51v1172l-160 51v38h326v-1350h-326zM668 -367q-52 0 -84.5 34
t-32.5 82q0 49 32.5 82.5t84.5 33.5q53 0 85 -33.5t32 -82.5q0 -48 -32 -82t-85 -34z" />
    <glyph glyph-name="uni1EBA" unicode="&#x1eba;" horiz-adv-x="1249" 
d="M889 973l-4 -265l4 -265h-69l-31 219l-485 3v86l485 3l31 219h69zM1148 970l-45 -9l-169 320l66 -21h-696v90h649l115 50h15zM952 64l188 319l39 -10l-76 -431h-15l-116 58h-668v90h706zM83 0v38l160 51v1172l-160 51v38h326v-1350h-326zM493 1673l25 134q86 -7 143 -23
t90.5 -38.5t48 -51t14.5 -60.5q0 -41 -17.5 -76t-69 -62t-153.5 -43l-10 54q52 10 81 21.5t40.5 27.5t11.5 37t-16 36.5t-59.5 26.5t-128.5 17z" />
    <glyph glyph-name="uni1EBC" unicode="&#x1ebc;" horiz-adv-x="1249" 
d="M889 973l-4 -265l4 -265h-69l-31 219l-485 3v86l485 3l31 219h69zM1148 970l-45 -9l-169 320l66 -21h-696v90h649l115 50h15zM952 64l188 319l39 -10l-76 -431h-15l-116 58h-668v90h706zM83 0v38l160 51v1172l-160 51v38h326v-1350h-326zM915 1731q-19 -104 -39.5 -158.5
t-48.5 -74.5t-72 -20q-36 0 -69.5 19t-64 44.5t-57.5 44.5t-51 19q-17 0 -31 -9t-26.5 -34.5t-26.5 -75.5h-62q21 104 41 158.5t48.5 74.5t71.5 20q36 0 69 -19t63.5 -44.5t58 -44.5t51.5 -19q17 0 30.5 8.5t27 34.5t26.5 76h61z" />
    <glyph glyph-name="uni1EBE" unicode="&#x1ebe;" horiz-adv-x="1249" 
d="M889 973l-4 -265l4 -265h-69l-31 219l-485 3v86l485 3l31 219h69zM1148 970l-45 -9l-169 320l66 -21h-696v90h649l115 50h15zM952 64l188 319l39 -10l-76 -431h-15l-116 58h-668v90h706zM83 0v38l160 51v1172l-160 51v38h326v-1350h-326zM874 1639l96 221h222v-13
l-263 -208h-55zM627 1626h30l-233 -142h-71l214 249h150l214 -249h-71z" />
    <glyph glyph-name="uni1EC0" unicode="&#x1ec0;" horiz-adv-x="1249" 
d="M889 973l-4 -265l4 -265h-69l-31 219l-485 3v86l485 3l31 219h69zM1148 970l-45 -9l-169 320l66 -21h-696v90h649l115 50h15zM952 64l188 319l39 -10l-76 -431h-15l-116 58h-668v90h706zM83 0v38l160 51v1172l-160 51v38h326v-1350h-326zM410 1639h-55l-263 208v13h222z
M657 1626l-233 -142h-71l214 249h150l214 -249h-71l-233 142h30z" />
    <glyph glyph-name="uni1EC2" unicode="&#x1ec2;" horiz-adv-x="1249" 
d="M889 973l-4 -265l4 -265h-69l-31 219l-485 3v86l485 3l31 219h69zM1148 970l-45 -9l-169 320l66 -21h-696v90h649l115 50h15zM952 64l188 319l39 -10l-76 -431h-15l-116 58h-668v90h706zM83 0v38l160 51v1172l-160 51v38h326v-1350h-326zM657 1626l-233 -142h-71l214 249
h150l214 -249h-71l-233 142h30zM881 1683q75 14 98 32t23 43q0 18 -14.5 32t-55.5 24.5t-119 16.5l24 120q81 -6 134.5 -20.5t84.5 -35t44.5 -46t13.5 -54.5q0 -40 -19 -71.5t-67.5 -54t-138.5 -35.5z" />
    <glyph glyph-name="uni1EC4" unicode="&#x1ec4;" horiz-adv-x="1249" 
d="M889 973l-4 -265l4 -265h-69l-31 219l-485 3v86l485 3l31 219h69zM1148 970l-45 -9l-169 320l66 -21h-696v90h649l115 50h15zM952 64l188 319l39 -10l-76 -431h-15l-116 58h-668v90h706zM83 0v38l160 51v1172l-160 51v38h326v-1350h-326zM658 1546l-221 -108h-73l202 202
h152l202 -202h-73l-222 108h33zM444 1684h-56q28 66 51.5 106t51.5 58t67 18q24 0 49 -11t50.5 -24.5t49.5 -24.5t46 -11q31 0 50 14.5t37 54.5h56q-28 -66 -51.5 -106t-51 -58t-67.5 -18q-25 0 -50.5 10.5t-50.5 24.5t-48.5 24.5t-45.5 10.5q-31 0 -50 -14.5t-37 -53.5z
" />
    <glyph glyph-name="uni1EC6" unicode="&#x1ec6;" horiz-adv-x="1249" 
d="M889 973l-4 -265l4 -265h-69l-31 219l-485 3v86l485 3l31 219h69zM1148 970l-45 -9l-169 320l66 -21h-696v90h649l115 50h15zM952 64l188 319l39 -10l-76 -431h-15l-116 58h-668v90h706zM83 0v38l160 51v1172l-160 51v38h326v-1350h-326zM627 1626h30l-233 -142h-71
l214 249h150l214 -249h-71zM668 -367q-52 0 -84.5 34t-32.5 82q0 49 32.5 82.5t84.5 33.5q53 0 85 -33.5t32 -82.5q0 -48 -32 -82t-85 -34z" />
    <glyph glyph-name="Gcircumflex" unicode="&#x11c;" horiz-adv-x="1472" 
d="M1295 169l29 -85v-2q-67 -32 -144 -55t-160.5 -35t-170.5 -12q-165 0 -303.5 46t-239.5 134.5t-156.5 216t-55.5 289.5q0 213 92 371.5t265 245.5t414 87q77 0 144.5 -9.5t145.5 -30.5l-73 -9l128 87h17l62 -462l-44 -8l-181 329l109 -104q-82 60 -166 90t-189 30
q-133 0 -235 -36.5t-172 -108t-105.5 -174.5t-35.5 -236q0 -214 75 -362.5t204.5 -225t293.5 -76.5q67 0 133 12t120.5 35t85.5 53l-50 -111v456l-192 56v39h484v-39l-129 -50v-346zM778 1626h30l-233 -142h-71l214 249h150l214 -249h-71z" />
    <glyph glyph-name="Gbreve" unicode="&#x11e;" horiz-adv-x="1472" 
d="M1295 169l29 -85v-2q-67 -32 -144 -55t-160.5 -35t-170.5 -12q-165 0 -303.5 46t-239.5 134.5t-156.5 216t-55.5 289.5q0 213 92 371.5t265 245.5t414 87q77 0 144.5 -9.5t145.5 -30.5l-73 -9l128 87h17l62 -462l-44 -8l-181 329l109 -104q-82 60 -166 90t-189 30
q-133 0 -235 -36.5t-172 -108t-105.5 -174.5t-35.5 -236q0 -214 75 -362.5t204.5 -225t293.5 -76.5q67 0 133 12t120.5 35t85.5 53l-50 -111v456l-192 56v39h484v-39l-129 -50v-346zM793 1600q79 0 134.5 32t74.5 101h64q-24 -98 -58.5 -154t-86.5 -79.5t-128 -23.5
t-128 23.5t-86.5 79.5t-58.5 154h64q19 -69 75 -101t134 -32z" />
    <glyph glyph-name="Gdotaccent" unicode="&#x120;" horiz-adv-x="1472" 
d="M1295 169l29 -85v-2q-67 -32 -144 -55t-160.5 -35t-170.5 -12q-165 0 -303.5 46t-239.5 134.5t-156.5 216t-55.5 289.5q0 213 92 371.5t265 245.5t414 87q77 0 144.5 -9.5t145.5 -30.5l-73 -9l128 87h17l62 -462l-44 -8l-181 329l109 -104q-82 60 -166 90t-189 30
q-133 0 -235 -36.5t-172 -108t-105.5 -174.5t-35.5 -236q0 -214 75 -362.5t204.5 -225t293.5 -76.5q67 0 133 12t120.5 35t85.5 53l-50 -111v456l-192 56v39h484v-39l-129 -50v-346zM793 1492q-52 0 -84.5 34t-32.5 82q0 50 32.5 83t84.5 33q53 0 85 -33t32 -83
q0 -48 -32 -82t-85 -34z" />
    <glyph glyph-name="uni0122" unicode="&#x122;" horiz-adv-x="1472" 
d="M1295 169l29 -85v-2q-67 -32 -144 -55t-160.5 -35t-170.5 -12q-165 0 -303.5 46t-239.5 134.5t-156.5 216t-55.5 289.5q0 213 92 371.5t265 245.5t414 87q77 0 144.5 -9.5t145.5 -30.5l-73 -9l128 87h17l62 -462l-44 -8l-181 329l109 -104q-82 60 -166 90t-189 30
q-133 0 -235 -36.5t-172 -108t-105.5 -174.5t-35.5 -236q0 -214 75 -362.5t204.5 -225t293.5 -76.5q67 0 133 12t120.5 35t85.5 53l-50 -111v456l-192 56v39h484v-39l-129 -50v-346zM904 1572q0 -43 -25 -75t-83 -32q-47 0 -81.5 29t-34.5 91q0 37 19 73.5t65.5 62.5
t128.5 31l7 -50q-62 -3 -86.5 -17.5t-24.5 -39.5q0 -17 17.5 -27.5t40.5 -17.5t40 -13t17 -15z" />
    <glyph glyph-name="Gcaron" unicode="&#x1e6;" horiz-adv-x="1472" 
d="M1295 169l29 -85v-2q-67 -32 -144 -55t-160.5 -35t-170.5 -12q-165 0 -303.5 46t-239.5 134.5t-156.5 216t-55.5 289.5q0 213 92 371.5t265 245.5t414 87q77 0 144.5 -9.5t145.5 -30.5l-73 -9l128 87h17l62 -462l-44 -8l-181 329l109 -104q-82 60 -166 90t-189 30
q-133 0 -235 -36.5t-172 -108t-105.5 -174.5t-35.5 -236q0 -214 75 -362.5t204.5 -225t293.5 -76.5q67 0 133 12t120.5 35t85.5 53l-50 -111v456l-192 56v39h484v-39l-129 -50v-346zM808 1591h-30l233 142h71l-214 -249h-150l-214 249h71z" />
    <glyph glyph-name="Hcircumflex" unicode="&#x124;" horiz-adv-x="1569" 
d="M409 89l160 -51v-38h-486v38l160 51v1172l-160 51v38h486v-38l-160 -51v-1172zM1326 89l160 -51v-38h-486v38l160 51v1172l-160 51v38h486v-38l-160 -51v-1172zM306 644v90h957v-90h-957zM769 1626h30l-233 -142h-71l214 249h150l214 -249h-71z" />
    <glyph glyph-name="Hbar" unicode="&#x126;" horiz-adv-x="1571" 
d="M410 89l160 -51v-38h-486v38l161 51v1172l-161 51v38h486v-38l-160 -51v-1172zM1327 89l160 -51v-38h-486v38l161 51v1172l-161 51v38h486v-38l-160 -51v-1172zM84 965v91h1403v-91h-1403zM307 644v90h957v-90h-957z" />
    <glyph glyph-name="Igrave" unicode="&#xcc;" horiz-adv-x="652" 
d="M569 38v-38h-486v38l160 51v1172l-160 51v38h486v-38l-160 -51v-1172zM362 1484h-55l-272 232v17h218z" />
    <glyph glyph-name="Iacute" unicode="&#xcd;" horiz-adv-x="652" 
d="M569 38v-38h-486v38l160 51v1172l-160 51v38h486v-38l-160 -51v-1172zM290 1484l109 249h218v-17l-272 -232h-55z" />
    <glyph glyph-name="Icircumflex" unicode="&#xce;" horiz-adv-x="652" 
d="M569 38v-38h-486v38l160 51v1172l-160 51v38h486v-38l-160 -51v-1172zM311 1626h30l-233 -142h-71l214 249h150l214 -249h-71z" />
    <glyph glyph-name="Idieresis" unicode="&#xcf;" horiz-adv-x="652" 
d="M569 38v-38h-486v38l160 51v1172l-160 51v38h486v-38l-160 -51v-1172zM143 1500q-49 0 -79.5 32t-30.5 76q0 45 30.5 77t79.5 32q48 0 78.5 -32t30.5 -77q0 -44 -30.5 -76t-78.5 -32zM509 1500q-48 0 -78.5 32t-30.5 76q0 45 30.5 77t78.5 32q49 0 79.5 -32t30.5 -77
q0 -44 -30.5 -76t-79.5 -32z" />
    <glyph glyph-name="Imacron" unicode="&#x12a;" horiz-adv-x="652" 
d="M569 38v-38h-486v38l160 51v1172l-160 51v38h486v-38l-160 -51v-1172zM72 1557v103h508v-103h-508z" />
    <glyph glyph-name="Ibreve" unicode="&#x12c;" horiz-adv-x="652" 
d="M569 38v-38h-486v38l160 51v1172l-160 51v38h486v-38l-160 -51v-1172zM326 1600q79 0 134.5 32t74.5 101h64q-24 -98 -58.5 -154t-86.5 -79.5t-128 -23.5t-128 23.5t-86.5 79.5t-58.5 154h64q19 -69 75 -101t134 -32z" />
    <glyph glyph-name="Itilde" unicode="&#x128;" horiz-adv-x="652" 
d="M569 38v-38h-486v38l160 51v1172l-160 51v38h486v-38l-160 -51v-1172zM599 1731q-19 -104 -39.5 -158.5t-48.5 -74.5t-72 -20q-36 0 -69.5 19t-64 44.5t-57.5 44.5t-51 19q-17 0 -31 -9t-26.5 -34.5t-26.5 -75.5h-62q21 104 41 158.5t48.5 74.5t71.5 20q36 0 69 -19
t63.5 -44.5t58 -44.5t51.5 -19q17 0 30.5 8.5t27 34.5t26.5 76h61z" />
    <glyph glyph-name="Iogonek" unicode="&#x12e;" horiz-adv-x="652" 
d="M569 38v-38h-486v38l160 51v1172l-160 51v38h486v-38l-160 -51v-1172zM302 -125q-20 -43 -32 -77.5t-17 -63t-5 -52.5q0 -51 30.5 -78t77.5 -27q31 0 65.5 16.5t84.5 66.5l27 -26q-39 -57 -76.5 -91t-75.5 -50t-82 -16q-73 0 -120.5 44.5t-47.5 120.5q0 31 7.5 63.5
t27.5 74.5t58 99l114 170h49z" />
    <glyph glyph-name="Idotaccent" unicode="&#x130;" horiz-adv-x="652" 
d="M569 38v-38h-486v38l160 51v1172l-160 51v38h486v-38l-160 -51v-1172zM326 1492q-52 0 -84.5 34t-32.5 82q0 50 32.5 83t84.5 33q53 0 85 -33t32 -83q0 -48 -32 -82t-85 -34z" />
    <glyph glyph-name="uni0208" unicode="&#x208;" horiz-adv-x="652" 
d="M569 38v-38h-486v38l160 51v1172l-160 51v38h486v-38l-160 -51v-1172zM236 1484h-62l-320 235v14h227zM477 1484h-51l-223 235v14h207z" />
    <glyph glyph-name="uni020A" unicode="&#x20a;" horiz-adv-x="652" 
d="M569 38v-38h-486v38l160 51v1172l-160 51v38h486v-38l-160 -51v-1172zM326 1617q-78 0 -134 -32t-75 -101h-64q24 98 59 154t87 79t127 23q76 0 127.5 -23t86.5 -79t59 -154h-64q-19 69 -74.5 101t-134.5 32z" />
    <glyph glyph-name="uni1EC8" unicode="&#x1ec8;" horiz-adv-x="652" 
d="M569 38v-38h-486v38l160 51v1172l-160 51v38h486v-38l-160 -51v-1172zM177 1673l25 134q86 -7 143 -23t90.5 -38.5t48 -51t14.5 -60.5q0 -41 -17.5 -76t-69 -62t-153.5 -43l-10 54q52 10 81 21.5t40.5 27.5t11.5 37t-16 36.5t-59.5 26.5t-128.5 17z" />
    <glyph glyph-name="uni1ECA" unicode="&#x1eca;" horiz-adv-x="652" 
d="M569 38v-38h-486v38l160 51v1172l-160 51v38h486v-38l-160 -51v-1172zM326 -367q-52 0 -84.5 34t-32.5 82q0 49 32.5 82.5t84.5 33.5q53 0 85 -33.5t32 -82.5q0 -48 -32 -82t-85 -34z" />
    <glyph glyph-name="Jcircumflex" unicode="&#x134;" horiz-adv-x="839" 
d="M626 441q0 -110 -36.5 -195.5t-100 -145t-145 -90t-172.5 -30.5q-47 0 -83 13t-56 37.5t-20 57.5t20.5 57.5t62.5 24.5q17 0 38 -13.5t46.5 -31.5t54 -31.5t60.5 -13.5q69 0 116.5 57t47.5 196v928l-161 51v38h485v-38l-159 -51zM526 1626h30l-233 -142h-71l214 249h150
l214 -249h-71z" />
    <glyph glyph-name="uni0136" unicode="&#x136;" horiz-adv-x="1426" 
d="M1289 92l153 -54v-38h-528v38l155 51l-536 567h-182v87h192l512 523l-159 46v38h436v-38l-155 -50l-575 -561l40 62zM409 1261v-1172l160 -51v-38h-486v38l160 51v1172l-160 51v38h486v-38zM605 -456q80 21 109.5 44.5t29.5 59.5q0 29 -20 47.5t-46.5 31t-46.5 24.5
t-20 27q0 51 34 84t89 33t93.5 -39.5t38.5 -113.5q0 -60 -20.5 -111t-72.5 -90t-149 -60z" />
    <glyph glyph-name="Lacute" unicode="&#x139;" horiz-adv-x="1175" 
d="M1057 -58h-19l-120 58h-614v90h738l-143 -28l202 340l40 -10zM409 1261v-1261h-326v38l160 51v1172l-160 51v38h486v-38zM290 1484l109 249h218v-17l-272 -232h-55z" />
    <glyph glyph-name="uni013B" unicode="&#x13b;" horiz-adv-x="1175" 
d="M1057 -58h-19l-120 58h-614v90h738l-143 -28l202 340l40 -10zM409 1261v-1261h-326v38l160 51v1172l-160 51v38h486v-38zM481 -456q80 21 109.5 44.5t29.5 59.5q0 29 -20 47.5t-46.5 31t-46.5 24.5t-20 27q0 51 34 84t89 33t93.5 -39.5t38.5 -113.5q0 -60 -20.5 -111
t-72.5 -90t-149 -60z" />
    <glyph glyph-name="Lslash" unicode="&#x141;" horiz-adv-x="1216" 
d="M312 576l-236 -140v105l236 140l82 27l358 211v-104l-358 -212zM1098 -58h-20l-120 58h-614v90h739l-143 -28l202 340l40 -10zM449 1261v-1261h-325v38l160 51v1172l-160 51v38h486v-38z" />
    <glyph glyph-name="Lcaron" unicode="&#x13d;" horiz-adv-x="1178" 
d="M1057 -58h-19l-120 58h-614v90h738l-143 -28l202 340l40 -10zM409 1261v-1261h-326v38l160 51v1172l-160 51v38h486v-38zM771 986l46 363h187v-19l-173 -344h-60z" />
    <glyph glyph-name="Ldot" unicode="&#x13f;" horiz-adv-x="1178" 
d="M1057 -58h-19l-120 58h-614v90h738l-143 -28l202 340l40 -10zM409 1261v-1261h-326v38l160 51v1172l-160 51v38h486v-38zM913 594q-52 0 -84.5 34t-32.5 82q0 50 32.5 83t84.5 33q53 0 85 -33t32 -83q0 -48 -32 -82t-85 -34z" />
    <glyph glyph-name="Ntilde" unicode="&#xd1;" horiz-adv-x="1506" 
d="M246 89v1156l-167 67v38h324l829 -1098l-48 -105v1114l-174 51v38h427v-38l-160 -51v-1280h-43l-928 1227l33 36v-1155l174 -51v-38h-427v38zM1046 1731q-19 -104 -39.5 -158.5t-48.5 -74.5t-72 -20q-36 0 -69.5 19t-64 44.5t-57.5 44.5t-51 19q-17 0 -31 -9t-26.5 -34.5
t-26.5 -75.5h-62q21 104 41 158.5t48.5 74.5t71.5 20q36 0 69 -19t63.5 -44.5t58 -44.5t51.5 -19q17 0 30.5 8.5t27 34.5t26.5 76h61z" />
    <glyph glyph-name="Nacute" unicode="&#x143;" horiz-adv-x="1506" 
d="M246 89v1156l-167 67v38h324l829 -1098l-48 -105v1114l-174 51v38h427v-38l-160 -51v-1280h-43l-928 1227l33 36v-1155l174 -51v-38h-427v38zM737 1484l109 249h218v-17l-272 -232h-55z" />
    <glyph glyph-name="uni0145" unicode="&#x145;" horiz-adv-x="1506" 
d="M246 89v1156l-167 67v38h324l829 -1098l-48 -105v1114l-174 51v38h427v-38l-160 -51v-1280h-43l-928 1227l33 36v-1155l174 -51v-38h-427v38zM656 -456q80 21 109.5 44.5t29.5 59.5q0 29 -20 47.5t-46.5 31t-46.5 24.5t-20 27q0 51 34 84t89 33t93.5 -39.5t38.5 -113.5
q0 -60 -20.5 -111t-72.5 -90t-149 -60z" />
    <glyph glyph-name="Ncaron" unicode="&#x147;" horiz-adv-x="1506" 
d="M246 89v1156l-167 67v38h324l829 -1098l-48 -105v1114l-174 51v38h427v-38l-160 -51v-1280h-43l-928 1227l33 36v-1155l174 -51v-38h-427v38zM788 1591h-30l233 142h71l-214 -249h-150l-214 249h71z" />
    <glyph glyph-name="Eng" unicode="&#x14a;" horiz-adv-x="1506" 
d="M1242 190l-8 -270l-928 1288l33 36v-1155l174 -51v-38h-427v38l160 51v1156l-167 67v38h329zM1277 -60q0 -160 -45 -262.5t-126.5 -151.5t-190.5 -49q-91 0 -139 31.5t-48 83.5q0 34 19.5 60t56.5 26q18 0 37.5 -13t42.5 -29.5t49.5 -29.5t57.5 -13q52 0 95.5 29
t70.5 102.5t27 206.5v1330l-174 51v38h427v-38l-160 -51v-1321z" />
    <glyph glyph-name="Ograve" unicode="&#xd2;" horiz-adv-x="1533" 
d="M765 1370q147 0 270.5 -51t214 -143t140 -219t49.5 -280t-49 -280.5t-139.5 -221t-213 -144.5t-269.5 -51t-270 51t-213.5 143t-140.5 219.5t-50 279.5q0 153 49.5 280.5t140 221t213 144.5t268.5 51zM775 67q150 0 259 70.5t168 200.5t59 307q0 203 -64.5 345.5
t-178 217.5t-260.5 75q-150 0 -259 -70.5t-168 -200.5t-59 -307q0 -202 64.5 -345t178.5 -218t260 -75zM802 1484h-55l-272 232v17h218z" />
    <glyph glyph-name="Oacute" unicode="&#xd3;" horiz-adv-x="1533" 
d="M765 1370q147 0 270.5 -51t214 -143t140 -219t49.5 -280t-49 -280.5t-139.5 -221t-213 -144.5t-269.5 -51t-270 51t-213.5 143t-140.5 219.5t-50 279.5q0 153 49.5 280.5t140 221t213 144.5t268.5 51zM775 67q150 0 259 70.5t168 200.5t59 307q0 203 -64.5 345.5
t-178 217.5t-260.5 75q-150 0 -259 -70.5t-168 -200.5t-59 -307q0 -202 64.5 -345t178.5 -218t260 -75zM730 1484l109 249h218v-17l-272 -232h-55z" />
    <glyph glyph-name="Ocircumflex" unicode="&#xd4;" horiz-adv-x="1533" 
d="M765 1370q147 0 270.5 -51t214 -143t140 -219t49.5 -280t-49 -280.5t-139.5 -221t-213 -144.5t-269.5 -51t-270 51t-213.5 143t-140.5 219.5t-50 279.5q0 153 49.5 280.5t140 221t213 144.5t268.5 51zM775 67q150 0 259 70.5t168 200.5t59 307q0 203 -64.5 345.5
t-178 217.5t-260.5 75q-150 0 -259 -70.5t-168 -200.5t-59 -307q0 -202 64.5 -345t178.5 -218t260 -75zM751 1626h30l-233 -142h-71l214 249h150l214 -249h-71z" />
    <glyph glyph-name="Otilde" unicode="&#xd5;" horiz-adv-x="1533" 
d="M765 1370q147 0 270.5 -51t214 -143t140 -219t49.5 -280t-49 -280.5t-139.5 -221t-213 -144.5t-269.5 -51t-270 51t-213.5 143t-140.5 219.5t-50 279.5q0 153 49.5 280.5t140 221t213 144.5t268.5 51zM775 67q150 0 259 70.5t168 200.5t59 307q0 203 -64.5 345.5
t-178 217.5t-260.5 75q-150 0 -259 -70.5t-168 -200.5t-59 -307q0 -202 64.5 -345t178.5 -218t260 -75zM1039 1731q-19 -104 -39.5 -158.5t-48.5 -74.5t-72 -20q-36 0 -69.5 19t-64 44.5t-57.5 44.5t-51 19q-17 0 -31 -9t-26.5 -34.5t-26.5 -75.5h-62q21 104 41 158.5
t48.5 74.5t71.5 20q36 0 69 -19t63.5 -44.5t58 -44.5t51.5 -19q17 0 30.5 8.5t27 34.5t26.5 76h61z" />
    <glyph glyph-name="Odieresis" unicode="&#xd6;" horiz-adv-x="1533" 
d="M765 1370q147 0 270.5 -51t214 -143t140 -219t49.5 -280t-49 -280.5t-139.5 -221t-213 -144.5t-269.5 -51t-270 51t-213.5 143t-140.5 219.5t-50 279.5q0 153 49.5 280.5t140 221t213 144.5t268.5 51zM775 67q150 0 259 70.5t168 200.5t59 307q0 203 -64.5 345.5
t-178 217.5t-260.5 75q-150 0 -259 -70.5t-168 -200.5t-59 -307q0 -202 64.5 -345t178.5 -218t260 -75zM583 1500q-49 0 -79.5 32t-30.5 76q0 45 30.5 77t79.5 32q48 0 78.5 -32t30.5 -77q0 -44 -30.5 -76t-78.5 -32zM949 1500q-48 0 -78.5 32t-30.5 76q0 45 30.5 77
t78.5 32q49 0 79.5 -32t30.5 -77q0 -44 -30.5 -76t-79.5 -32z" />
    <glyph glyph-name="Omacron" unicode="&#x14c;" horiz-adv-x="1533" 
d="M765 1370q147 0 270.5 -51t214 -143t140 -219t49.5 -280t-49 -280.5t-139.5 -221t-213 -144.5t-269.5 -51t-270 51t-213.5 143t-140.5 219.5t-50 279.5q0 153 49.5 280.5t140 221t213 144.5t268.5 51zM775 67q150 0 259 70.5t168 200.5t59 307q0 203 -64.5 345.5
t-178 217.5t-260.5 75q-150 0 -259 -70.5t-168 -200.5t-59 -307q0 -202 64.5 -345t178.5 -218t260 -75zM512 1557v103h508v-103h-508z" />
    <glyph glyph-name="Obreve" unicode="&#x14e;" horiz-adv-x="1533" 
d="M765 1370q147 0 270.5 -51t214 -143t140 -219t49.5 -280t-49 -280.5t-139.5 -221t-213 -144.5t-269.5 -51t-270 51t-213.5 143t-140.5 219.5t-50 279.5q0 153 49.5 280.5t140 221t213 144.5t268.5 51zM775 67q150 0 259 70.5t168 200.5t59 307q0 203 -64.5 345.5
t-178 217.5t-260.5 75q-150 0 -259 -70.5t-168 -200.5t-59 -307q0 -202 64.5 -345t178.5 -218t260 -75zM766 1600q79 0 134.5 32t74.5 101h64q-24 -98 -58.5 -154t-86.5 -79.5t-128 -23.5t-128 23.5t-86.5 79.5t-58.5 154h64q19 -69 75 -101t134 -32z" />
    <glyph glyph-name="Ohungarumlaut" unicode="&#x150;" horiz-adv-x="1533" 
d="M765 1370q147 0 270.5 -51t214 -143t140 -219t49.5 -280t-49 -280.5t-139.5 -221t-213 -144.5t-269.5 -51t-270 51t-213.5 143t-140.5 219.5t-50 279.5q0 153 49.5 280.5t140 221t213 144.5t268.5 51zM775 67q150 0 259 70.5t168 200.5t59 307q0 203 -64.5 345.5
t-178 217.5t-260.5 75q-150 0 -259 -70.5t-168 -200.5t-59 -307q0 -202 64.5 -345t178.5 -218t260 -75zM856 1484l155 249h227v-14l-320 -235h-62zM615 1484l67 249h207v-14l-223 -235h-51z" />
    <glyph glyph-name="Ohorn" unicode="&#x1a0;" horiz-adv-x="1534" 
d="M775 67q150 0 259 70.5t168 200.5t59 307q0 203 -64.5 345.5t-178 217.5t-260.5 75q-150 0 -259 -70.5t-168 -200.5t-59 -307q0 -202 64.5 -345t178.5 -218t260 -75zM765 1370q57 0 111 -7t109.5 -15t113.5 -8q87 0 120 22.5t33 56.5q0 27 -6.5 44t-13 31.5t-6.5 31.5
q0 28 21.5 47.5t54.5 19.5q48 0 74.5 -31.5t26.5 -84.5q0 -103 -72 -161t-229 -47v17q105 -57 180.5 -147.5t116 -207.5t40.5 -254q0 -153 -49 -280.5t-139.5 -221t-213 -144.5t-269.5 -51t-270 51t-213.5 143t-140.5 219.5t-50 279.5q0 153 49.5 280.5t140 221t213 144.5
t268.5 51z" />
    <glyph glyph-name="uni01EA" unicode="&#x1ea;" horiz-adv-x="1533" 
d="M765 1370q147 0 270.5 -51t214 -143t140 -219t49.5 -280t-49 -280.5t-139.5 -221t-213 -144.5t-269.5 -51t-270 51t-213.5 143t-140.5 219.5t-50 279.5q0 153 49.5 280.5t140 221t213 144.5t268.5 51zM775 67q150 0 259 70.5t168 200.5t59 307q0 203 -64.5 345.5
t-178 217.5t-260.5 75q-150 0 -259 -70.5t-168 -200.5t-59 -307q0 -202 64.5 -345t178.5 -218t260 -75zM786 -125q-20 -43 -32 -77.5t-16.5 -63t-4.5 -52.5q0 -51 30.5 -78t76.5 -27q32 0 66.5 16.5t84.5 66.5l27 -26q-39 -57 -76.5 -91t-76 -50t-82.5 -16q-73 0 -120 44.5
t-47 120.5q0 31 7.5 63.5t27.5 74.5t58 99l108 162h51z" />
    <glyph glyph-name="uni020C" unicode="&#x20c;" horiz-adv-x="1533" 
d="M765 1370q147 0 270.5 -51t214 -143t140 -219t49.5 -280t-49 -280.5t-139.5 -221t-213 -144.5t-269.5 -51t-270 51t-213.5 143t-140.5 219.5t-50 279.5q0 153 49.5 280.5t140 221t213 144.5t268.5 51zM775 67q150 0 259 70.5t168 200.5t59 307q0 203 -64.5 345.5
t-178 217.5t-260.5 75q-150 0 -259 -70.5t-168 -200.5t-59 -307q0 -202 64.5 -345t178.5 -218t260 -75zM676 1484h-62l-320 235v14h227zM917 1484h-51l-223 235v14h207z" />
    <glyph glyph-name="uni020E" unicode="&#x20e;" horiz-adv-x="1533" 
d="M765 1370q147 0 270.5 -51t214 -143t140 -219t49.5 -280t-49 -280.5t-139.5 -221t-213 -144.5t-269.5 -51t-270 51t-213.5 143t-140.5 219.5t-50 279.5q0 153 49.5 280.5t140 221t213 144.5t268.5 51zM775 67q150 0 259 70.5t168 200.5t59 307q0 203 -64.5 345.5
t-178 217.5t-260.5 75q-150 0 -259 -70.5t-168 -200.5t-59 -307q0 -202 64.5 -345t178.5 -218t260 -75zM766 1617q-78 0 -134 -32t-75 -101h-64q24 98 59 154t87 79t127 23q76 0 127.5 -23t86.5 -79t59 -154h-64q-19 69 -74.5 101t-134.5 32z" />
    <glyph glyph-name="uni022A" unicode="&#x22a;" horiz-adv-x="1533" 
d="M765 1370q147 0 270.5 -51t214 -143t140 -219t49.5 -280t-49 -280.5t-139.5 -221t-213 -144.5t-269.5 -51t-270 51t-213.5 143t-140.5 219.5t-50 279.5q0 153 49.5 280.5t140 221t213 144.5t268.5 51zM775 67q150 0 259 70.5t168 200.5t59 307q0 203 -64.5 345.5
t-178 217.5t-260.5 75q-150 0 -259 -70.5t-168 -200.5t-59 -307q0 -202 64.5 -345t178.5 -218t260 -75zM583 1500q-49 0 -79.5 32t-30.5 76q0 45 30.5 77t79.5 32q48 0 78.5 -32t30.5 -77q0 -44 -30.5 -76t-78.5 -32zM949 1500q-48 0 -78.5 32t-30.5 76q0 45 30.5 77
t78.5 32q49 0 79.5 -32t30.5 -77q0 -44 -30.5 -76t-79.5 -32zM512 1896v103h508v-103h-508z" />
    <glyph glyph-name="uni022C" unicode="&#x22c;" horiz-adv-x="1533" 
d="M765 1370q147 0 270.5 -51t214 -143t140 -219t49.5 -280t-49 -280.5t-139.5 -221t-213 -144.5t-269.5 -51t-270 51t-213.5 143t-140.5 219.5t-50 279.5q0 153 49.5 280.5t140 221t213 144.5t268.5 51zM775 67q150 0 259 70.5t168 200.5t59 307q0 203 -64.5 345.5
t-178 217.5t-260.5 75q-150 0 -259 -70.5t-168 -200.5t-59 -307q0 -202 64.5 -345t178.5 -218t260 -75zM1039 1731q-19 -104 -39.5 -158.5t-48.5 -74.5t-72 -20q-36 0 -69.5 19t-64 44.5t-57.5 44.5t-51 19q-17 0 -31 -9t-26.5 -34.5t-26.5 -75.5h-62q21 104 41 158.5
t48.5 74.5t71.5 20q36 0 69 -19t63.5 -44.5t58 -44.5t51.5 -19q17 0 30.5 8.5t27 34.5t26.5 76h61zM512 1896v103h508v-103h-508z" />
    <glyph glyph-name="uni0230" unicode="&#x230;" horiz-adv-x="1533" 
d="M765 1370q147 0 270.5 -51t214 -143t140 -219t49.5 -280t-49 -280.5t-139.5 -221t-213 -144.5t-269.5 -51t-270 51t-213.5 143t-140.5 219.5t-50 279.5q0 153 49.5 280.5t140 221t213 144.5t268.5 51zM775 67q150 0 259 70.5t168 200.5t59 307q0 203 -64.5 345.5
t-178 217.5t-260.5 75q-150 0 -259 -70.5t-168 -200.5t-59 -307q0 -202 64.5 -345t178.5 -218t260 -75zM766 1492q-52 0 -84.5 34t-32.5 82q0 50 32.5 83t84.5 33q53 0 85 -33t32 -83q0 -48 -32 -82t-85 -34zM512 1896v103h508v-103h-508z" />
    <glyph glyph-name="uni1ECC" unicode="&#x1ecc;" horiz-adv-x="1533" 
d="M765 1370q147 0 270.5 -51t214 -143t140 -219t49.5 -280t-49 -280.5t-139.5 -221t-213 -144.5t-269.5 -51t-270 51t-213.5 143t-140.5 219.5t-50 279.5q0 153 49.5 280.5t140 221t213 144.5t268.5 51zM775 67q150 0 259 70.5t168 200.5t59 307q0 203 -64.5 345.5
t-178 217.5t-260.5 75q-150 0 -259 -70.5t-168 -200.5t-59 -307q0 -202 64.5 -345t178.5 -218t260 -75zM766 -367q-52 0 -84.5 34t-32.5 82q0 49 32.5 82.5t84.5 33.5q53 0 85 -33.5t32 -82.5q0 -48 -32 -82t-85 -34z" />
    <glyph glyph-name="uni1ECE" unicode="&#x1ece;" horiz-adv-x="1533" 
d="M765 1370q147 0 270.5 -51t214 -143t140 -219t49.5 -280t-49 -280.5t-139.5 -221t-213 -144.5t-269.5 -51t-270 51t-213.5 143t-140.5 219.5t-50 279.5q0 153 49.5 280.5t140 221t213 144.5t268.5 51zM775 67q150 0 259 70.5t168 200.5t59 307q0 203 -64.5 345.5
t-178 217.5t-260.5 75q-150 0 -259 -70.5t-168 -200.5t-59 -307q0 -202 64.5 -345t178.5 -218t260 -75zM617 1673l25 134q86 -7 143 -23t90.5 -38.5t48 -51t14.5 -60.5q0 -41 -17.5 -76t-69 -62t-153.5 -43l-10 54q52 10 81 21.5t40.5 27.5t11.5 37t-16 36.5t-59.5 26.5
t-128.5 17z" />
    <glyph glyph-name="uni1ED0" unicode="&#x1ed0;" horiz-adv-x="1533" 
d="M765 1370q147 0 270.5 -51t214 -143t140 -219t49.5 -280t-49 -280.5t-139.5 -221t-213 -144.5t-269.5 -51t-270 51t-213.5 143t-140.5 219.5t-50 279.5q0 153 49.5 280.5t140 221t213 144.5t268.5 51zM775 67q150 0 259 70.5t168 200.5t59 307q0 203 -64.5 345.5
t-178 217.5t-260.5 75q-150 0 -259 -70.5t-168 -200.5t-59 -307q0 -202 64.5 -345t178.5 -218t260 -75zM998 1639l96 221h222v-13l-263 -208h-55zM751 1626h30l-233 -142h-71l214 249h150l214 -249h-71z" />
    <glyph glyph-name="uni1ED2" unicode="&#x1ed2;" horiz-adv-x="1533" 
d="M765 1370q147 0 270.5 -51t214 -143t140 -219t49.5 -280t-49 -280.5t-139.5 -221t-213 -144.5t-269.5 -51t-270 51t-213.5 143t-140.5 219.5t-50 279.5q0 153 49.5 280.5t140 221t213 144.5t268.5 51zM775 67q150 0 259 70.5t168 200.5t59 307q0 203 -64.5 345.5
t-178 217.5t-260.5 75q-150 0 -259 -70.5t-168 -200.5t-59 -307q0 -202 64.5 -345t178.5 -218t260 -75zM534 1639h-55l-263 208v13h222zM781 1626l-233 -142h-71l214 249h150l214 -249h-71l-233 142h30z" />
    <glyph glyph-name="uni1ED4" unicode="&#x1ed4;" horiz-adv-x="1533" 
d="M765 1370q147 0 270.5 -51t214 -143t140 -219t49.5 -280t-49 -280.5t-139.5 -221t-213 -144.5t-269.5 -51t-270 51t-213.5 143t-140.5 219.5t-50 279.5q0 153 49.5 280.5t140 221t213 144.5t268.5 51zM775 67q150 0 259 70.5t168 200.5t59 307q0 203 -64.5 345.5
t-178 217.5t-260.5 75q-150 0 -259 -70.5t-168 -200.5t-59 -307q0 -202 64.5 -345t178.5 -218t260 -75zM781 1626l-233 -142h-71l214 249h150l214 -249h-71l-233 142h30zM1005 1683q75 14 98 32t23 43q0 18 -14.5 32t-55.5 24.5t-119 16.5l24 120q81 -6 134.5 -20.5
t84.5 -35t44.5 -46t13.5 -54.5q0 -40 -19 -71.5t-67.5 -54t-138.5 -35.5z" />
    <glyph glyph-name="uni1ED6" unicode="&#x1ed6;" horiz-adv-x="1533" 
d="M765 1370q147 0 270.5 -51t214 -143t140 -219t49.5 -280t-49 -280.5t-139.5 -221t-213 -144.5t-269.5 -51t-270 51t-213.5 143t-140.5 219.5t-50 279.5q0 153 49.5 280.5t140 221t213 144.5t268.5 51zM775 67q150 0 259 70.5t168 200.5t59 307q0 203 -64.5 345.5
t-178 217.5t-260.5 75q-150 0 -259 -70.5t-168 -200.5t-59 -307q0 -202 64.5 -345t178.5 -218t260 -75zM782 1546l-221 -108h-73l202 202h152l202 -202h-73l-222 108h33zM568 1684h-56q28 66 51.5 106t51.5 58t67 18q24 0 49 -11t50.5 -24.5t49.5 -24.5t46 -11q31 0 50 14.5
t37 54.5h56q-28 -66 -51.5 -106t-51 -58t-67.5 -18q-25 0 -50.5 10.5t-50.5 24.5t-48.5 24.5t-45.5 10.5q-31 0 -50 -14.5t-37 -53.5z" />
    <glyph glyph-name="uni1ED8" unicode="&#x1ed8;" horiz-adv-x="1533" 
d="M765 1370q147 0 270.5 -51t214 -143t140 -219t49.5 -280t-49 -280.5t-139.5 -221t-213 -144.5t-269.5 -51t-270 51t-213.5 143t-140.5 219.5t-50 279.5q0 153 49.5 280.5t140 221t213 144.5t268.5 51zM775 67q150 0 259 70.5t168 200.5t59 307q0 203 -64.5 345.5
t-178 217.5t-260.5 75q-150 0 -259 -70.5t-168 -200.5t-59 -307q0 -202 64.5 -345t178.5 -218t260 -75zM751 1626h30l-233 -142h-71l214 249h150l214 -249h-71zM766 -367q-52 0 -84.5 34t-32.5 82q0 49 32.5 82.5t84.5 33.5q53 0 85 -33.5t32 -82.5q0 -48 -32 -82t-85 -34z
" />
    <glyph glyph-name="uni1EDA" unicode="&#x1eda;" horiz-adv-x="1534" 
d="M775 67q150 0 259 70.5t168 200.5t59 307q0 203 -64.5 345.5t-178 217.5t-260.5 75q-150 0 -259 -70.5t-168 -200.5t-59 -307q0 -202 64.5 -345t178.5 -218t260 -75zM765 1370q57 0 111 -7t109.5 -15t113.5 -8q87 0 120 22.5t33 56.5q0 27 -6.5 44t-13 31.5t-6.5 31.5
q0 28 21.5 47.5t54.5 19.5q48 0 74.5 -31.5t26.5 -84.5q0 -103 -72 -161t-229 -47v17q105 -57 180.5 -147.5t116 -207.5t40.5 -254q0 -153 -49 -280.5t-139.5 -221t-213 -144.5t-269.5 -51t-270 51t-213.5 143t-140.5 219.5t-50 279.5q0 153 49.5 280.5t140 221t213 144.5
t268.5 51zM730 1484l109 249h218v-17l-272 -232h-55z" />
    <glyph glyph-name="uni1EDC" unicode="&#x1edc;" horiz-adv-x="1534" 
d="M775 67q150 0 259 70.5t168 200.5t59 307q0 203 -64.5 345.5t-178 217.5t-260.5 75q-150 0 -259 -70.5t-168 -200.5t-59 -307q0 -202 64.5 -345t178.5 -218t260 -75zM765 1370q57 0 111 -7t109.5 -15t113.5 -8q87 0 120 22.5t33 56.5q0 27 -6.5 44t-13 31.5t-6.5 31.5
q0 28 21.5 47.5t54.5 19.5q48 0 74.5 -31.5t26.5 -84.5q0 -103 -72 -161t-229 -47v17q105 -57 180.5 -147.5t116 -207.5t40.5 -254q0 -153 -49 -280.5t-139.5 -221t-213 -144.5t-269.5 -51t-270 51t-213.5 143t-140.5 219.5t-50 279.5q0 153 49.5 280.5t140 221t213 144.5
t268.5 51zM802 1484h-55l-272 232v17h218z" />
    <glyph glyph-name="uni1EDE" unicode="&#x1ede;" horiz-adv-x="1534" 
d="M775 67q150 0 259 70.5t168 200.5t59 307q0 203 -64.5 345.5t-178 217.5t-260.5 75q-150 0 -259 -70.5t-168 -200.5t-59 -307q0 -202 64.5 -345t178.5 -218t260 -75zM765 1370q57 0 111 -7t109.5 -15t113.5 -8q87 0 120 22.5t33 56.5q0 27 -6.5 44t-13 31.5t-6.5 31.5
q0 28 21.5 47.5t54.5 19.5q48 0 74.5 -31.5t26.5 -84.5q0 -103 -72 -161t-229 -47v17q105 -57 180.5 -147.5t116 -207.5t40.5 -254q0 -153 -49 -280.5t-139.5 -221t-213 -144.5t-269.5 -51t-270 51t-213.5 143t-140.5 219.5t-50 279.5q0 153 49.5 280.5t140 221t213 144.5
t268.5 51zM617 1673l25 134q86 -7 143 -23t90.5 -38.5t48 -51t14.5 -60.5q0 -41 -17.5 -76t-69 -62t-153.5 -43l-10 54q52 10 81 21.5t40.5 27.5t11.5 37t-16 36.5t-59.5 26.5t-128.5 17z" />
    <glyph glyph-name="uni1EE0" unicode="&#x1ee0;" horiz-adv-x="1534" 
d="M775 67q150 0 259 70.5t168 200.5t59 307q0 203 -64.5 345.5t-178 217.5t-260.5 75q-150 0 -259 -70.5t-168 -200.5t-59 -307q0 -202 64.5 -345t178.5 -218t260 -75zM765 1370q57 0 111 -7t109.5 -15t113.5 -8q87 0 120 22.5t33 56.5q0 27 -6.5 44t-13 31.5t-6.5 31.5
q0 28 21.5 47.5t54.5 19.5q48 0 74.5 -31.5t26.5 -84.5q0 -103 -72 -161t-229 -47v17q105 -57 180.5 -147.5t116 -207.5t40.5 -254q0 -153 -49 -280.5t-139.5 -221t-213 -144.5t-269.5 -51t-270 51t-213.5 143t-140.5 219.5t-50 279.5q0 153 49.5 280.5t140 221t213 144.5
t268.5 51zM1039 1731q-19 -104 -39.5 -158.5t-48.5 -74.5t-72 -20q-36 0 -69.5 19t-64 44.5t-57.5 44.5t-51 19q-17 0 -31 -9t-26.5 -34.5t-26.5 -75.5h-62q21 104 41 158.5t48.5 74.5t71.5 20q36 0 69 -19t63.5 -44.5t58 -44.5t51.5 -19q17 0 30.5 8.5t27 34.5t26.5 76h61z
" />
    <glyph glyph-name="uni1EE2" unicode="&#x1ee2;" horiz-adv-x="1534" 
d="M775 67q150 0 259 70.5t168 200.5t59 307q0 203 -64.5 345.5t-178 217.5t-260.5 75q-150 0 -259 -70.5t-168 -200.5t-59 -307q0 -202 64.5 -345t178.5 -218t260 -75zM765 1370q57 0 111 -7t109.5 -15t113.5 -8q87 0 120 22.5t33 56.5q0 27 -6.5 44t-13 31.5t-6.5 31.5
q0 28 21.5 47.5t54.5 19.5q48 0 74.5 -31.5t26.5 -84.5q0 -103 -72 -161t-229 -47v17q105 -57 180.5 -147.5t116 -207.5t40.5 -254q0 -153 -49 -280.5t-139.5 -221t-213 -144.5t-269.5 -51t-270 51t-213.5 143t-140.5 219.5t-50 279.5q0 153 49.5 280.5t140 221t213 144.5
t268.5 51zM766 -367q-52 0 -84.5 34t-32.5 82q0 49 32.5 82.5t84.5 33.5q53 0 85 -33.5t32 -82.5q0 -48 -32 -82t-85 -34z" />
    <glyph glyph-name="Oslash" unicode="&#xd8;" horiz-adv-x="1562" 
d="M367 270l788 889l32 38l139 153h128l-203 -225l-48 -45l-788 -889l-32 -38l-139 -153h-128l202 225zM780 1370q146 0 269.5 -51t214 -143t140.5 -219t50 -280t-49.5 -280.5t-140 -221t-213 -144.5t-268.5 -51q-147 0 -270.5 51t-214 143t-140.5 219.5t-50 279.5
q0 153 49.5 280.5t140 221t213.5 144.5t269 51zM789 67q151 0 259.5 70.5t167.5 200.5t59 307q0 203 -64.5 345.5t-178 217.5t-260.5 75q-150 0 -259 -70.5t-168 -200.5t-59 -307q0 -202 64.5 -345t178.5 -218t260 -75z" />
    <glyph glyph-name="Oslashacute" unicode="&#x1fe;" horiz-adv-x="1562" 
d="M367 270l788 889l32 38l139 153h128l-203 -225l-48 -45l-788 -889l-32 -38l-139 -153h-128l202 225zM780 1370q146 0 269.5 -51t214 -143t140.5 -219t50 -280t-49.5 -280.5t-140 -221t-213 -144.5t-268.5 -51q-147 0 -270.5 51t-214 143t-140.5 219.5t-50 279.5
q0 153 49.5 280.5t140 221t213.5 144.5t269 51zM789 67q151 0 259.5 70.5t167.5 200.5t59 307q0 203 -64.5 345.5t-178 217.5t-260.5 75q-150 0 -259 -70.5t-168 -200.5t-59 -307q0 -202 64.5 -345t178.5 -218t260 -75zM744 1484l109 249h218v-17l-272 -232h-55z" />
    <glyph glyph-name="OE" unicode="&#x152;" horiz-adv-x="2071" 
d="M1711 973l-4 -265l4 -265h-68l-32 219l-485 3v86l485 3l32 219h68zM1066 1350h165v-1350h-165v1350zM888 0q-257 0 -434 74t-268 218.5t-91 357.5q0 171 61.5 301.5t170 219.5t251.5 134t307 45h890l115 50h15l65 -430l-44 -9l-169 320l65 -21h-907q-186 0 -331 -62.5
t-228 -196.5t-83 -347q0 -193 83 -317.5t232.5 -185.5t349.5 -61h894l-57 -26l187 319l39 -10l-76 -431h-15l-116 58h-906z" />
    <glyph glyph-name="Racute" unicode="&#x154;" horiz-adv-x="1257" 
d="M618 730q127 0 210 68t83 199q0 83 -37.5 142t-124 90.5t-232.5 31.5h-250l3 89h344q170 0 273.5 -45.5t150.5 -122t47 -170.5q0 -87 -39.5 -156.5t-116.5 -115.5t-190 -62v7q69 -4 113 -25t75.5 -66.5t60.5 -123.5l103 -271q27 -69 50 -100t52.5 -38t72.5 -7v-54
q-91 -7 -147.5 -5t-90 19t-56 52.5t-45.5 97.5l-103 273q-29 79 -53.5 123t-58 62t-89.5 18h-353l-3 90h351zM409 1350v-1261l160 -51v-38h-486v38l160 51v1172l-160 51v38h326zM583 1484l109 249h218v-17l-272 -232h-55z" />
    <glyph glyph-name="uni0156" unicode="&#x156;" horiz-adv-x="1257" 
d="M618 730q127 0 210 68t83 199q0 83 -37.5 142t-124 90.5t-232.5 31.5h-250l3 89h344q170 0 273.5 -45.5t150.5 -122t47 -170.5q0 -87 -39.5 -156.5t-116.5 -115.5t-190 -62v7q69 -4 113 -25t75.5 -66.5t60.5 -123.5l103 -271q27 -69 50 -100t52.5 -38t72.5 -7v-54
q-91 -7 -147.5 -5t-90 19t-56 52.5t-45.5 97.5l-103 273q-29 79 -53.5 123t-58 62t-89.5 18h-353l-3 90h351zM409 1350v-1261l160 -51v-38h-486v38l160 51v1172l-160 51v38h326zM586 -456q80 21 109.5 44.5t29.5 59.5q0 29 -20 47.5t-46.5 31t-46.5 24.5t-20 27q0 51 34 84
t89 33t93.5 -39.5t38.5 -113.5q0 -60 -20.5 -111t-72.5 -90t-149 -60z" />
    <glyph glyph-name="Rcaron" unicode="&#x158;" horiz-adv-x="1257" 
d="M618 730q127 0 210 68t83 199q0 83 -37.5 142t-124 90.5t-232.5 31.5h-250l3 89h344q170 0 273.5 -45.5t150.5 -122t47 -170.5q0 -87 -39.5 -156.5t-116.5 -115.5t-190 -62v7q69 -4 113 -25t75.5 -66.5t60.5 -123.5l103 -271q27 -69 50 -100t52.5 -38t72.5 -7v-54
q-91 -7 -147.5 -5t-90 19t-56 52.5t-45.5 97.5l-103 273q-29 79 -53.5 123t-58 62t-89.5 18h-353l-3 90h351zM409 1350v-1261l160 -51v-38h-486v38l160 51v1172l-160 51v38h326zM634 1591h-30l233 142h71l-214 -249h-150l-214 249h71z" />
    <glyph glyph-name="uni0210" unicode="&#x210;" horiz-adv-x="1257" 
d="M618 730q127 0 210 68t83 199q0 83 -37.5 142t-124 90.5t-232.5 31.5h-250l3 89h344q170 0 273.5 -45.5t150.5 -122t47 -170.5q0 -87 -39.5 -156.5t-116.5 -115.5t-190 -62v7q69 -4 113 -25t75.5 -66.5t60.5 -123.5l103 -271q27 -69 50 -100t52.5 -38t72.5 -7v-54
q-91 -7 -147.5 -5t-90 19t-56 52.5t-45.5 97.5l-103 273q-29 79 -53.5 123t-58 62t-89.5 18h-353l-3 90h351zM409 1350v-1261l160 -51v-38h-486v38l160 51v1172l-160 51v38h326zM529 1484h-62l-320 235v14h227zM770 1484h-51l-223 235v14h207z" />
    <glyph glyph-name="uni0212" unicode="&#x212;" horiz-adv-x="1257" 
d="M618 730q127 0 210 68t83 199q0 83 -37.5 142t-124 90.5t-232.5 31.5h-250l3 89h344q170 0 273.5 -45.5t150.5 -122t47 -170.5q0 -87 -39.5 -156.5t-116.5 -115.5t-190 -62v7q69 -4 113 -25t75.5 -66.5t60.5 -123.5l103 -271q27 -69 50 -100t52.5 -38t72.5 -7v-54
q-91 -7 -147.5 -5t-90 19t-56 52.5t-45.5 97.5l-103 273q-29 79 -53.5 123t-58 62t-89.5 18h-353l-3 90h351zM409 1350v-1261l160 -51v-38h-486v38l160 51v1172l-160 51v38h326zM619 1617q-78 0 -134 -32t-75 -101h-64q24 98 59 154t87 79t127 23q76 0 127.5 -23t86.5 -79
t59 -154h-64q-19 69 -74.5 101t-134.5 32z" />
    <glyph glyph-name="Sacute" unicode="&#x15a;" horiz-adv-x="1073" 
d="M880 1287l-143 37l120 84h17l62 -444l-42 -7l-174 310l37 -48q-53 39 -109 56.5t-122 17.5q-129 0 -199 -61t-70 -162q0 -68 27.5 -114t76 -78t110 -56t129.5 -48q67 -24 133.5 -53t121.5 -71.5t88 -106.5t33 -158q0 -129 -61.5 -219.5t-169 -138t-247.5 -47.5
q-97 0 -172.5 13.5t-156.5 46.5l-87 350h55l238 -351l-165 105q79 -43 141 -63.5t132 -20.5q111 0 190.5 29.5t121.5 89t42 148.5q0 78 -34.5 130t-92 86t-125 59t-134.5 50q-66 25 -124 54.5t-102 69.5t-69 97t-25 136q0 111 52 191.5t148 125t227 44.5q90 0 166.5 -20
t155.5 -63zM493 1484l109 249h218v-17l-272 -232h-55z" />
    <glyph glyph-name="Scircumflex" unicode="&#x15c;" horiz-adv-x="1073" 
d="M880 1287l-143 37l120 84h17l62 -444l-42 -7l-174 310l37 -48q-53 39 -109 56.5t-122 17.5q-129 0 -199 -61t-70 -162q0 -68 27.5 -114t76 -78t110 -56t129.5 -48q67 -24 133.5 -53t121.5 -71.5t88 -106.5t33 -158q0 -129 -61.5 -219.5t-169 -138t-247.5 -47.5
q-97 0 -172.5 13.5t-156.5 46.5l-87 350h55l238 -351l-165 105q79 -43 141 -63.5t132 -20.5q111 0 190.5 29.5t121.5 89t42 148.5q0 78 -34.5 130t-92 86t-125 59t-134.5 50q-66 25 -124 54.5t-102 69.5t-69 97t-25 136q0 111 52 191.5t148 125t227 44.5q90 0 166.5 -20
t155.5 -63zM514 1626h30l-233 -142h-71l214 249h150l214 -249h-71z" />
    <glyph glyph-name="Scedilla" unicode="&#x15e;" horiz-adv-x="1073" 
d="M880 1287l-143 37l120 84h17l62 -444l-42 -7l-174 310l37 -48q-53 39 -109 56.5t-122 17.5q-129 0 -199 -61t-70 -162q0 -68 27.5 -114t76 -78t110 -56t129.5 -48q67 -24 133.5 -53t121.5 -71.5t88 -106.5t33 -158q0 -129 -61.5 -219.5t-169 -138t-247.5 -47.5
q-97 0 -172.5 13.5t-156.5 46.5l-87 350h55l238 -351l-165 105q79 -43 141 -63.5t132 -20.5q111 0 190.5 29.5t121.5 89t42 148.5q0 78 -34.5 130t-92 86t-125 59t-134.5 50q-66 25 -124 54.5t-102 69.5t-69 97t-25 136q0 111 52 191.5t148 125t227 44.5q90 0 166.5 -20
t155.5 -63zM440 -523q-73 0 -104 25.5t-31 57.5q0 22 14.5 35.5t37.5 13.5q27 0 44.5 -15.5t37.5 -32t54 -16.5q46 0 75.5 26.5t29.5 71.5q0 35 -21.5 60.5t-72 42.5t-136.5 28v17l198 256h73l-191 -262l1 92q93 -16 146 -43.5t75 -63t22 -76.5q0 -64 -36.5 -113t-94 -76.5
t-121.5 -27.5z" />
    <glyph glyph-name="Scaron" unicode="&#x160;" horiz-adv-x="1073" 
d="M880 1287l-143 37l120 84h17l62 -444l-42 -7l-174 310l37 -48q-53 39 -109 56.5t-122 17.5q-129 0 -199 -61t-70 -162q0 -68 27.5 -114t76 -78t110 -56t129.5 -48q67 -24 133.5 -53t121.5 -71.5t88 -106.5t33 -158q0 -129 -61.5 -219.5t-169 -138t-247.5 -47.5
q-97 0 -172.5 13.5t-156.5 46.5l-87 350h55l238 -351l-165 105q79 -43 141 -63.5t132 -20.5q111 0 190.5 29.5t121.5 89t42 148.5q0 78 -34.5 130t-92 86t-125 59t-134.5 50q-66 25 -124 54.5t-102 69.5t-69 97t-25 136q0 111 52 191.5t148 125t227 44.5q90 0 166.5 -20
t155.5 -63zM544 1591h-30l233 142h71l-214 -249h-150l-214 249h71z" />
    <glyph glyph-name="uni0218" unicode="&#x218;" horiz-adv-x="1073" 
d="M880 1287l-143 37l120 84h17l62 -444l-42 -7l-174 310l37 -48q-53 39 -109 56.5t-122 17.5q-129 0 -199 -61t-70 -162q0 -68 27.5 -114t76 -78t110 -56t129.5 -48q67 -24 133.5 -53t121.5 -71.5t88 -106.5t33 -158q0 -129 -61.5 -219.5t-169 -138t-247.5 -47.5
q-97 0 -172.5 13.5t-156.5 46.5l-87 350h55l238 -351l-165 105q79 -43 141 -63.5t132 -20.5q111 0 190.5 29.5t121.5 89t42 148.5q0 78 -34.5 130t-92 86t-125 59t-134.5 50q-66 25 -124 54.5t-102 69.5t-69 97t-25 136q0 111 52 191.5t148 125t227 44.5q90 0 166.5 -20
t155.5 -63zM412 -456q80 21 109.5 44.5t29.5 59.5q0 29 -20 47.5t-46.5 31t-46.5 24.5t-20 27q0 51 34 84t89 33t93.5 -39.5t38.5 -113.5q0 -60 -20.5 -111t-72.5 -90t-149 -60z" />
    <glyph glyph-name="uni1E9E" unicode="&#x1e9e;" horiz-adv-x="2132" 
d="M880 1287l-143 37l120 84h17l62 -444l-42 -7l-174 310l37 -48q-53 39 -109 56.5t-122 17.5q-129 0 -199 -61t-70 -162q0 -68 27.5 -114t76 -78t110 -56t129.5 -48q67 -24 133.5 -53t121.5 -71.5t88 -106.5t33 -158q0 -129 -61.5 -219.5t-169 -138t-247.5 -47.5
q-97 0 -172.5 13.5t-156.5 46.5l-87 350h55l238 -351l-165 105q79 -43 141 -63.5t132 -20.5q111 0 190.5 29.5t121.5 89t42 148.5q0 78 -34.5 130t-92 86t-125 59t-134.5 50q-66 25 -124 54.5t-102 69.5t-69 97t-25 136q0 111 52 191.5t148 125t227 44.5q90 0 166.5 -20
t155.5 -63zM1939 1287l-143 37l120 84h17l62 -444l-42 -7l-174 310l37 -48q-53 39 -109 56.5t-122 17.5q-129 0 -199 -61t-70 -162q0 -68 27.5 -114t76 -78t110 -56t129.5 -48q67 -24 133.5 -53t121.5 -71.5t88 -106.5t33 -158q0 -129 -61.5 -219.5t-169 -138t-247.5 -47.5
q-97 0 -172.5 13.5t-156.5 46.5l-87 350h55l238 -351l-165 105q79 -43 141 -63.5t132 -20.5q111 0 190.5 29.5t121.5 89t42 148.5q0 78 -34.5 130t-92 86t-125 59t-134.5 50q-66 25 -124 54.5t-102 69.5t-69 97t-25 136q0 111 52 191.5t148 125t227 44.5q90 0 166.5 -20
t155.5 -63z" />
    <glyph glyph-name="uni0162" unicode="&#x162;" horiz-adv-x="1314" 
d="M574 1292h166v-1203l160 -51v-38h-486v38l160 51v1203zM1179 1260h-1044l94 19l-142 -299l-44 9l42 430h18l142 -85l-87 16h998l-87 -16l142 85h18l42 -430l-44 -9l-142 299zM559 -523q-72 0 -103 25.5t-31 57.5q0 22 14.5 35.5t37.5 13.5q26 0 43.5 -15.5t37.5 -32
t54 -16.5q47 0 76 26.5t29 71.5q0 35 -21.5 60.5t-72 42.5t-136.5 28v17l198 256h73l-190 -262v92q93 -16 146 -43.5t75 -63t22 -76.5q0 -64 -36.5 -113t-94 -76.5t-121.5 -27.5z" />
    <glyph glyph-name="Tcaron" unicode="&#x164;" horiz-adv-x="1314" 
d="M574 1292h166v-1203l160 -51v-38h-486v38l160 51v1203zM1179 1260h-1044l94 19l-142 -299l-44 9l42 430h18l142 -85l-87 16h998l-87 -16l142 85h18l42 -430l-44 -9l-142 299zM672 1591h-30l233 142h71l-214 -249h-150l-214 249h71z" />
    <glyph glyph-name="Tbar" unicode="&#x166;" horiz-adv-x="1318" 
d="M286 655v91h746v-91h-746zM576 1292h165v-1203l161 -51v-38h-486v38l160 51v1203zM1181 1260h-1045l95 19l-142 -299l-44 9l42 430h18l142 -85l-87 16h998l-87 -16l141 85h18l43 -430l-44 -9l-142 299z" />
    <glyph glyph-name="uni021A" unicode="&#x21a;" horiz-adv-x="1314" 
d="M574 1292h166v-1203l160 -51v-38h-486v38l160 51v1203zM1179 1260h-1044l94 19l-142 -299l-44 9l42 430h18l142 -85l-87 16h998l-87 -16l142 85h18l42 -430l-44 -9l-142 299zM531 -456q80 21 109.5 44.5t29.5 59.5q0 29 -20 47.5t-46.5 31t-46.5 24.5t-20 27q0 51 34 84
t89 33t93.5 -39.5t38.5 -113.5q0 -60 -20.5 -111t-72.5 -90t-149 -60z" />
    <glyph glyph-name="Ugrave" unicode="&#xd9;" horiz-adv-x="1507" 
d="M1200 497v764l-163 51v38h416v-38l-160 -51v-748q0 -170 -62 -289t-180.5 -181.5t-288.5 -62.5q-176 0 -299 64t-187 190.5t-64 312.5v714l-160 51v38h485v-38l-160 -51v-724q0 -146 46 -243t137.5 -144.5t229.5 -47.5q133 0 224 46t138.5 134t47.5 215zM819 1484h-55
l-272 232v17h218z" />
    <glyph glyph-name="Uacute" unicode="&#xda;" horiz-adv-x="1507" 
d="M1200 497v764l-163 51v38h416v-38l-160 -51v-748q0 -170 -62 -289t-180.5 -181.5t-288.5 -62.5q-176 0 -299 64t-187 190.5t-64 312.5v714l-160 51v38h485v-38l-160 -51v-724q0 -146 46 -243t137.5 -144.5t229.5 -47.5q133 0 224 46t138.5 134t47.5 215zM747 1484
l109 249h218v-17l-272 -232h-55z" />
    <glyph glyph-name="Ucircumflex" unicode="&#xdb;" horiz-adv-x="1507" 
d="M1200 497v764l-163 51v38h416v-38l-160 -51v-748q0 -170 -62 -289t-180.5 -181.5t-288.5 -62.5q-176 0 -299 64t-187 190.5t-64 312.5v714l-160 51v38h485v-38l-160 -51v-724q0 -146 46 -243t137.5 -144.5t229.5 -47.5q133 0 224 46t138.5 134t47.5 215zM768 1626h30
l-233 -142h-71l214 249h150l214 -249h-71z" />
    <glyph glyph-name="Udieresis" unicode="&#xdc;" horiz-adv-x="1507" 
d="M1200 497v764l-163 51v38h416v-38l-160 -51v-748q0 -170 -62 -289t-180.5 -181.5t-288.5 -62.5q-176 0 -299 64t-187 190.5t-64 312.5v714l-160 51v38h485v-38l-160 -51v-724q0 -146 46 -243t137.5 -144.5t229.5 -47.5q133 0 224 46t138.5 134t47.5 215zM600 1500
q-49 0 -79.5 32t-30.5 76q0 45 30.5 77t79.5 32q48 0 78.5 -32t30.5 -77q0 -44 -30.5 -76t-78.5 -32zM966 1500q-48 0 -78.5 32t-30.5 76q0 45 30.5 77t78.5 32q49 0 79.5 -32t30.5 -77q0 -44 -30.5 -76t-79.5 -32z" />
    <glyph glyph-name="Utilde" unicode="&#x168;" horiz-adv-x="1507" 
d="M1200 497v764l-163 51v38h416v-38l-160 -51v-748q0 -170 -62 -289t-180.5 -181.5t-288.5 -62.5q-176 0 -299 64t-187 190.5t-64 312.5v714l-160 51v38h485v-38l-160 -51v-724q0 -146 46 -243t137.5 -144.5t229.5 -47.5q133 0 224 46t138.5 134t47.5 215zM1056 1731
q-19 -104 -39.5 -158.5t-48.5 -74.5t-72 -20q-36 0 -69.5 19t-64 44.5t-57.5 44.5t-51 19q-17 0 -31 -9t-26.5 -34.5t-26.5 -75.5h-62q21 104 41 158.5t48.5 74.5t71.5 20q36 0 69 -19t63.5 -44.5t58 -44.5t51.5 -19q17 0 30.5 8.5t27 34.5t26.5 76h61z" />
    <glyph glyph-name="Umacron" unicode="&#x16a;" horiz-adv-x="1507" 
d="M1200 497v764l-163 51v38h416v-38l-160 -51v-748q0 -170 -62 -289t-180.5 -181.5t-288.5 -62.5q-176 0 -299 64t-187 190.5t-64 312.5v714l-160 51v38h485v-38l-160 -51v-724q0 -146 46 -243t137.5 -144.5t229.5 -47.5q133 0 224 46t138.5 134t47.5 215zM529 1557v103
h508v-103h-508z" />
    <glyph glyph-name="Ubreve" unicode="&#x16c;" horiz-adv-x="1507" 
d="M1200 497v764l-163 51v38h416v-38l-160 -51v-748q0 -170 -62 -289t-180.5 -181.5t-288.5 -62.5q-176 0 -299 64t-187 190.5t-64 312.5v714l-160 51v38h485v-38l-160 -51v-724q0 -146 46 -243t137.5 -144.5t229.5 -47.5q133 0 224 46t138.5 134t47.5 215zM783 1600
q79 0 134.5 32t74.5 101h64q-24 -98 -58.5 -154t-86.5 -79.5t-128 -23.5t-128 23.5t-86.5 79.5t-58.5 154h64q19 -69 75 -101t134 -32z" />
    <glyph glyph-name="Uring" unicode="&#x16e;" horiz-adv-x="1507" 
d="M1200 497v764l-163 51v38h416v-38l-160 -51v-748q0 -170 -62 -289t-180.5 -181.5t-288.5 -62.5q-176 0 -299 64t-187 190.5t-64 312.5v714l-160 51v38h485v-38l-160 -51v-724q0 -146 46 -243t137.5 -144.5t229.5 -47.5q133 0 224 46t138.5 134t47.5 215zM783 1784
q77 0 127.5 -49.5t50.5 -126.5q0 -76 -50.5 -126t-127.5 -50q-76 0 -127 50t-51 126q0 77 51 126.5t127 49.5zM783 1491q50 0 82.5 33t32.5 84q0 52 -32.5 84.5t-82.5 32.5t-82.5 -32.5t-32.5 -84.5q0 -51 32.5 -84t82.5 -33z" />
    <glyph glyph-name="Uhungarumlaut" unicode="&#x170;" horiz-adv-x="1507" 
d="M1200 497v764l-163 51v38h416v-38l-160 -51v-748q0 -170 -62 -289t-180.5 -181.5t-288.5 -62.5q-176 0 -299 64t-187 190.5t-64 312.5v714l-160 51v38h485v-38l-160 -51v-724q0 -146 46 -243t137.5 -144.5t229.5 -47.5q133 0 224 46t138.5 134t47.5 215zM873 1484
l155 249h227v-14l-320 -235h-62zM632 1484l67 249h207v-14l-223 -235h-51z" />
    <glyph glyph-name="Uogonek" unicode="&#x172;" horiz-adv-x="1507" 
d="M1200 497v764l-163 51v38h416v-38l-160 -51v-748q0 -169 -62 -288.5t-180.5 -182t-288.5 -62.5q-176 0 -299 64t-187 190.5t-64 312.5v714l-160 51v38h485v-38l-160 -51v-724q0 -146 46 -243t137.5 -144.5t229.5 -47.5q133 0 224 46t138.5 134t47.5 215zM802 -125
q-23 -43 -36 -77.5t-18.5 -63t-5.5 -53.5q0 -50 30 -77t77 -27q31 0 66 16.5t84 66.5l27 -26q-39 -57 -76 -91t-75.5 -50t-82.5 -16q-73 0 -120 44.5t-47 120.5q0 31 8 64.5t29 75t61 97.5l119 170h50z" />
    <glyph glyph-name="Uhorn" unicode="&#x1af;" horiz-adv-x="1511" 
d="M1476 1419q0 27 -7 42.5t-13.5 29t-6.5 35.5q0 28 21.5 47.5t54.5 19.5q48 0 74.5 -31.5t26.5 -84.5q0 -59 -30.5 -105t-103.5 -73.5t-199 -31.5v-754q0 -169 -62 -288.5t-180.5 -182t-288.5 -62.5q-176 0 -299 64t-187 190.5t-64 312.5v714l-160 51v38h485v-38l-160 -51
v-724q0 -146 46 -243t137.5 -144.5t229.5 -47.5q133 0 224 46t138.5 134t47.5 215v764l-163 51v38h313q50 0 77 9t38 24.5t11 35.5z" />
    <glyph glyph-name="uni0214" unicode="&#x214;" horiz-adv-x="1507" 
d="M1200 497v764l-163 51v38h416v-38l-160 -51v-748q0 -170 -62 -289t-180.5 -181.5t-288.5 -62.5q-176 0 -299 64t-187 190.5t-64 312.5v714l-160 51v38h485v-38l-160 -51v-724q0 -146 46 -243t137.5 -144.5t229.5 -47.5q133 0 224 46t138.5 134t47.5 215zM693 1484h-62
l-320 235v14h227zM934 1484h-51l-223 235v14h207z" />
    <glyph glyph-name="uni0216" unicode="&#x216;" horiz-adv-x="1507" 
d="M1200 497v764l-163 51v38h416v-38l-160 -51v-748q0 -170 -62 -289t-180.5 -181.5t-288.5 -62.5q-176 0 -299 64t-187 190.5t-64 312.5v714l-160 51v38h485v-38l-160 -51v-724q0 -146 46 -243t137.5 -144.5t229.5 -47.5q133 0 224 46t138.5 134t47.5 215zM783 1617
q-78 0 -134 -32t-75 -101h-64q24 98 59 154t87 79t127 23q76 0 127.5 -23t86.5 -79t59 -154h-64q-19 69 -74.5 101t-134.5 32z" />
    <glyph glyph-name="uni1EE4" unicode="&#x1ee4;" horiz-adv-x="1507" 
d="M1200 497v764l-163 51v38h416v-38l-160 -51v-748q0 -170 -62 -289t-180.5 -181.5t-288.5 -62.5q-176 0 -299 64t-187 190.5t-64 312.5v714l-160 51v38h485v-38l-160 -51v-724q0 -146 46 -243t137.5 -144.5t229.5 -47.5q133 0 224 46t138.5 134t47.5 215zM783 -367
q-52 0 -84.5 34t-32.5 82q0 49 32.5 82.5t84.5 33.5q53 0 85 -33.5t32 -82.5q0 -48 -32 -82t-85 -34z" />
    <glyph glyph-name="uni1EE6" unicode="&#x1ee6;" horiz-adv-x="1507" 
d="M1200 497v764l-163 51v38h416v-38l-160 -51v-748q0 -170 -62 -289t-180.5 -181.5t-288.5 -62.5q-176 0 -299 64t-187 190.5t-64 312.5v714l-160 51v38h485v-38l-160 -51v-724q0 -146 46 -243t137.5 -144.5t229.5 -47.5q133 0 224 46t138.5 134t47.5 215zM634 1673l25 134
q86 -7 143 -23t90.5 -38.5t48 -51t14.5 -60.5q0 -41 -17.5 -76t-69 -62t-153.5 -43l-10 54q52 10 81 21.5t40.5 27.5t11.5 37t-16 36.5t-59.5 26.5t-128.5 17z" />
    <glyph glyph-name="uni1EE8" unicode="&#x1ee8;" horiz-adv-x="1511" 
d="M1476 1419q0 27 -7 42.5t-13.5 29t-6.5 35.5q0 28 21.5 47.5t54.5 19.5q48 0 74.5 -31.5t26.5 -84.5q0 -59 -30.5 -105t-103.5 -73.5t-199 -31.5v-754q0 -169 -62 -288.5t-180.5 -182t-288.5 -62.5q-176 0 -299 64t-187 190.5t-64 312.5v714l-160 51v38h485v-38l-160 -51
v-724q0 -146 46 -243t137.5 -144.5t229.5 -47.5q133 0 224 46t138.5 134t47.5 215v764l-163 51v38h313q50 0 77 9t38 24.5t11 35.5zM747 1484l109 249h218v-17l-272 -232h-55z" />
    <glyph glyph-name="uni1EEA" unicode="&#x1eea;" horiz-adv-x="1511" 
d="M1476 1419q0 27 -7 42.5t-13.5 29t-6.5 35.5q0 28 21.5 47.5t54.5 19.5q48 0 74.5 -31.5t26.5 -84.5q0 -59 -30.5 -105t-103.5 -73.5t-199 -31.5v-754q0 -169 -62 -288.5t-180.5 -182t-288.5 -62.5q-176 0 -299 64t-187 190.5t-64 312.5v714l-160 51v38h485v-38l-160 -51
v-724q0 -146 46 -243t137.5 -144.5t229.5 -47.5q133 0 224 46t138.5 134t47.5 215v764l-163 51v38h313q50 0 77 9t38 24.5t11 35.5zM819 1484h-55l-272 232v17h218z" />
    <glyph glyph-name="uni1EEC" unicode="&#x1eec;" horiz-adv-x="1511" 
d="M1476 1419q0 27 -7 42.5t-13.5 29t-6.5 35.5q0 28 21.5 47.5t54.5 19.5q48 0 74.5 -31.5t26.5 -84.5q0 -59 -30.5 -105t-103.5 -73.5t-199 -31.5v-754q0 -169 -62 -288.5t-180.5 -182t-288.5 -62.5q-176 0 -299 64t-187 190.5t-64 312.5v714l-160 51v38h485v-38l-160 -51
v-724q0 -146 46 -243t137.5 -144.5t229.5 -47.5q133 0 224 46t138.5 134t47.5 215v764l-163 51v38h313q50 0 77 9t38 24.5t11 35.5zM634 1673l25 134q86 -7 143 -23t90.5 -38.5t48 -51t14.5 -60.5q0 -41 -17.5 -76t-69 -62t-153.5 -43l-10 54q52 10 81 21.5t40.5 27.5
t11.5 37t-16 36.5t-59.5 26.5t-128.5 17z" />
    <glyph glyph-name="uni1EEE" unicode="&#x1eee;" horiz-adv-x="1511" 
d="M1476 1419q0 27 -7 42.5t-13.5 29t-6.5 35.5q0 28 21.5 47.5t54.5 19.5q48 0 74.5 -31.5t26.5 -84.5q0 -59 -30.5 -105t-103.5 -73.5t-199 -31.5v-754q0 -169 -62 -288.5t-180.5 -182t-288.5 -62.5q-176 0 -299 64t-187 190.5t-64 312.5v714l-160 51v38h485v-38l-160 -51
v-724q0 -146 46 -243t137.5 -144.5t229.5 -47.5q133 0 224 46t138.5 134t47.5 215v764l-163 51v38h313q50 0 77 9t38 24.5t11 35.5zM1056 1731q-19 -104 -39.5 -158.5t-48.5 -74.5t-72 -20q-36 0 -69.5 19t-64 44.5t-57.5 44.5t-51 19q-17 0 -31 -9t-26.5 -34.5t-26.5 -75.5
h-62q21 104 41 158.5t48.5 74.5t71.5 20q36 0 69 -19t63.5 -44.5t58 -44.5t51.5 -19q17 0 30.5 8.5t27 34.5t26.5 76h61z" />
    <glyph glyph-name="uni1EF0" unicode="&#x1ef0;" horiz-adv-x="1511" 
d="M1476 1419q0 27 -7 42.5t-13.5 29t-6.5 35.5q0 28 21.5 47.5t54.5 19.5q48 0 74.5 -31.5t26.5 -84.5q0 -59 -30.5 -105t-103.5 -73.5t-199 -31.5v-754q0 -169 -62 -288.5t-180.5 -182t-288.5 -62.5q-176 0 -299 64t-187 190.5t-64 312.5v714l-160 51v38h485v-38l-160 -51
v-724q0 -146 46 -243t137.5 -144.5t229.5 -47.5q133 0 224 46t138.5 134t47.5 215v764l-163 51v38h313q50 0 77 9t38 24.5t11 35.5zM783 -367q-52 0 -84.5 34t-32.5 82q0 49 32.5 82.5t84.5 33.5q53 0 85 -33.5t32 -82.5q0 -48 -32 -82t-85 -34z" />
    <glyph glyph-name="Wcircumflex" unicode="&#x174;" horiz-adv-x="1889" 
d="M982 1192l-468 -1212h-46l-329 1279l-149 53v38h492v-38l-174 -51l262 -1036h-40l430 1145h49l469 -1180l-76 -33l254 1104l-173 51v38h411v-38l-146 -52l-314 -1280h-46l-471 1176zM962 1626h30l-233 -142h-71l214 249h150l214 -249h-71z" />
    <glyph glyph-name="Wgrave" unicode="&#x1e80;" horiz-adv-x="1889" 
d="M982 1192l-468 -1212h-46l-329 1279l-149 53v38h492v-38l-174 -51l262 -1036h-40l430 1145h49l469 -1180l-76 -33l254 1104l-173 51v38h411v-38l-146 -52l-314 -1280h-46l-471 1176zM1013 1484h-55l-272 232v17h218z" />
    <glyph glyph-name="Wacute" unicode="&#x1e82;" horiz-adv-x="1889" 
d="M982 1192l-468 -1212h-46l-329 1279l-149 53v38h492v-38l-174 -51l262 -1036h-40l430 1145h49l469 -1180l-76 -33l254 1104l-173 51v38h411v-38l-146 -52l-314 -1280h-46l-471 1176zM941 1484l109 249h218v-17l-272 -232h-55z" />
    <glyph glyph-name="Wdieresis" unicode="&#x1e84;" horiz-adv-x="1889" 
d="M982 1192l-468 -1212h-46l-329 1279l-149 53v38h492v-38l-174 -51l262 -1036h-40l430 1145h49l469 -1180l-76 -33l254 1104l-173 51v38h411v-38l-146 -52l-314 -1280h-46l-471 1176zM794 1500q-49 0 -79.5 32t-30.5 76q0 45 30.5 77t79.5 32q48 0 78.5 -32t30.5 -77
q0 -44 -30.5 -76t-78.5 -32zM1160 1500q-48 0 -78.5 32t-30.5 76q0 45 30.5 77t78.5 32q49 0 79.5 -32t30.5 -77q0 -44 -30.5 -76t-79.5 -32z" />
    <glyph glyph-name="Yacute" unicode="&#xdd;" horiz-adv-x="1334" 
d="M136 1259l-149 53v38h519v-38l-168 -51l436 -630l-60 2l352 628l-166 51v38h425v-38l-153 -52l-400 -665v-506l160 -51v-38h-486v38l161 51v500zM653 1484l109 249h218v-17l-272 -232h-55z" />
    <glyph glyph-name="Ycircumflex" unicode="&#x176;" horiz-adv-x="1334" 
d="M136 1259l-149 53v38h519v-38l-168 -51l436 -630l-60 2l352 628l-166 51v38h425v-38l-153 -52l-400 -665v-506l160 -51v-38h-486v38l161 51v500zM674 1626h30l-233 -142h-71l214 249h150l214 -249h-71z" />
    <glyph glyph-name="Ydieresis" unicode="&#x178;" horiz-adv-x="1334" 
d="M136 1259l-149 53v38h519v-38l-168 -51l436 -630l-60 2l352 628l-166 51v38h425v-38l-153 -52l-400 -665v-506l160 -51v-38h-486v38l161 51v500zM506 1500q-49 0 -79.5 32t-30.5 76q0 45 30.5 77t79.5 32q48 0 78.5 -32t30.5 -77q0 -44 -30.5 -76t-78.5 -32zM872 1500
q-48 0 -78.5 32t-30.5 76q0 45 30.5 77t78.5 32q49 0 79.5 -32t30.5 -77q0 -44 -30.5 -76t-79.5 -32z" />
    <glyph glyph-name="uni0232" unicode="&#x232;" horiz-adv-x="1334" 
d="M136 1259l-149 53v38h519v-38l-168 -51l436 -630l-60 2l352 628l-166 51v38h425v-38l-153 -52l-400 -665v-506l160 -51v-38h-486v38l161 51v500zM435 1557v103h508v-103h-508z" />
    <glyph glyph-name="Ygrave" unicode="&#x1ef2;" horiz-adv-x="1334" 
d="M136 1259l-149 53v38h519v-38l-168 -51l436 -630l-60 2l352 628l-166 51v38h425v-38l-153 -52l-400 -665v-506l160 -51v-38h-486v38l161 51v500zM725 1484h-55l-272 232v17h218z" />
    <glyph glyph-name="uni1EF4" unicode="&#x1ef4;" horiz-adv-x="1334" 
d="M136 1259l-149 53v38h519v-38l-168 -51l436 -630l-60 2l352 628l-166 51v38h425v-38l-153 -52l-400 -665v-506l160 -51v-38h-486v38l161 51v500zM686 -367q-52 0 -84.5 34t-32.5 82q0 49 32.5 82.5t84.5 33.5q53 0 85 -33.5t32 -82.5q0 -48 -32 -82t-85 -34z" />
    <glyph glyph-name="uni1EF6" unicode="&#x1ef6;" horiz-adv-x="1334" 
d="M136 1259l-149 53v38h519v-38l-168 -51l436 -630l-60 2l352 628l-166 51v38h425v-38l-153 -52l-400 -665v-506l160 -51v-38h-486v38l161 51v500zM540 1673l25 134q86 -7 143 -23t90.5 -38.5t48 -51t14.5 -60.5q0 -41 -17.5 -76t-69 -62t-153.5 -43l-10 54q52 10 81 21.5
t40.5 27.5t11.5 37t-16 36.5t-59.5 26.5t-128.5 17z" />
    <glyph glyph-name="uni1EF8" unicode="&#x1ef8;" horiz-adv-x="1334" 
d="M136 1259l-149 53v38h519v-38l-168 -51l436 -630l-60 2l352 628l-166 51v38h425v-38l-153 -52l-400 -665v-506l160 -51v-38h-486v38l161 51v500zM962 1731q-19 -104 -39.5 -158.5t-48.5 -74.5t-72 -20q-36 0 -69.5 19t-64 44.5t-57.5 44.5t-51 19q-17 0 -31 -9
t-26.5 -34.5t-26.5 -75.5h-62q21 104 41 158.5t48.5 74.5t71.5 20q36 0 69 -19t63.5 -44.5t58 -44.5t51.5 -19q17 0 30.5 8.5t27 34.5t26.5 76h61z" />
    <glyph glyph-name="Zacute" unicode="&#x179;" horiz-adv-x="1249" 
d="M1148 1350v-19l-844 -1267l-16 26h714l148 269l42 -8l-63 -400h-16l-115 49h-895v19l839 1267l28 -26h-685l-178 -295l-40 10l75 434h20l122 -59h864zM615 1484l109 249h218v-17l-272 -232h-55z" />
    <glyph glyph-name="Zdotaccent" unicode="&#x17b;" horiz-adv-x="1249" 
d="M1148 1350v-19l-844 -1267l-16 26h714l148 269l42 -8l-63 -400h-16l-115 49h-895v19l839 1267l28 -26h-685l-178 -295l-40 10l75 434h20l122 -59h864zM651 1492q-52 0 -84.5 34t-32.5 82q0 50 32.5 83t84.5 33q53 0 85 -33t32 -83q0 -48 -32 -82t-85 -34z" />
    <glyph glyph-name="Zcaron" unicode="&#x17d;" horiz-adv-x="1249" 
d="M1148 1350v-19l-844 -1267l-16 26h714l148 269l42 -8l-63 -400h-16l-115 49h-895v19l839 1267l28 -26h-685l-178 -295l-40 10l75 434h20l122 -59h864zM666 1591h-30l233 142h71l-214 -249h-150l-214 249h71z" />
    <glyph glyph-name="Thorn" unicode="&#xde;" horiz-adv-x="1218" 
d="M966 696q0 93 -40 158t-132 98.5t-250 33.5h-283l12 90h367q180 0 289.5 -48.5t160.5 -132t51 -187.5q0 -106 -52.5 -195.5t-162.5 -143t-286 -53.5h-367l-12 90h396q88 0 158 33t110.5 98t40.5 159zM569 38v-38h-486v38l160 51v1172l-160 51v38h486v-38l-160 -51v-1172z
" />
    <glyph glyph-name="Eth" unicode="&#xd0;" horiz-adv-x="1503" 
d="M85 643v91h651v-91h-651zM1230 692q0 289 -174.5 428.5t-481.5 139.5h-265v90h314q262 0 436.5 -70t261.5 -211.5t87 -354.5q0 -227 -102.5 -386.5t-279.5 -243.5t-399 -84h-318v90h288q191 0 333 62t221 194.5t79 345.5zM85 0v38l161 51v1172l-161 51v38h326v-1350h-326
z" />
    <glyph glyph-name="uni018F" unicode="&#x18f;" horiz-adv-x="1371" 
d="M234 460l54 15q10 -133 56 -223.5t125 -137.5t189 -47q96 0 177.5 37.5t141.5 109t93 175.5t33 238q0 195 -58 329.5t-165 204.5t-256 70q-99 0 -185 -20.5t-161 -59.5t-145 -94l-43 55q105 92 195 148.5t182.5 83t201.5 26.5q191 0 326.5 -87.5t207.5 -240t72 -351.5
q0 -146 -44.5 -274t-127.5 -226.5t-201 -154.5t-266 -56q-165 0 -282.5 67t-186 195t-83.5 308h1107l-3 -90h-954z" />
    <glyph glyph-name="uni01C4" unicode="&#x1c4;" horiz-adv-x="2720" 
d="M1227 692q0 289 -174.5 428.5t-481.5 139.5h-264v90h314q262 0 436.5 -70t261.5 -211.5t87 -354.5q0 -227 -102.5 -386.5t-279.5 -243.5t-399 -84h-318v90h288q191 0 333 62t220.5 194.5t78.5 345.5zM83 0v38l160 51v1172l-160 51v38h326v-1350h-326zM2619 1350v-19
l-844 -1267l-16 26h714l148 269l42 -8l-63 -400h-16l-115 49h-895v19l839 1267l28 -26h-685l-178 -295l-40 10l75 434h20l122 -59h864zM2137 1591h-30l233 142h71l-214 -249h-150l-214 249h71z" />
    <glyph glyph-name="uni01C5" unicode="&#x1c5;" horiz-adv-x="2286" 
d="M1227 692q0 289 -174.5 428.5t-481.5 139.5h-264v90h314q262 0 436.5 -70t261.5 -211.5t87 -354.5q0 -227 -102.5 -386.5t-279.5 -243.5t-399 -84h-318v90h288q191 0 333 62t220.5 194.5t78.5 345.5zM83 0v38l160 51v1172l-160 51v38h326v-1350h-326zM1519 0v23l527 810
l44 -38l-483 -2l96 52l-135 -250h-41l43 302h30l70 -26h551v-23l-530 -811l-34 39l445 3l-55 -48l152 250h45l-68 -281h-657zM1922 1145h-32l234 209h62l-200 -331h-159l-201 331h62z" />
    <glyph glyph-name="uni01C7" unicode="&#x1c7;" horiz-adv-x="2019" 
d="M1057 -58h-19l-120 58h-614v90h738l-143 -28l202 340l40 -10zM409 1261v-1261h-326v38l160 51v1172l-160 51v38h486v-38zM1806 441q0 -110 -36.5 -195.5t-100 -145t-145 -90t-172.5 -30.5q-47 0 -83 13t-56 37.5t-20 57.5t20.5 57.5t62.5 24.5q17 0 38 -13.5t46.5 -31.5
t54 -31.5t60.5 -13.5q69 0 116.5 57t47.5 196v928l-161 51v38h485v-38l-159 -51z" />
    <glyph glyph-name="uni01C8" unicode="&#x1c8;" horiz-adv-x="1624" 
d="M1057 -58h-19l-120 58h-614v90h738l-143 -28l202 340l40 -10zM409 1261v-1261h-326v38l160 51v1172l-160 51v38h486v-38zM1396 1183q-54 0 -88 35.5t-34 86.5q0 50 34 85t88 35t87.5 -35t33.5 -85q0 -51 -33.5 -86.5t-87.5 -35.5zM1332 705q-11 11 -34.5 25.5t-53 29
t-60.5 24.5v30l287 78h16l-5 -165v-814q0 -57 -4.5 -98t-19.5 -75.5t-45 -70t-81.5 -81.5t-129.5 -111l-44 49q58 60 92.5 102.5t52 78t23.5 72.5t6 85v841z" />
    <glyph glyph-name="uni01CA" unicode="&#x1ca;" horiz-adv-x="2325" 
d="M246 89v1156l-167 67v38h324l829 -1098l-48 -105v1114l-174 51v38h427v-38l-160 -51v-1280h-43l-928 1227l33 36v-1155l174 -51v-38h-427v38zM2112 441q0 -110 -36.5 -195.5t-100 -145t-145 -90t-172.5 -30.5q-47 0 -83 13t-56 37.5t-20 57.5t20.5 57.5t62.5 24.5
q17 0 38 -13.5t46.5 -31.5t54 -31.5t60.5 -13.5q69 0 116.5 57t47.5 196v928l-161 51v38h485v-38l-159 -51z" />
    <glyph glyph-name="uni01CB" unicode="&#x1cb;" horiz-adv-x="1930" 
d="M246 89v1156l-167 67v38h324l829 -1098l-48 -105v1114l-174 51v38h427v-38l-160 -51v-1280h-43l-928 1227l33 36v-1155l174 -51v-38h-427v38zM1702 1183q-54 0 -88 35.5t-34 86.5q0 50 34 85t88 35t87.5 -35t33.5 -85q0 -51 -33.5 -86.5t-87.5 -35.5zM1638 705
q-11 11 -34.5 25.5t-53 29t-60.5 24.5v30l287 78h16l-5 -165v-814q0 -57 -4.5 -98t-19.5 -75.5t-45 -70t-81.5 -81.5t-129.5 -111l-44 49q58 60 92.5 102.5t52 78t23.5 72.5t6 85v841z" />
    <glyph glyph-name="a" unicode="a" horiz-adv-x="881" 
d="M613 557l16 -67q-121 -29 -197 -58t-118.5 -59t-59 -64t-16.5 -74q0 -70 41.5 -107t100.5 -37q48 0 87.5 24t63.5 63.5t24 86.5v371q0 75 -38.5 119t-125.5 44q-33 0 -73 -9t-76 -28l51 46q-3 -29 -8.5 -58.5t-13 -52.5t-19.5 -36q-15 -17 -39.5 -25t-48.5 -8
q-32 0 -50.5 14.5t-18.5 37.5q0 32 32 67.5t83.5 66.5t115 50t127.5 19q90 0 145.5 -27t81 -79.5t25.5 -128.5v-472q0 -31 9 -51.5t26.5 -31t43.5 -10.5q24 0 51.5 9.5t53.5 25.5v-44q-44 -50 -91 -71t-88 -21q-50 0 -84 22t-52 63.5t-18 98.5l6 9q-14 -57 -49.5 -101
t-85.5 -69t-107 -25q-103 0 -170 57t-67 165q0 57 22.5 103.5t80.5 87.5t162 81t265 83z" />
    <glyph glyph-name="b" unicode="b" horiz-adv-x="1059" 
d="M206 57l107 4l-162 -79l-29 11l24 214v1020q-13 15 -34.5 31t-51.5 32.5t-69 33.5v19l296 83h19l-10 -160v-1010q0 -56 29.5 -100.5t84 -70.5t129.5 -26q86 0 146.5 45t93 128.5t32.5 196.5t-35.5 191.5t-99 119t-149.5 40.5q-59 0 -111.5 -10.5t-98 -31t-85.5 -53.5
l-2 65q56 37 105.5 63.5t94 43.5t86 25.5t78.5 8.5q127 0 213.5 -52t131 -144.5t44.5 -214.5q0 -113 -36 -205t-102 -158t-154.5 -101.5t-194.5 -35.5q-44 0 -90 8t-95.5 24.5t-104.5 44.5z" />
    <glyph glyph-name="c" unicode="c" horiz-adv-x="842" 
d="M552 891q83 0 133 -18.5t72.5 -46.5t22.5 -55q0 -28 -11.5 -49.5t-33 -33t-48.5 -11.5t-49 13.5t-42.5 33l-41 39t-45 33t-54.5 13.5q-57 0 -109 -33.5t-85 -103t-33 -175.5q0 -123 40 -211.5t113.5 -135.5t174.5 -47q57 0 112 24t104 70l23 -26q-49 -66 -100 -108.5
t-108.5 -62.5t-123.5 -20q-114 0 -201.5 56t-137 153.5t-49.5 222.5q0 98 32 184.5t92.5 152.5t149.5 104t203 38z" />
    <glyph glyph-name="d" unicode="d" horiz-adv-x="1076" 
d="M763 615q0 85 -60.5 141t-173.5 56q-90 0 -153 -45t-95.5 -127.5t-32.5 -197.5q0 -113 35.5 -191.5t99 -119t149.5 -40.5q78 0 148.5 25t137.5 79l2 -65q-71 -46 -121.5 -76t-89.5 -46t-73 -22t-70 -6q-126 0 -213 52t-132 145t-45 214q0 117 37.5 209.5t104 157.5
t153 99t182.5 34q50 0 97.5 -8t97.5 -24.5t105 -44.5l-90 -54v494q-12 14 -32 27t-45.5 25.5t-54.5 24.5v18l275 77h17l-10 -161v-1129q9 -10 25 -19t34.5 -18t37 -15.5t34.5 -9.5v-29l-250 -62h-18l-13 151v481z" />
    <glyph glyph-name="e" unicode="e" horiz-adv-x="891" 
d="M483 891q98 0 169.5 -43t114.5 -125.5t53 -202.5h-618l2 66l518 21l-69 -41q-7 76 -29 132t-60.5 86.5t-97.5 30.5q-71 0 -124.5 -39t-83 -115t-29.5 -185q0 -117 43.5 -201t122 -128t183.5 -44q40 0 78.5 10.5t75.5 31.5t71 52l24 -26q-51 -66 -104.5 -108.5
t-112.5 -62.5t-127 -20q-118 0 -210 56.5t-145 156.5t-53 230q0 128 49 234.5t140.5 170t218.5 63.5z" />
    <glyph glyph-name="f" unicode="f" horiz-adv-x="655" 
d="M249 777l-40 -23l-171 26v31l185 61l47 -1h366l-18 -94h-369zM358 82l171 -46v-36h-472v36l151 46v821q0 139 44 238t118.5 162t166 93t185.5 30q50 0 86 -8t58.5 -22t33 -32t10.5 -39q0 -39 -27 -65t-66 -26q-32 0 -55 15t-45.5 34t-50.5 34t-69 15q-62 0 -116.5 -30
t-88.5 -99.5t-34 -188.5v-932z" />
    <glyph glyph-name="g" unicode="g" horiz-adv-x="957" 
d="M425 -523q-97 0 -173 16t-128 46.5t-78.5 73.5t-26.5 99q0 40 20.5 76t65 67.5t113.5 57t167 46.5h52v-24q-104 -17 -163.5 -47.5t-84.5 -71.5t-25 -90q0 -57 30.5 -98t93.5 -62.5t159 -21.5t167 28t110.5 75.5t39.5 102.5q0 40 -18.5 67.5t-59 46t-106.5 29.5t-162 17
q-94 7 -154 24.5t-94 44t-47.5 59.5t-13.5 70q0 69 63.5 116.5t171.5 70.5l24 -18q-56 -7 -85 -34t-29 -70q0 -24 9 -44t35 -35t78.5 -25.5t139.5 -16.5q90 -6 162 -22.5t123 -46t78 -73.5t27 -107q0 -84 -57.5 -158.5t-165 -121t-258.5 -46.5zM432 257q-99 0 -179.5 41
t-127.5 112.5t-47 162.5q0 94 47 165.5t127.5 112t179.5 40.5q75 0 139.5 -23t113 -66t75.5 -100.5t27 -126.5q0 -93 -47 -165t-127.5 -112.5t-180.5 -40.5zM443 321q87 1 135 67.5t46 180.5q-2 121 -57 190.5t-146 68.5q-85 -1 -133.5 -67t-47.5 -181q2 -120 57 -190
t146 -69zM556 824l-33 54q72 -10 128 -9.5t100 6.5t80 12t68 6q33 0 50.5 -18.5t17.5 -56.5q0 -39 -26 -65.5t-61 -26.5q-27 0 -52.5 15t-58.5 34t-84 34t-129 15z" />
    <glyph glyph-name="h" unicode="h" horiz-adv-x="1085" 
d="M611 36l153 46v492q0 55 -23 95t-68 62t-112 22q-79 0 -147 -29t-96 -68l-36 31q56 57 104.5 96.5t94 63t92.5 34t99 10.5q124 0 183.5 -77.5t59.5 -245.5v-486l152 -46v-36h-456v36zM483 0h-455v36l151 46v1147q-13 15 -34 30t-51.5 31.5t-69.5 32.5v20l296 83h19
l-9 -211v-1133l153 -46v-36z" />
    <glyph glyph-name="i" unicode="i" horiz-adv-x="536" 
d="M267 1183q-54 0 -88 35.5t-34 86.5q0 50 34 85t88 35t87.5 -35t33.5 -85q0 -51 -33.5 -86.5t-87.5 -35.5zM358 892l-5 -165v-645l154 -46v-36h-455v36l151 46v623q-11 11 -34.5 25.5t-53 29t-60.5 24.5v30l287 78h16z" />
    <glyph glyph-name="j" unicode="j" horiz-adv-x="473" 
d="M245 1183q-54 0 -88 35.5t-34 86.5q0 50 34 85t88 35t87.5 -35t33.5 -85q0 -51 -33.5 -86.5t-87.5 -35.5zM181 705q-11 11 -34.5 25.5t-53 29t-60.5 24.5v30l287 78h16l-5 -165v-814q0 -57 -4.5 -98t-19.5 -75.5t-45 -70t-81.5 -81.5t-129.5 -111l-44 49
q58 60 92.5 102.5t52 78t23.5 72.5t6 85v841z" />
    <glyph glyph-name="k" unicode="k" horiz-adv-x="1044" 
d="M522 483l18 41l394 -443l123 -45v-36h-428v36l119 40l-324 365h-122v76h157l279 276l-132 36v42h369v-42l-130 -36zM330 82l153 -46v-36h-455v36l151 46v1147q-13 15 -34 30t-51.5 31.5t-69.5 32.5v20l296 83h19l-9 -160v-1184z" />
    <glyph glyph-name="l" unicode="l" horiz-adv-x="516" 
d="M333 82l153 -46v-36h-455v36l151 46v1147q-13 15 -34 30t-51.5 31.5t-69.5 32.5v20l296 83h19l-9 -161v-1183z" />
    <glyph glyph-name="m" unicode="m" horiz-adv-x="1610" 
d="M351 708v-626l145 -46v-36h-446v36l151 46v612q-16 16 -48 32.5t-100 40.5v25l252 100h19zM895 645v-563l144 -46v-36h-439v36l145 46v506q0 55 -23.5 91.5t-65.5 55t-97 18.5q-69 0 -132.5 -25.5t-90.5 -63.5l-34 36q53 53 98 90t88 59t86.5 32t93.5 10q82 0 132 -34.5
t72.5 -90.5t22.5 -121zM1439 593v-511l153 -46v-36h-448v36l145 46v506q0 56 -23.5 92t-65.5 54.5t-97 18.5q-69 0 -132.5 -25.5t-90.5 -63.5l-34 36q53 53 98 90t88 59t86.5 32t93.5 10q121 0 174 -77t53 -221z" />
    <glyph glyph-name="n" unicode="n" horiz-adv-x="1106" 
d="M351 708v-626l153 -46v-36h-454v36l151 46v612q-16 16 -48 32.5t-100 40.5v25l252 100h19zM632 36l153 46v492q0 55 -23 95t-68 62t-112 22q-79 0 -146.5 -29t-96.5 -68l-36 31q56 57 104.5 96.5t94 63t92.5 34t99 10.5q124 0 183.5 -77.5t59.5 -245.5v-486l152 -46v-36
h-456v36z" />
    <glyph glyph-name="o" unicode="o" horiz-adv-x="1023" 
d="M514 53q78 0 137.5 38.5t93.5 119t34 203.5q0 132 -33.5 221.5t-94 136t-142.5 46.5q-78 0 -137.5 -38.5t-93.5 -118.5t-34 -204q0 -131 33.5 -221t94.5 -136.5t142 -46.5zM509 -20q-127 0 -225.5 57t-153.5 158t-55 232q0 134 57.5 239t157 165t224.5 60
q129 0 226.5 -57t153 -157.5t55.5 -232.5q0 -134 -58 -239t-157.5 -165t-224.5 -60z" />
    <glyph glyph-name="p" unicode="p" horiz-adv-x="1093" 
d="M845 429q0 170 -77.5 260.5t-206.5 90.5q-58 0 -110 -10.5t-98.5 -31t-86.5 -53.5l-2 65q57 39 108.5 65.5t97 43.5t85.5 24.5t73 7.5q127 0 213.5 -52t131 -144.5t44.5 -214.5q0 -154 -65 -266.5t-173.5 -173t-238.5 -60.5q-50 0 -97.5 8t-97.5 24.5t-105 44.5h90v-478
l169 -46v-36h-470v36l151 46v1115q-13 14 -33.5 25t-49 23t-65.5 25v25l252 100h19l27 -127v-509q0 -56 30 -101t84.5 -70.5t128.5 -25.5q86 0 146.5 45t93 128.5t32.5 196.5z" />
    <glyph glyph-name="q" unicode="q" horiz-adv-x="1057" 
d="M248 442q0 -113 35.5 -191.5t99 -119t149.5 -40.5q88 0 162 23.5t133 71.5l2 -65q-55 -37 -104.5 -63.5t-94 -43.5t-85.5 -25.5t-79 -8.5q-126 0 -213 52t-132 145t-45 214q0 151 63 263.5t173.5 174.5t250.5 62q45 0 90.5 -8t95 -24.5t104.5 -44.5l-107 -3l161 77
l30 -12l-24 -209v-1088l151 -46v-36h-470v36l169 46v1036q0 84 -65 140.5t-178 56.5q-85 0 -146 -45t-93.5 -127.5t-32.5 -197.5z" />
    <glyph glyph-name="r" unicode="r" horiz-adv-x="760" 
d="M643 885q51 0 74 -24.5t23 -63.5q0 -46 -29.5 -74t-79.5 -28q-22 0 -44.5 8t-47 16t-53.5 8q-24 0 -51.5 -7t-54.5 -20t-47 -30l-20 36q61 48 110.5 81.5t90 55.5t72.5 32t57 10zM351 708v-626l156 -46v-36h-457v36l151 46v612q-13 14 -33.5 25t-49 23t-65.5 25v25
l270 100h19z" />
    <glyph glyph-name="s" unicode="s" horiz-adv-x="722" 
d="M390 891q58 0 105 -11.5t105 -40.5l16 -240h-41l-102 246l69 -84q-39 32 -73.5 47.5t-78.5 15.5q-76 0 -120 -34t-44 -94q0 -49 25.5 -80t70.5 -55t101 -49q42 -19 81 -42t68.5 -54t47.5 -73t18 -101q0 -83 -42 -142t-113 -89.5t-162 -30.5q-60 0 -107 9t-94 30l-46 249
h46l137 -258l-114 76q37 -18 63 -27.5t48 -12.5t45 -3q94 0 150.5 39t56.5 117q0 42 -18.5 70.5t-50.5 49.5t-71 39.5t-79 37.5q-54 26 -95.5 58.5t-65.5 80.5t-24 117q0 76 38 129t103.5 81.5t146.5 28.5z" />
    <glyph glyph-name="t" unicode="t" horiz-adv-x="652" 
d="M311 242q0 -67 41 -101t116 -34q36 0 78 7t92 22v-45q-62 -43 -107 -66.5t-81 -32.5t-71 -9q-65 0 -114 25t-76.5 74.5t-27.5 122.5v532l-110 75v18q20 15 41.5 31t44 33t46 35t48.5 37t51 39h29v-165v-598zM253 777v94h356l-16 -94h-340z" />
    <glyph glyph-name="u" unicode="u" horiz-adv-x="1037" 
d="M319 286q0 -62 17.5 -98.5t59 -53t112.5 -16.5q69 0 133.5 26t91.5 65l36 -37q-53 -54 -98 -91t-86.5 -59.5t-84.5 -32t-92 -9.5q-123 0 -181 77t-58 231v487l-146 57v39l305 14l-9 -108v-491zM730 -17l-14 183v609l-146 57v39l308 14l-10 -108v-641q9 -10 24.5 -19
t34 -18t37 -15.5t34.5 -9.5v-29l-250 -62h-18z" />
    <glyph glyph-name="v" unicode="v" horiz-adv-x="1010" 
d="M874 793l-331 -814h-46l-379 804l-124 46v42h418v-42l-132 -41l291 -617h-18l240 622l-132 36v42h322v-42z" />
    <glyph glyph-name="w" unicode="w" horiz-adv-x="1445" 
d="M1232 793l-132 36v42h324v-42l-109 -36l-260 -814h-45l-308 712h39l-297 -712h-46l-270 804l-124 46v42h413v-42l-131 -41l202 -613l-38 -4l294 721h34l309 -715l-38 -6z" />
    <glyph glyph-name="x" unicode="x" horiz-adv-x="982" 
d="M843 87l126 -45v-42h-415v42l126 41l-222 300l-22 23l-278 377l-126 46v42h414v-42l-125 -41l202 -274l23 -25zM494 408l-269 -330l120 -36v-42h-325v42l109 36l326 384l34 29l248 302l-118 36v42h321v-42l-109 -36l-303 -357z" />
    <glyph glyph-name="y" unicode="y" horiz-adv-x="1010" 
d="M586 152l-79 -188l-376 819l-124 46v42h418v-42l-131 -41zM222 -523q-52 0 -87 29t-35 79q0 27 10.5 46.5t28.5 30.5t37 11q20 0 37 -9.5t36.5 -18.5t43.5 -9q23 0 43 9.5t38.5 34.5t36.5 71l113 287l48 126l227 629l-133 36v42h327v-42l-107 -36l-384 -1006
q-46 -120 -89 -187.5t-89 -95t-102 -27.5z" />
    <glyph glyph-name="z" unicode="z" horiz-adv-x="831" 
d="M64 0v23l527 810l44 -38l-483 -2l96 52l-135 -250h-41l43 302h30l70 -26h551v-23l-530 -811l-34 39l445 3l-55 -48l152 250h45l-68 -281h-657z" />
    <glyph glyph-name="agrave" unicode="&#xe0;" horiz-adv-x="881" 
d="M613 557l16 -67q-121 -29 -197 -58t-118.5 -59t-59 -64t-16.5 -74q0 -70 41.5 -107t100.5 -37q48 0 87.5 24t63.5 63.5t24 86.5v371q0 75 -38.5 119t-125.5 44q-33 0 -73 -9t-76 -28l51 46q-3 -29 -8.5 -58.5t-13 -52.5t-19.5 -36q-15 -17 -39.5 -25t-48.5 -8
q-32 0 -50.5 14.5t-18.5 37.5q0 32 32 67.5t83.5 66.5t115 50t127.5 19q90 0 145.5 -27t81 -79.5t25.5 -128.5v-472q0 -31 9 -51.5t26.5 -31t43.5 -10.5q24 0 51.5 9.5t53.5 25.5v-44q-44 -50 -91 -71t-88 -21q-50 0 -84 22t-52 63.5t-18 98.5l6 9q-14 -57 -49.5 -101
t-85.5 -69t-107 -25q-103 0 -170 57t-67 165q0 57 22.5 103.5t80.5 87.5t162 81t265 83zM469 1023h-59l-311 312v19h214z" />
    <glyph glyph-name="aacute" unicode="&#xe1;" horiz-adv-x="881" 
d="M613 557l16 -67q-121 -29 -197 -58t-118.5 -59t-59 -64t-16.5 -74q0 -70 41.5 -107t100.5 -37q48 0 87.5 24t63.5 63.5t24 86.5v371q0 75 -38.5 119t-125.5 44q-33 0 -73 -9t-76 -28l51 46q-3 -29 -8.5 -58.5t-13 -52.5t-19.5 -36q-15 -17 -39.5 -25t-48.5 -8
q-32 0 -50.5 14.5t-18.5 37.5q0 32 32 67.5t83.5 66.5t115 50t127.5 19q90 0 145.5 -27t81 -79.5t25.5 -128.5v-472q0 -31 9 -51.5t26.5 -31t43.5 -10.5q24 0 51.5 9.5t53.5 25.5v-44q-44 -50 -91 -71t-88 -21q-50 0 -84 22t-52 63.5t-18 98.5l6 9q-14 -57 -49.5 -101
t-85.5 -69t-107 -25q-103 0 -170 57t-67 165q0 57 22.5 103.5t80.5 87.5t162 81t265 83zM355 1023l156 331h214v-19l-311 -312h-59z" />
    <glyph glyph-name="acircumflex" unicode="&#xe2;" horiz-adv-x="881" 
d="M613 557l16 -67q-121 -29 -197 -58t-118.5 -59t-59 -64t-16.5 -74q0 -70 41.5 -107t100.5 -37q48 0 87.5 24t63.5 63.5t24 86.5v371q0 75 -38.5 119t-125.5 44q-33 0 -73 -9t-76 -28l51 46q-3 -29 -8.5 -58.5t-13 -52.5t-19.5 -36q-15 -17 -39.5 -25t-48.5 -8
q-32 0 -50.5 14.5t-18.5 37.5q0 32 32 67.5t83.5 66.5t115 50t127.5 19q90 0 145.5 -27t81 -79.5t25.5 -128.5v-472q0 -31 9 -51.5t26.5 -31t43.5 -10.5q24 0 51.5 9.5t53.5 25.5v-44q-44 -50 -91 -71t-88 -21q-50 0 -84 22t-52 63.5t-18 98.5l6 9q-14 -57 -49.5 -101
t-85.5 -69t-107 -25q-103 0 -170 57t-67 165q0 57 22.5 103.5t80.5 87.5t162 81t265 83zM132 1023l200 331h159l201 -331h-62l-234 209h32l-234 -209h-62z" />
    <glyph glyph-name="atilde" unicode="&#xe3;" horiz-adv-x="881" 
d="M613 557l16 -67q-121 -29 -197 -58t-118.5 -59t-59 -64t-16.5 -74q0 -70 41.5 -107t100.5 -37q48 0 87.5 24t63.5 63.5t24 86.5v371q0 75 -38.5 119t-125.5 44q-33 0 -73 -9t-76 -28l51 46q-3 -29 -8.5 -58.5t-13 -52.5t-19.5 -36q-15 -17 -39.5 -25t-48.5 -8
q-32 0 -50.5 14.5t-18.5 37.5q0 32 32 67.5t83.5 66.5t115 50t127.5 19q90 0 145.5 -27t81 -79.5t25.5 -128.5v-472q0 -31 9 -51.5t26.5 -31t43.5 -10.5q24 0 51.5 9.5t53.5 25.5v-44q-44 -50 -91 -71t-88 -21q-50 0 -84 22t-52 63.5t-18 98.5l6 9q-14 -57 -49.5 -101
t-85.5 -69t-107 -25q-103 0 -170 57t-67 165q0 57 22.5 103.5t80.5 87.5t162 81t265 83zM685 1339q-18 -112 -36 -180.5t-45.5 -99.5t-74.5 -31q-45 0 -78.5 27t-61 63t-54 63t-55.5 27q-15 0 -28.5 -13.5t-26 -50t-26.5 -106.5h-62q19 114 37 181.5t46 98.5t74 31
q45 0 78.5 -27t60.5 -62.5t53.5 -63t56.5 -27.5q15 0 28 13.5t26 50t27 106.5h61z" />
    <glyph glyph-name="adieresis" unicode="&#xe4;" horiz-adv-x="881" 
d="M613 557l16 -67q-121 -29 -197 -58t-118.5 -59t-59 -64t-16.5 -74q0 -70 41.5 -107t100.5 -37q48 0 87.5 24t63.5 63.5t24 86.5v371q0 75 -38.5 119t-125.5 44q-33 0 -73 -9t-76 -28l51 46q-3 -29 -8.5 -58.5t-13 -52.5t-19.5 -36q-15 -17 -39.5 -25t-48.5 -8
q-32 0 -50.5 14.5t-18.5 37.5q0 32 32 67.5t83.5 66.5t115 50t127.5 19q90 0 145.5 -27t81 -79.5t25.5 -128.5v-472q0 -31 9 -51.5t26.5 -31t43.5 -10.5q24 0 51.5 9.5t53.5 25.5v-44q-44 -50 -91 -71t-88 -21q-50 0 -84 22t-52 63.5t-18 98.5l6 9q-14 -57 -49.5 -101
t-85.5 -69t-107 -25q-103 0 -170 57t-67 165q0 57 22.5 103.5t80.5 87.5t162 81t265 83zM229 1081q-49 0 -79.5 31.5t-30.5 76.5t30.5 76.5t79.5 31.5q48 0 78.5 -31.5t30.5 -76.5t-30.5 -76.5t-78.5 -31.5zM595 1081q-48 0 -78.5 31.5t-30.5 76.5t30.5 76.5t78.5 31.5
q49 0 79.5 -31.5t30.5 -76.5t-30.5 -76.5t-79.5 -31.5z" />
    <glyph glyph-name="aring" unicode="&#xe5;" horiz-adv-x="881" 
d="M613 557l16 -67q-121 -29 -197 -58t-118.5 -59t-59 -64t-16.5 -74q0 -70 41.5 -107t100.5 -37q48 0 87.5 24t63.5 63.5t24 86.5v371q0 75 -38.5 119t-125.5 44q-33 0 -73 -9t-76 -28l51 46q-3 -29 -8.5 -58.5t-13 -52.5t-19.5 -36q-15 -17 -39.5 -25t-48.5 -8
q-32 0 -50.5 14.5t-18.5 37.5q0 32 32 67.5t83.5 66.5t115 50t127.5 19q90 0 145.5 -27t81 -79.5t25.5 -128.5v-472q0 -31 9 -51.5t26.5 -31t43.5 -10.5q24 0 51.5 9.5t53.5 25.5v-44q-44 -50 -91 -71t-88 -21q-50 0 -84 22t-52 63.5t-18 98.5l6 9q-14 -57 -49.5 -101
t-85.5 -69t-107 -25q-103 0 -170 57t-67 165q0 57 22.5 103.5t80.5 87.5t162 81t265 83zM412 1365q77 0 127.5 -50t50.5 -126t-50.5 -126t-127.5 -50q-76 0 -127 50t-51 126t51 126t127 50zM412 1072q50 0 82.5 33t32.5 84t-32.5 84t-82.5 33t-82.5 -33t-32.5 -84t32.5 -84
t82.5 -33z" />
    <glyph glyph-name="amacron" unicode="&#x101;" horiz-adv-x="881" 
d="M613 557l16 -67q-121 -29 -197 -58t-118.5 -59t-59 -64t-16.5 -74q0 -70 41.5 -107t100.5 -37q48 0 87.5 24t63.5 63.5t24 86.5v371q0 75 -38.5 119t-125.5 44q-33 0 -73 -9t-76 -28l51 46q-3 -29 -8.5 -58.5t-13 -52.5t-19.5 -36q-15 -17 -39.5 -25t-48.5 -8
q-32 0 -50.5 14.5t-18.5 37.5q0 32 32 67.5t83.5 66.5t115 50t127.5 19q90 0 145.5 -27t81 -79.5t25.5 -128.5v-472q0 -31 9 -51.5t26.5 -31t43.5 -10.5q24 0 51.5 9.5t53.5 25.5v-44q-44 -50 -91 -71t-88 -21q-50 0 -84 22t-52 63.5t-18 98.5l6 9q-14 -57 -49.5 -101
t-85.5 -69t-107 -25q-103 0 -170 57t-67 165q0 57 22.5 103.5t80.5 87.5t162 81t265 83zM158 1138v102h508v-102h-508z" />
    <glyph glyph-name="abreve" unicode="&#x103;" horiz-adv-x="881" 
d="M613 557l16 -67q-121 -29 -197 -58t-118.5 -59t-59 -64t-16.5 -74q0 -70 41.5 -107t100.5 -37q48 0 87.5 24t63.5 63.5t24 86.5v371q0 75 -38.5 119t-125.5 44q-33 0 -73 -9t-76 -28l51 46q-3 -29 -8.5 -58.5t-13 -52.5t-19.5 -36q-15 -17 -39.5 -25t-48.5 -8
q-32 0 -50.5 14.5t-18.5 37.5q0 32 32 67.5t83.5 66.5t115 50t127.5 19q90 0 145.5 -27t81 -79.5t25.5 -128.5v-472q0 -31 9 -51.5t26.5 -31t43.5 -10.5q24 0 51.5 9.5t53.5 25.5v-44q-44 -50 -91 -71t-88 -21q-50 0 -84 22t-52 63.5t-18 98.5l6 9q-14 -57 -49.5 -101
t-85.5 -69t-107 -25q-103 0 -170 57t-67 165q0 57 22.5 103.5t80.5 87.5t162 81t265 83zM412 1148q55 0 98.5 22t74.5 67.5t45 116.5h59q-25 -130 -60 -204t-87.5 -105.5t-129.5 -31.5t-129 31.5t-87.5 105.5t-60.5 204h59q14 -71 45 -116.5t75 -67.5t98 -22z" />
    <glyph glyph-name="aogonek" unicode="&#x105;" horiz-adv-x="881" 
d="M889 74l-152 -185q-38 -48 -60 -85t-30.5 -67t-8.5 -55q0 -50 29.5 -77.5t72.5 -27.5q32 0 66.5 16.5t84.5 66.5l27 -26q-39 -57 -76.5 -91t-76 -50t-82.5 -16q-69 0 -115.5 44.5t-46.5 121.5q0 35 12 72t42.5 80t84.5 98l123 125l11 -15q-22 -12 -43 -16.5t-41 -4.5
q-50 0 -84 22t-52 63.5t-18 98.5l6 9q-14 -57 -49.5 -101t-85.5 -69t-107 -25q-103 0 -170 57t-67 165q0 57 22.5 103.5t80.5 87.5t162 81t265 83l16 -67q-121 -29 -197 -58t-118.5 -59t-59 -64t-16.5 -74q0 -70 41.5 -107t100.5 -37q48 0 87.5 24t63.5 63.5t24 86.5v371
q0 75 -38.5 119t-125.5 44q-33 0 -73 -9t-76 -28l51 46q-5 -44 -14 -86.5t-27 -60.5q-15 -17 -39.5 -25t-48.5 -8q-32 0 -50.5 14.5t-18.5 37.5q0 32 32 67.5t83.5 66.5t115 50t127.5 19q90 0 145.5 -27t81 -79.5t25.5 -128.5v-472q0 -31 9 -51.5t26.5 -31t43.5 -10.5
q24 0 51.5 9.5t53.5 25.5v-44z" />
    <glyph glyph-name="aringacute" unicode="&#x1fb;" horiz-adv-x="881" 
d="M613 557l16 -67q-121 -29 -197 -58t-118.5 -59t-59 -64t-16.5 -74q0 -70 41.5 -107t100.5 -37q48 0 87.5 24t63.5 63.5t24 86.5v371q0 75 -38.5 119t-125.5 44q-33 0 -73 -9t-76 -28l51 46q-3 -29 -8.5 -58.5t-13 -52.5t-19.5 -36q-15 -17 -39.5 -25t-48.5 -8
q-32 0 -50.5 14.5t-18.5 37.5q0 32 32 67.5t83.5 66.5t115 50t127.5 19q90 0 145.5 -27t81 -79.5t25.5 -128.5v-472q0 -31 9 -51.5t26.5 -31t43.5 -10.5q24 0 51.5 9.5t53.5 25.5v-44q-44 -50 -91 -71t-88 -21q-50 0 -84 22t-52 63.5t-18 98.5l6 9q-14 -57 -49.5 -101
t-85.5 -69t-107 -25q-103 0 -170 57t-67 165q0 57 22.5 103.5t80.5 87.5t162 81t265 83zM412 1365q77 0 127.5 -50t50.5 -126t-50.5 -126t-127.5 -50q-76 0 -127 50t-51 126t51 126t127 50zM412 1072q50 0 82.5 33t32.5 84t-32.5 84t-82.5 33t-82.5 -33t-32.5 -84t32.5 -84
t82.5 -33zM355 1506l156 331h214v-19l-311 -312h-59z" />
    <glyph glyph-name="uni0201" unicode="&#x201;" horiz-adv-x="881" 
d="M613 557l16 -67q-121 -29 -197 -58t-118.5 -59t-59 -64t-16.5 -74q0 -70 41.5 -107t100.5 -37q48 0 87.5 24t63.5 63.5t24 86.5v371q0 75 -38.5 119t-125.5 44q-33 0 -73 -9t-76 -28l51 46q-3 -29 -8.5 -58.5t-13 -52.5t-19.5 -36q-15 -17 -39.5 -25t-48.5 -8
q-32 0 -50.5 14.5t-18.5 37.5q0 32 32 67.5t83.5 66.5t115 50t127.5 19q90 0 145.5 -27t81 -79.5t25.5 -128.5v-472q0 -31 9 -51.5t26.5 -31t43.5 -10.5q24 0 51.5 9.5t53.5 25.5v-44q-44 -50 -91 -71t-88 -21q-50 0 -84 22t-52 63.5t-18 98.5l6 9q-14 -57 -49.5 -101
t-85.5 -69t-107 -25q-103 0 -170 57t-67 165q0 57 22.5 103.5t80.5 87.5t162 81t265 83zM340 1023h-63l-297 312v19h210zM580 1023h-51l-217 312v19h195z" />
    <glyph glyph-name="uni0203" unicode="&#x203;" horiz-adv-x="881" 
d="M613 557l16 -67q-121 -29 -197 -58t-118.5 -59t-59 -64t-16.5 -74q0 -70 41.5 -107t100.5 -37q48 0 87.5 24t63.5 63.5t24 86.5v371q0 75 -38.5 119t-125.5 44q-33 0 -73 -9t-76 -28l51 46q-3 -29 -8.5 -58.5t-13 -52.5t-19.5 -36q-15 -17 -39.5 -25t-48.5 -8
q-32 0 -50.5 14.5t-18.5 37.5q0 32 32 67.5t83.5 66.5t115 50t127.5 19q90 0 145.5 -27t81 -79.5t25.5 -128.5v-472q0 -31 9 -51.5t26.5 -31t43.5 -10.5q24 0 51.5 9.5t53.5 25.5v-44q-44 -50 -91 -71t-88 -21q-50 0 -84 22t-52 63.5t-18 98.5l6 9q-14 -57 -49.5 -101
t-85.5 -69t-107 -25q-103 0 -170 57t-67 165q0 57 22.5 103.5t80.5 87.5t162 81t265 83zM412 1230q-54 0 -98 -22.5t-75 -67.5t-45 -117h-59q25 131 60.5 204.5t87.5 105t129 31.5t129.5 -31.5t87.5 -105t60 -204.5h-59q-14 72 -45 117t-74.5 67.5t-98.5 22.5z" />
    <glyph glyph-name="uni1EA1" unicode="&#x1ea1;" horiz-adv-x="881" 
d="M613 557l16 -67q-121 -29 -197 -58t-118.5 -59t-59 -64t-16.5 -74q0 -70 41.5 -107t100.5 -37q48 0 87.5 24t63.5 63.5t24 86.5v371q0 75 -38.5 119t-125.5 44q-33 0 -73 -9t-76 -28l51 46q-3 -29 -8.5 -58.5t-13 -52.5t-19.5 -36q-15 -17 -39.5 -25t-48.5 -8
q-32 0 -50.5 14.5t-18.5 37.5q0 32 32 67.5t83.5 66.5t115 50t127.5 19q90 0 145.5 -27t81 -79.5t25.5 -128.5v-472q0 -31 9 -51.5t26.5 -31t43.5 -10.5q24 0 51.5 9.5t53.5 25.5v-44q-44 -50 -91 -71t-88 -21q-50 0 -84 22t-52 63.5t-18 98.5l6 9q-14 -57 -49.5 -101
t-85.5 -69t-107 -25q-103 0 -170 57t-67 165q0 57 22.5 103.5t80.5 87.5t162 81t265 83zM464 -367q-52 0 -84.5 34t-32.5 82q0 49 32.5 82.5t84.5 33.5q53 0 85 -33.5t32 -82.5q0 -48 -32 -82t-85 -34z" />
    <glyph glyph-name="uni1EA3" unicode="&#x1ea3;" horiz-adv-x="881" 
d="M613 557l16 -67q-121 -29 -197 -58t-118.5 -59t-59 -64t-16.5 -74q0 -70 41.5 -107t100.5 -37q48 0 87.5 24t63.5 63.5t24 86.5v371q0 75 -38.5 119t-125.5 44q-33 0 -73 -9t-76 -28l51 46q-3 -29 -8.5 -58.5t-13 -52.5t-19.5 -36q-15 -17 -39.5 -25t-48.5 -8
q-32 0 -50.5 14.5t-18.5 37.5q0 32 32 67.5t83.5 66.5t115 50t127.5 19q90 0 145.5 -27t81 -79.5t25.5 -128.5v-472q0 -31 9 -51.5t26.5 -31t43.5 -10.5q24 0 51.5 9.5t53.5 25.5v-44q-44 -50 -91 -71t-88 -21q-50 0 -84 22t-52 63.5t-18 98.5l6 9q-14 -57 -49.5 -101
t-85.5 -69t-107 -25q-103 0 -170 57t-67 165q0 57 22.5 103.5t80.5 87.5t162 81t265 83zM254 1259l29 135q94 -10 153.5 -26.5t92.5 -39.5t45.5 -52t12.5 -64q0 -41 -18.5 -79.5t-72.5 -71.5t-160 -58l-15 53q59 15 90 32t43 36.5t12 40.5q0 24 -14 42.5t-59 32t-139 19.5z
" />
    <glyph glyph-name="uni1EA5" unicode="&#x1ea5;" horiz-adv-x="881" 
d="M613 557l16 -67q-121 -29 -197 -58t-118.5 -59t-59 -64t-16.5 -74q0 -70 41.5 -107t100.5 -37q48 0 87.5 24t63.5 63.5t24 86.5v371q0 75 -38.5 119t-125.5 44q-33 0 -73 -9t-76 -28l51 46q-3 -29 -8.5 -58.5t-13 -52.5t-19.5 -36q-15 -17 -39.5 -25t-48.5 -8
q-32 0 -50.5 14.5t-18.5 37.5q0 32 32 67.5t83.5 66.5t115 50t127.5 19q90 0 145.5 -27t81 -79.5t25.5 -128.5v-472q0 -31 9 -51.5t26.5 -31t43.5 -10.5q24 0 51.5 9.5t53.5 25.5v-44q-44 -50 -91 -71t-88 -21q-50 0 -84 22t-52 63.5t-18 98.5l6 9q-14 -57 -49.5 -101
t-85.5 -69t-107 -25q-103 0 -170 57t-67 165q0 57 22.5 103.5t80.5 87.5t162 81t265 83zM638 1223l101 271h215v-20l-261 -251h-55zM396 1232h32l-234 -209h-62l200 331h159l201 -331h-62z" />
    <glyph glyph-name="uni1EA7" unicode="&#x1ea7;" horiz-adv-x="881" 
d="M613 557l16 -67q-121 -29 -197 -58t-118.5 -59t-59 -64t-16.5 -74q0 -70 41.5 -107t100.5 -37q48 0 87.5 24t63.5 63.5t24 86.5v371q0 75 -38.5 119t-125.5 44q-33 0 -73 -9t-76 -28l51 46q-3 -29 -8.5 -58.5t-13 -52.5t-19.5 -36q-15 -17 -39.5 -25t-48.5 -8
q-32 0 -50.5 14.5t-18.5 37.5q0 32 32 67.5t83.5 66.5t115 50t127.5 19q90 0 145.5 -27t81 -79.5t25.5 -128.5v-472q0 -31 9 -51.5t26.5 -31t43.5 -10.5q24 0 51.5 9.5t53.5 25.5v-44q-44 -50 -91 -71t-88 -21q-50 0 -84 22t-52 63.5t-18 98.5l6 9q-14 -57 -49.5 -101
t-85.5 -69t-107 -25q-103 0 -170 57t-67 165q0 57 22.5 103.5t80.5 87.5t162 81t265 83zM186 1223h-55l-261 251v20h215zM428 1232l-234 -209h-62l201 331h159l200 -331h-62l-234 209h32z" />
    <glyph glyph-name="uni1EA9" unicode="&#x1ea9;" horiz-adv-x="881" 
d="M613 557l16 -67q-121 -29 -197 -58t-118.5 -59t-59 -64t-16.5 -74q0 -70 41.5 -107t100.5 -37q48 0 87.5 24t63.5 63.5t24 86.5v371q0 75 -38.5 119t-125.5 44q-33 0 -73 -9t-76 -28l51 46q-3 -29 -8.5 -58.5t-13 -52.5t-19.5 -36q-15 -17 -39.5 -25t-48.5 -8
q-32 0 -50.5 14.5t-18.5 37.5q0 32 32 67.5t83.5 66.5t115 50t127.5 19q90 0 145.5 -27t81 -79.5t25.5 -128.5v-472q0 -31 9 -51.5t26.5 -31t43.5 -10.5q24 0 51.5 9.5t53.5 25.5v-44q-44 -50 -91 -71t-88 -21q-50 0 -84 22t-52 63.5t-18 98.5l6 9q-14 -57 -49.5 -101
t-85.5 -69t-107 -25q-103 0 -170 57t-67 165q0 57 22.5 103.5t80.5 87.5t162 81t265 83zM428 1232l-234 -209h-62l201 331h159l200 -331h-62l-234 209h32zM643 1276q86 21 113.5 48.5t27.5 59.5q0 24 -13.5 43t-58 32.5t-136.5 20.5l30 133q93 -9 151.5 -26t90.5 -40t45 -52
t13 -64q0 -41 -18.5 -79t-71.5 -71t-159 -58z" />
    <glyph glyph-name="uni1EAB" unicode="&#x1eab;" horiz-adv-x="881" 
d="M613 557l16 -67q-121 -29 -197 -58t-118.5 -59t-59 -64t-16.5 -74q0 -70 41.5 -107t100.5 -37q48 0 87.5 24t63.5 63.5t24 86.5v371q0 75 -38.5 119t-125.5 44q-33 0 -73 -9t-76 -28l51 46q-3 -29 -8.5 -58.5t-13 -52.5t-19.5 -36q-15 -17 -39.5 -25t-48.5 -8
q-32 0 -50.5 14.5t-18.5 37.5q0 32 32 67.5t83.5 66.5t115 50t127.5 19q90 0 145.5 -27t81 -79.5t25.5 -128.5v-472q0 -31 9 -51.5t26.5 -31t43.5 -10.5q24 0 51.5 9.5t53.5 25.5v-44q-44 -50 -91 -71t-88 -21q-50 0 -84 22t-52 63.5t-18 98.5l6 9q-14 -57 -49.5 -101
t-85.5 -69t-107 -25q-103 0 -170 57t-67 165q0 57 22.5 103.5t80.5 87.5t162 81t265 83zM428 1102l-224 -121h-70l210 238h136l210 -238h-70l-224 121h32zM213 1288h-57q17 75 34 121t41 66.5t63 20.5q30 0 63.5 -12.5t66 -29.5t61.5 -30t51 -13q27 0 44.5 17t30.5 62h57
q-17 -75 -34 -121t-40.5 -66.5t-63.5 -20.5q-30 0 -63.5 12.5t-66 29.5t-61.5 29.5t-51 12.5q-27 0 -44.5 -17t-30.5 -61z" />
    <glyph glyph-name="uni1EAD" unicode="&#x1ead;" horiz-adv-x="881" 
d="M613 557l16 -67q-121 -29 -197 -58t-118.5 -59t-59 -64t-16.5 -74q0 -70 41.5 -107t100.5 -37q48 0 87.5 24t63.5 63.5t24 86.5v371q0 75 -38.5 119t-125.5 44q-33 0 -73 -9t-76 -28l51 46q-3 -29 -8.5 -58.5t-13 -52.5t-19.5 -36q-15 -17 -39.5 -25t-48.5 -8
q-32 0 -50.5 14.5t-18.5 37.5q0 32 32 67.5t83.5 66.5t115 50t127.5 19q90 0 145.5 -27t81 -79.5t25.5 -128.5v-472q0 -31 9 -51.5t26.5 -31t43.5 -10.5q24 0 51.5 9.5t53.5 25.5v-44q-44 -50 -91 -71t-88 -21q-50 0 -84 22t-52 63.5t-18 98.5l6 9q-14 -57 -49.5 -101
t-85.5 -69t-107 -25q-103 0 -170 57t-67 165q0 57 22.5 103.5t80.5 87.5t162 81t265 83zM132 1023l200 331h159l201 -331h-62l-234 209h32l-234 -209h-62zM464 -367q-52 0 -84.5 34t-32.5 82q0 49 32.5 82.5t84.5 33.5q53 0 85 -33.5t32 -82.5q0 -48 -32 -82t-85 -34z" />
    <glyph glyph-name="uni1EAF" unicode="&#x1eaf;" horiz-adv-x="881" 
d="M613 557l16 -67q-121 -29 -197 -58t-118.5 -59t-59 -64t-16.5 -74q0 -70 41.5 -107t100.5 -37q48 0 87.5 24t63.5 63.5t24 86.5v371q0 75 -38.5 119t-125.5 44q-33 0 -73 -9t-76 -28l51 46q-3 -29 -8.5 -58.5t-13 -52.5t-19.5 -36q-15 -17 -39.5 -25t-48.5 -8
q-32 0 -50.5 14.5t-18.5 37.5q0 32 32 67.5t83.5 66.5t115 50t127.5 19q90 0 145.5 -27t81 -79.5t25.5 -128.5v-472q0 -31 9 -51.5t26.5 -31t43.5 -10.5q24 0 51.5 9.5t53.5 25.5v-44q-44 -50 -91 -71t-88 -21q-50 0 -84 22t-52 63.5t-18 98.5l6 9q-14 -57 -49.5 -101
t-85.5 -69t-107 -25q-103 0 -170 57t-67 165q0 57 22.5 103.5t80.5 87.5t162 81t265 83zM374 1203l95 287h210v-20l-249 -267h-56zM412 1099q80 0 129 26t70 97h58q-24 -103 -56.5 -157t-80.5 -73t-120 -19q-71 0 -119.5 19t-81 73t-56.5 157h58q21 -69 70 -96t129 -27z" />
    <glyph glyph-name="uni1EB1" unicode="&#x1eb1;" horiz-adv-x="881" 
d="M613 557l16 -67q-121 -29 -197 -58t-118.5 -59t-59 -64t-16.5 -74q0 -70 41.5 -107t100.5 -37q48 0 87.5 24t63.5 63.5t24 86.5v371q0 75 -38.5 119t-125.5 44q-33 0 -73 -9t-76 -28l51 46q-3 -29 -8.5 -58.5t-13 -52.5t-19.5 -36q-15 -17 -39.5 -25t-48.5 -8
q-32 0 -50.5 14.5t-18.5 37.5q0 32 32 67.5t83.5 66.5t115 50t127.5 19q90 0 145.5 -27t81 -79.5t25.5 -128.5v-472q0 -31 9 -51.5t26.5 -31t43.5 -10.5q24 0 51.5 9.5t53.5 25.5v-44q-44 -50 -91 -71t-88 -21q-50 0 -84 22t-52 63.5t-18 98.5l6 9q-14 -57 -49.5 -101
t-85.5 -69t-107 -25q-103 0 -170 57t-67 165q0 57 22.5 103.5t80.5 87.5t162 81t265 83zM450 1203h-56l-249 267v20h210zM412 1099q80 0 129 27t70 96h58q-24 -103 -56.5 -157t-80.5 -73t-120 -19q-71 0 -119.5 19t-81 73t-56.5 157h58q21 -71 70 -97t129 -26z" />
    <glyph glyph-name="uni1EB3" unicode="&#x1eb3;" horiz-adv-x="881" 
d="M613 557l16 -67q-121 -29 -197 -58t-118.5 -59t-59 -64t-16.5 -74q0 -70 41.5 -107t100.5 -37q48 0 87.5 24t63.5 63.5t24 86.5v371q0 75 -38.5 119t-125.5 44q-33 0 -73 -9t-76 -28l51 46q-3 -29 -8.5 -58.5t-13 -52.5t-19.5 -36q-15 -17 -39.5 -25t-48.5 -8
q-32 0 -50.5 14.5t-18.5 37.5q0 32 32 67.5t83.5 66.5t115 50t127.5 19q90 0 145.5 -27t81 -79.5t25.5 -128.5v-472q0 -31 9 -51.5t26.5 -31t43.5 -10.5q24 0 51.5 9.5t53.5 25.5v-44q-44 -50 -91 -71t-88 -21q-50 0 -84 22t-52 63.5t-18 98.5l6 9q-14 -57 -49.5 -101
t-85.5 -69t-107 -25q-103 0 -170 57t-67 165q0 57 22.5 103.5t80.5 87.5t162 81t265 83zM354 1201l-13 58q77 15 101.5 36.5t24.5 47.5q0 19 -12 34.5t-52 26.5t-122 16l22 122q119 -8 181.5 -31t85 -55.5t22.5 -72.5q0 -36 -17.5 -70.5t-68.5 -63t-152 -48.5zM412 1099
q80 0 129 27t70 96h58q-24 -103 -56.5 -157t-80.5 -73t-120 -19q-71 0 -119.5 19t-81 73t-56.5 157h58q21 -71 70 -97t129 -26z" />
    <glyph glyph-name="uni1EB5" unicode="&#x1eb5;" horiz-adv-x="881" 
d="M613 557l16 -67q-121 -29 -197 -58t-118.5 -59t-59 -64t-16.5 -74q0 -70 41.5 -107t100.5 -37q48 0 87.5 24t63.5 63.5t24 86.5v371q0 75 -38.5 119t-125.5 44q-33 0 -73 -9t-76 -28l51 46q-3 -29 -8.5 -58.5t-13 -52.5t-19.5 -36q-15 -17 -39.5 -25t-48.5 -8
q-32 0 -50.5 14.5t-18.5 37.5q0 32 32 67.5t83.5 66.5t115 50t127.5 19q90 0 145.5 -27t81 -79.5t25.5 -128.5v-472q0 -31 9 -51.5t26.5 -31t43.5 -10.5q24 0 51.5 9.5t53.5 25.5v-44q-44 -50 -91 -71t-88 -21q-50 0 -84 22t-52 63.5t-18 98.5l6 9q-14 -57 -49.5 -101
t-85.5 -69t-107 -25q-103 0 -170 57t-67 165q0 57 22.5 103.5t80.5 87.5t162 81t265 83zM213 1288h-57q17 75 34 121t41 66.5t63 20.5q30 0 63.5 -12t66 -28t61.5 -28t51 -12q27 0 44.5 16.5t30.5 57.5h57q-17 -75 -34 -121t-40.5 -66.5t-63.5 -20.5q-30 0 -63.5 12
t-66 27.5t-61.5 27.5t-51 12q-27 0 -44.5 -16t-30.5 -57zM412 1099q80 0 129 27t70 96h58q-24 -103 -56.5 -157t-80.5 -73t-120 -19q-71 0 -119.5 19t-81 73t-56.5 157h58q21 -71 70 -97t129 -26z" />
    <glyph glyph-name="uni1EB7" unicode="&#x1eb7;" horiz-adv-x="881" 
d="M613 557l16 -67q-121 -29 -197 -58t-118.5 -59t-59 -64t-16.5 -74q0 -70 41.5 -107t100.5 -37q48 0 87.5 24t63.5 63.5t24 86.5v371q0 75 -38.5 119t-125.5 44q-33 0 -73 -9t-76 -28l51 46q-3 -29 -8.5 -58.5t-13 -52.5t-19.5 -36q-15 -17 -39.5 -25t-48.5 -8
q-32 0 -50.5 14.5t-18.5 37.5q0 32 32 67.5t83.5 66.5t115 50t127.5 19q90 0 145.5 -27t81 -79.5t25.5 -128.5v-472q0 -31 9 -51.5t26.5 -31t43.5 -10.5q24 0 51.5 9.5t53.5 25.5v-44q-44 -50 -91 -71t-88 -21q-50 0 -84 22t-52 63.5t-18 98.5l6 9q-14 -57 -49.5 -101
t-85.5 -69t-107 -25q-103 0 -170 57t-67 165q0 57 22.5 103.5t80.5 87.5t162 81t265 83zM412 1148q55 0 98.5 22t74.5 67.5t45 116.5h59q-25 -130 -60 -204t-87.5 -105.5t-129.5 -31.5t-129 31.5t-87.5 105.5t-60.5 204h59q14 -71 45 -116.5t75 -67.5t98 -22zM464 -367
q-52 0 -84.5 34t-32.5 82q0 49 32.5 82.5t84.5 33.5q53 0 85 -33.5t32 -82.5q0 -48 -32 -82t-85 -34z" />
    <glyph glyph-name="ae" unicode="&#xe6;" horiz-adv-x="1365" 
d="M415 799q-37 0 -85 -8t-90 -29l52 46q-3 -29 -9 -58.5t-13.5 -52.5t-18.5 -36q-16 -17 -40.5 -25t-48.5 -8q-32 0 -50 14.5t-18 37.5q0 32 33.5 67.5t89.5 66.5t124 50t137 19q77 0 125 -20t74 -58t35 -94h-63q42 81 125.5 130.5t182.5 49.5q103 0 174.5 -46.5
t112.5 -135.5t50 -218h-590l1 66l492 21l-69 -16q-8 77 -29.5 134t-60 88t-97.5 31q-64 0 -111.5 -39t-73.5 -115t-26 -185q0 -117 40 -201t112.5 -128t170.5 -44q40 0 78 10.5t75.5 31.5t71.5 52l24 -26q-54 -68 -109 -110.5t-116 -61.5t-132 -19q-87 0 -159.5 35.5
t-124 101t-77.5 152.5l24 -3q-12 -95 -49.5 -159t-96 -95.5t-136.5 -31.5q-105 0 -175 58t-70 164q0 51 20.5 95.5t78 84.5t168 81.5t290.5 87.5l16 -61q-140 -33 -224 -64.5t-125.5 -62t-55 -62.5t-13.5 -66q0 -70 41.5 -107t100.5 -37q58 0 103.5 23t71.5 67.5t26 107.5
v347q0 75 -38.5 119t-125.5 44z" />
    <glyph glyph-name="aeacute" unicode="&#x1fd;" horiz-adv-x="1365" 
d="M415 799q-37 0 -85 -8t-90 -29l52 46q-3 -29 -9 -58.5t-13.5 -52.5t-18.5 -36q-16 -17 -40.5 -25t-48.5 -8q-32 0 -50 14.5t-18 37.5q0 32 33.5 67.5t89.5 66.5t124 50t137 19q77 0 125 -20t74 -58t35 -94h-63q42 81 125.5 130.5t182.5 49.5q103 0 174.5 -46.5
t112.5 -135.5t50 -218h-590l1 66l492 21l-69 -16q-8 77 -29.5 134t-60 88t-97.5 31q-64 0 -111.5 -39t-73.5 -115t-26 -185q0 -117 40 -201t112.5 -128t170.5 -44q40 0 78 10.5t75.5 31.5t71.5 52l24 -26q-54 -68 -109 -110.5t-116 -61.5t-132 -19q-87 0 -159.5 35.5
t-124 101t-77.5 152.5l24 -3q-12 -95 -49.5 -159t-96 -95.5t-136.5 -31.5q-105 0 -175 58t-70 164q0 51 20.5 95.5t78 84.5t168 81.5t290.5 87.5l16 -61q-140 -33 -224 -64.5t-125.5 -62t-55 -62.5t-13.5 -66q0 -70 41.5 -107t100.5 -37q58 0 103.5 23t71.5 67.5t26 107.5
v347q0 75 -38.5 119t-125.5 44zM631 1023l156 331h214v-19l-311 -312h-59z" />
    <glyph glyph-name="ccedilla" unicode="&#xe7;" horiz-adv-x="842" 
d="M552 891q83 0 133 -18.5t72.5 -46.5t22.5 -55q0 -28 -11.5 -49.5t-33 -33t-48.5 -11.5t-49 13.5t-42.5 33l-41 39t-45 33t-54.5 13.5q-57 0 -109 -33.5t-85 -103t-33 -175.5q0 -123 40 -211.5t113.5 -135.5t174.5 -47q57 0 112 24t104 70l23 -26q-49 -66 -100 -108.5
t-108.5 -62.5t-123.5 -20q-114 0 -201.5 56t-137 153.5t-49.5 222.5q0 98 32 184.5t92.5 152.5t149.5 104t203 38zM365 -523q-72 0 -103 25.5t-31 57.5q0 22 14.5 35.5t37.5 13.5q26 0 44 -15.5t38 -32t54 -16.5q46 0 75.5 26.5t29.5 71.5q0 35 -22 60.5t-72 42.5t-137 28
v17l198 256h73l-190 -262v92q93 -16 146.5 -43.5t75 -63t21.5 -76.5q0 -64 -36 -113t-93.5 -76.5t-122.5 -27.5z" />
    <glyph glyph-name="cacute" unicode="&#x107;" horiz-adv-x="842" 
d="M552 891q83 0 133 -18.5t72.5 -46.5t22.5 -55q0 -28 -11.5 -49.5t-33 -33t-48.5 -11.5t-49 13.5t-42.5 33l-41 39t-45 33t-54.5 13.5q-57 0 -109 -33.5t-85 -103t-33 -175.5q0 -123 40 -211.5t113.5 -135.5t174.5 -47q57 0 112 24t104 70l23 -26q-49 -66 -100 -108.5
t-108.5 -62.5t-123.5 -20q-114 0 -201.5 56t-137 153.5t-49.5 222.5q0 98 32 184.5t92.5 152.5t149.5 104t203 38zM419 1023l156 331h214v-19l-311 -312h-59z" />
    <glyph glyph-name="ccircumflex" unicode="&#x109;" horiz-adv-x="842" 
d="M552 891q83 0 133 -18.5t72.5 -46.5t22.5 -55q0 -28 -11.5 -49.5t-33 -33t-48.5 -11.5t-49 13.5t-42.5 33l-41 39t-45 33t-54.5 13.5q-57 0 -109 -33.5t-85 -103t-33 -175.5q0 -123 40 -211.5t113.5 -135.5t174.5 -47q57 0 112 24t104 70l23 -26q-49 -66 -100 -108.5
t-108.5 -62.5t-123.5 -20q-114 0 -201.5 56t-137 153.5t-49.5 222.5q0 98 32 184.5t92.5 152.5t149.5 104t203 38zM196 1023l200 331h159l201 -331h-62l-234 209h32l-234 -209h-62z" />
    <glyph glyph-name="cdotaccent" unicode="&#x10b;" horiz-adv-x="842" 
d="M552 891q83 0 133 -18.5t72.5 -46.5t22.5 -55q0 -28 -11.5 -49.5t-33 -33t-48.5 -11.5t-49 13.5t-42.5 33l-41 39t-45 33t-54.5 13.5q-57 0 -109 -33.5t-85 -103t-33 -175.5q0 -123 40 -211.5t113.5 -135.5t174.5 -47q57 0 112 24t104 70l23 -26q-49 -66 -100 -108.5
t-108.5 -62.5t-123.5 -20q-114 0 -201.5 56t-137 153.5t-49.5 222.5q0 98 32 184.5t92.5 152.5t149.5 104t203 38zM476 1073q-52 0 -84.5 34t-32.5 82q0 49 32.5 82.5t84.5 33.5q53 0 85 -33.5t32 -82.5q0 -48 -32 -82t-85 -34z" />
    <glyph glyph-name="ccaron" unicode="&#x10d;" horiz-adv-x="842" 
d="M552 891q83 0 133 -18.5t72.5 -46.5t22.5 -55q0 -28 -11.5 -49.5t-33 -33t-48.5 -11.5t-49 13.5t-42.5 33l-41 39t-45 33t-54.5 13.5q-57 0 -109 -33.5t-85 -103t-33 -175.5q0 -123 40 -211.5t113.5 -135.5t174.5 -47q57 0 112 24t104 70l23 -26q-49 -66 -100 -108.5
t-108.5 -62.5t-123.5 -20q-114 0 -201.5 56t-137 153.5t-49.5 222.5q0 98 32 184.5t92.5 152.5t149.5 104t203 38zM492 1145h-32l234 209h62l-200 -331h-159l-201 331h62z" />
    <glyph glyph-name="dcaron" unicode="&#x10f;" horiz-adv-x="1078" 
d="M763 615q0 85 -60.5 141t-173.5 56q-90 0 -153 -45t-95.5 -127.5t-32.5 -197.5q0 -113 35.5 -191.5t99 -119t149.5 -40.5q78 0 148.5 25t137.5 79l2 -65q-71 -46 -121.5 -76t-89.5 -46t-73 -22t-70 -6q-126 0 -213 52t-132 145t-45 214q0 117 37.5 209.5t104 157.5
t153 99t182.5 34q50 0 97.5 -8t97.5 -24.5t105 -44.5l-90 -54v494q-12 14 -32 27t-45.5 25.5t-54.5 24.5v18l275 77h17l-10 -161v-1129q9 -10 25 -19t34.5 -18t37 -15.5t34.5 -9.5v-29l-250 -62h-18l-13 151v481zM1041 1039l46 363h187v-19l-173 -344h-60z" />
    <glyph glyph-name="dcroat" unicode="&#x111;" horiz-adv-x="1076" 
d="M763 615q0 85 -60.5 141t-173.5 56q-90 0 -153 -45t-95.5 -127.5t-32.5 -197.5q0 -113 35.5 -191.5t99 -119t149.5 -40.5q78 0 148.5 25t137.5 79l2 -65q-71 -46 -121.5 -76t-89.5 -46t-73 -22t-70 -6q-126 0 -213 52t-132 145t-45 214q0 117 37.5 209.5t104 157.5
t153 99t182.5 34q50 0 97.5 -8t97.5 -24.5t105 -44.5l-90 -54v494q-12 14 -32 27t-45.5 25.5t-54.5 24.5v18l275 77h17l-10 -161v-1129q9 -10 25 -19t34.5 -18t37 -15.5t34.5 -9.5v-29l-250 -62h-18l-13 151v481zM497 1040v89h608v-89h-608z" />
    <glyph glyph-name="egrave" unicode="&#xe8;" horiz-adv-x="891" 
d="M483 891q98 0 169.5 -43t114.5 -125.5t53 -202.5h-618l2 66l518 21l-69 -41q-7 76 -29 132t-60.5 86.5t-97.5 30.5q-71 0 -124.5 -39t-83 -115t-29.5 -185q0 -117 43.5 -201t122 -128t183.5 -44q40 0 78.5 10.5t75.5 31.5t71 52l24 -26q-51 -66 -104.5 -108.5
t-112.5 -62.5t-127 -20q-118 0 -210 56.5t-145 156.5t-53 230q0 128 49 234.5t140.5 170t218.5 63.5zM532 1023h-59l-311 312v19h214z" />
    <glyph glyph-name="eacute" unicode="&#xe9;" horiz-adv-x="891" 
d="M483 891q98 0 169.5 -43t114.5 -125.5t53 -202.5h-618l2 66l518 21l-69 -41q-7 76 -29 132t-60.5 86.5t-97.5 30.5q-71 0 -124.5 -39t-83 -115t-29.5 -185q0 -117 43.5 -201t122 -128t183.5 -44q40 0 78.5 10.5t75.5 31.5t71 52l24 -26q-51 -66 -104.5 -108.5
t-112.5 -62.5t-127 -20q-118 0 -210 56.5t-145 156.5t-53 230q0 128 49 234.5t140.5 170t218.5 63.5zM418 1023l156 331h214v-19l-311 -312h-59z" />
    <glyph glyph-name="ecircumflex" unicode="&#xea;" horiz-adv-x="891" 
d="M483 891q98 0 169.5 -43t114.5 -125.5t53 -202.5h-618l2 66l518 21l-69 -41q-7 76 -29 132t-60.5 86.5t-97.5 30.5q-71 0 -124.5 -39t-83 -115t-29.5 -185q0 -117 43.5 -201t122 -128t183.5 -44q40 0 78.5 10.5t75.5 31.5t71 52l24 -26q-51 -66 -104.5 -108.5
t-112.5 -62.5t-127 -20q-118 0 -210 56.5t-145 156.5t-53 230q0 128 49 234.5t140.5 170t218.5 63.5zM195 1023l200 331h159l201 -331h-62l-234 209h32l-234 -209h-62z" />
    <glyph glyph-name="edieresis" unicode="&#xeb;" horiz-adv-x="891" 
d="M483 891q98 0 169.5 -43t114.5 -125.5t53 -202.5h-618l2 66l518 21l-69 -41q-7 76 -29 132t-60.5 86.5t-97.5 30.5q-71 0 -124.5 -39t-83 -115t-29.5 -185q0 -117 43.5 -201t122 -128t183.5 -44q40 0 78.5 10.5t75.5 31.5t71 52l24 -26q-51 -66 -104.5 -108.5
t-112.5 -62.5t-127 -20q-118 0 -210 56.5t-145 156.5t-53 230q0 128 49 234.5t140.5 170t218.5 63.5zM292 1081q-49 0 -79.5 31.5t-30.5 76.5t30.5 76.5t79.5 31.5q48 0 78.5 -31.5t30.5 -76.5t-30.5 -76.5t-78.5 -31.5zM658 1081q-48 0 -78.5 31.5t-30.5 76.5t30.5 76.5
t78.5 31.5q49 0 79.5 -31.5t30.5 -76.5t-30.5 -76.5t-79.5 -31.5z" />
    <glyph glyph-name="emacron" unicode="&#x113;" horiz-adv-x="891" 
d="M483 891q98 0 169.5 -43t114.5 -125.5t53 -202.5h-618l2 66l518 21l-69 -41q-7 76 -29 132t-60.5 86.5t-97.5 30.5q-71 0 -124.5 -39t-83 -115t-29.5 -185q0 -117 43.5 -201t122 -128t183.5 -44q40 0 78.5 10.5t75.5 31.5t71 52l24 -26q-51 -66 -104.5 -108.5
t-112.5 -62.5t-127 -20q-118 0 -210 56.5t-145 156.5t-53 230q0 128 49 234.5t140.5 170t218.5 63.5zM221 1138v102h508v-102h-508z" />
    <glyph glyph-name="ebreve" unicode="&#x115;" horiz-adv-x="891" 
d="M483 891q98 0 169.5 -43t114.5 -125.5t53 -202.5h-618l2 66l518 21l-69 -41q-7 76 -29 132t-60.5 86.5t-97.5 30.5q-71 0 -124.5 -39t-83 -115t-29.5 -185q0 -117 43.5 -201t122 -128t183.5 -44q40 0 78.5 10.5t75.5 31.5t71 52l24 -26q-51 -66 -104.5 -108.5
t-112.5 -62.5t-127 -20q-118 0 -210 56.5t-145 156.5t-53 230q0 128 49 234.5t140.5 170t218.5 63.5zM475 1148q55 0 98.5 22t74.5 67.5t45 116.5h59q-25 -130 -60 -204t-87.5 -105.5t-129.5 -31.5t-129 31.5t-87.5 105.5t-60.5 204h59q14 -71 45 -116.5t75 -67.5t98 -22z
" />
    <glyph glyph-name="edotaccent" unicode="&#x117;" horiz-adv-x="891" 
d="M483 891q98 0 169.5 -43t114.5 -125.5t53 -202.5h-618l2 66l518 21l-69 -41q-7 76 -29 132t-60.5 86.5t-97.5 30.5q-71 0 -124.5 -39t-83 -115t-29.5 -185q0 -117 43.5 -201t122 -128t183.5 -44q40 0 78.5 10.5t75.5 31.5t71 52l24 -26q-51 -66 -104.5 -108.5
t-112.5 -62.5t-127 -20q-118 0 -210 56.5t-145 156.5t-53 230q0 128 49 234.5t140.5 170t218.5 63.5zM475 1073q-52 0 -84.5 34t-32.5 82q0 49 32.5 82.5t84.5 33.5q53 0 85 -33.5t32 -82.5q0 -48 -32 -82t-85 -34z" />
    <glyph glyph-name="eogonek" unicode="&#x119;" horiz-adv-x="891" 
d="M827 171l-161 -242q-38 -57 -59 -101t-29.5 -78.5t-8.5 -65.5q0 -51 30.5 -79t78.5 -28q31 0 66 16.5t84 66.5l27 -26q-38 -57 -75.5 -91t-76 -50t-83.5 -16q-73 0 -120.5 44.5t-47.5 122.5q0 37 10.5 75t35.5 82.5t68 99.5l128 163l12 -12q-50 -37 -105 -54.5
t-118 -17.5q-118 0 -210 56.5t-145 156.5t-53 230q0 128 49 234.5t140.5 170t218.5 63.5q98 0 169.5 -43t114.5 -125.5t53 -202.5h-618l2 66l518 21l-69 -41q-7 76 -29 132t-60.5 86.5t-97.5 30.5q-71 0 -124.5 -39t-83 -115t-29.5 -185q0 -117 43.5 -201t122 -128
t183.5 -44q40 0 78.5 10.5t75.5 31.5t71 52z" />
    <glyph glyph-name="ecaron" unicode="&#x11b;" horiz-adv-x="891" 
d="M483 891q98 0 169.5 -43t114.5 -125.5t53 -202.5h-618l2 66l518 21l-69 -41q-7 76 -29 132t-60.5 86.5t-97.5 30.5q-71 0 -124.5 -39t-83 -115t-29.5 -185q0 -117 43.5 -201t122 -128t183.5 -44q40 0 78.5 10.5t75.5 31.5t71 52l24 -26q-51 -66 -104.5 -108.5
t-112.5 -62.5t-127 -20q-118 0 -210 56.5t-145 156.5t-53 230q0 128 49 234.5t140.5 170t218.5 63.5zM491 1145h-32l234 209h62l-200 -331h-159l-201 331h62z" />
    <glyph glyph-name="uni0205" unicode="&#x205;" horiz-adv-x="892" 
d="M484 891q98 0 169.5 -43t114.5 -125.5t53 -202.5h-618l2 66l518 21l-69 -41q-7 76 -29 132t-60.5 86.5t-97.5 30.5q-71 0 -124.5 -39t-83 -115t-29.5 -185q0 -117 43.5 -201t122 -128t183.5 -44q40 0 78.5 10.5t75.5 31.5t71 52l24 -26q-51 -66 -104.5 -108.5
t-112.5 -62.5t-127 -20q-118 0 -210 56.5t-145 156.5t-53 230q0 128 49 234.5t140.5 170t218.5 63.5zM404 1023h-63l-297 312v19h210zM644 1023h-51l-217 312v19h195z" />
    <glyph glyph-name="uni0207" unicode="&#x207;" horiz-adv-x="891" 
d="M483 891q98 0 169.5 -43t114.5 -125.5t53 -202.5h-618l2 66l518 21l-69 -41q-7 76 -29 132t-60.5 86.5t-97.5 30.5q-71 0 -124.5 -39t-83 -115t-29.5 -185q0 -117 43.5 -201t122 -128t183.5 -44q40 0 78.5 10.5t75.5 31.5t71 52l24 -26q-51 -66 -104.5 -108.5
t-112.5 -62.5t-127 -20q-118 0 -210 56.5t-145 156.5t-53 230q0 128 49 234.5t140.5 170t218.5 63.5zM475 1230q-54 0 -98 -22.5t-75 -67.5t-45 -117h-59q25 131 60.5 204.5t87.5 105t129 31.5t129.5 -31.5t87.5 -105t60 -204.5h-59q-14 72 -45 117t-74.5 67.5t-98.5 22.5z
" />
    <glyph glyph-name="uni1EB9" unicode="&#x1eb9;" horiz-adv-x="891" 
d="M483 891q98 0 169.5 -43t114.5 -125.5t53 -202.5h-618l2 66l518 21l-69 -41q-7 76 -29 132t-60.5 86.5t-97.5 30.5q-71 0 -124.5 -39t-83 -115t-29.5 -185q0 -117 43.5 -201t122 -128t183.5 -44q40 0 78.5 10.5t75.5 31.5t71 52l24 -26q-51 -66 -104.5 -108.5
t-112.5 -62.5t-127 -20q-118 0 -210 56.5t-145 156.5t-53 230q0 128 49 234.5t140.5 170t218.5 63.5zM485 -367q-52 0 -84.5 34t-32.5 82q0 49 32.5 82.5t84.5 33.5q53 0 85 -33.5t32 -82.5q0 -48 -32 -82t-85 -34z" />
    <glyph glyph-name="uni1EBB" unicode="&#x1ebb;" horiz-adv-x="891" 
d="M483 891q98 0 169.5 -43t114.5 -125.5t53 -202.5h-618l2 66l518 21l-69 -41q-7 76 -29 132t-60.5 86.5t-97.5 30.5q-71 0 -124.5 -39t-83 -115t-29.5 -185q0 -117 43.5 -201t122 -128t183.5 -44q40 0 78.5 10.5t75.5 31.5t71 52l24 -26q-51 -66 -104.5 -108.5
t-112.5 -62.5t-127 -20q-118 0 -210 56.5t-145 156.5t-53 230q0 128 49 234.5t140.5 170t218.5 63.5zM317 1259l29 135q94 -10 153.5 -26.5t92.5 -39.5t45.5 -52t12.5 -64q0 -41 -18.5 -79.5t-72.5 -71.5t-160 -58l-15 53q59 15 90 32t43 36.5t12 40.5q0 24 -14 42.5t-59 32
t-139 19.5z" />
    <glyph glyph-name="uni1EBD" unicode="&#x1ebd;" horiz-adv-x="891" 
d="M483 891q98 0 169.5 -43t114.5 -125.5t53 -202.5h-618l2 66l518 21l-69 -41q-7 76 -29 132t-60.5 86.5t-97.5 30.5q-71 0 -124.5 -39t-83 -115t-29.5 -185q0 -117 43.5 -201t122 -128t183.5 -44q40 0 78.5 10.5t75.5 31.5t71 52l24 -26q-51 -66 -104.5 -108.5
t-112.5 -62.5t-127 -20q-118 0 -210 56.5t-145 156.5t-53 230q0 128 49 234.5t140.5 170t218.5 63.5zM748 1339q-18 -112 -36 -180.5t-45.5 -99.5t-74.5 -31q-45 0 -78.5 27t-61 63t-54 63t-55.5 27q-15 0 -28.5 -13.5t-26 -50t-26.5 -106.5h-62q19 114 37 181.5t46 98.5
t74 31q45 0 78.5 -27t60.5 -62.5t53.5 -63t56.5 -27.5q15 0 28 13.5t26 50t27 106.5h61z" />
    <glyph glyph-name="uni1EBF" unicode="&#x1ebf;" horiz-adv-x="891" 
d="M483 891q98 0 169.5 -43t114.5 -125.5t53 -202.5h-618l2 66l518 21l-69 -41q-7 76 -29 132t-60.5 86.5t-97.5 30.5q-71 0 -124.5 -39t-83 -115t-29.5 -185q0 -117 43.5 -201t122 -128t183.5 -44q40 0 78.5 10.5t75.5 31.5t71 52l24 -26q-51 -66 -104.5 -108.5
t-112.5 -62.5t-127 -20q-118 0 -210 56.5t-145 156.5t-53 230q0 128 49 234.5t140.5 170t218.5 63.5zM701 1223l101 271h215v-20l-261 -251h-55zM459 1232h32l-234 -209h-62l200 331h159l201 -331h-62z" />
    <glyph glyph-name="uni1EC1" unicode="&#x1ec1;" horiz-adv-x="892" 
d="M484 891q98 0 169.5 -43t114.5 -125.5t53 -202.5h-618l2 66l518 21l-69 -41q-7 76 -29 132t-60.5 86.5t-97.5 30.5q-71 0 -124.5 -39t-83 -115t-29.5 -185q0 -117 43.5 -201t122 -128t183.5 -44q40 0 78.5 10.5t75.5 31.5t71 52l24 -26q-51 -66 -104.5 -108.5
t-112.5 -62.5t-127 -20q-118 0 -210 56.5t-145 156.5t-53 230q0 128 49 234.5t140.5 170t218.5 63.5zM250 1223h-55l-261 251v20h215zM492 1232l-234 -209h-62l201 331h159l200 -331h-62l-234 209h32z" />
    <glyph glyph-name="uni1EC3" unicode="&#x1ec3;" horiz-adv-x="891" 
d="M483 891q98 0 169.5 -43t114.5 -125.5t53 -202.5h-618l2 66l518 21l-69 -41q-7 76 -29 132t-60.5 86.5t-97.5 30.5q-71 0 -124.5 -39t-83 -115t-29.5 -185q0 -117 43.5 -201t122 -128t183.5 -44q40 0 78.5 10.5t75.5 31.5t71 52l24 -26q-51 -66 -104.5 -108.5
t-112.5 -62.5t-127 -20q-118 0 -210 56.5t-145 156.5t-53 230q0 128 49 234.5t140.5 170t218.5 63.5zM491 1232l-234 -209h-62l201 331h159l200 -331h-62l-234 209h32zM706 1276q86 21 113.5 48.5t27.5 59.5q0 24 -13.5 43t-58 32.5t-136.5 20.5l30 133q93 -9 151.5 -26
t90.5 -40t45 -52t13 -64q0 -41 -18.5 -79t-71.5 -71t-159 -58z" />
    <glyph glyph-name="uni1EC5" unicode="&#x1ec5;" horiz-adv-x="891" 
d="M483 891q98 0 169.5 -43t114.5 -125.5t53 -202.5h-618l2 66l518 21l-69 -41q-7 76 -29 132t-60.5 86.5t-97.5 30.5q-71 0 -124.5 -39t-83 -115t-29.5 -185q0 -117 43.5 -201t122 -128t183.5 -44q40 0 78.5 10.5t75.5 31.5t71 52l24 -26q-51 -66 -104.5 -108.5
t-112.5 -62.5t-127 -20q-118 0 -210 56.5t-145 156.5t-53 230q0 128 49 234.5t140.5 170t218.5 63.5zM491 1102l-224 -121h-70l210 238h136l210 -238h-70l-224 121h32zM276 1288h-57q17 75 34 121t41 66.5t63 20.5q30 0 63.5 -12.5t66 -29.5t61.5 -30t51 -13q27 0 44.5 17
t30.5 62h57q-17 -75 -34 -121t-40.5 -66.5t-63.5 -20.5q-30 0 -63.5 12.5t-66 29.5t-61.5 29.5t-51 12.5q-27 0 -44.5 -17t-30.5 -61z" />
    <glyph glyph-name="uni1EC7" unicode="&#x1ec7;" horiz-adv-x="891" 
d="M483 891q98 0 169.5 -43t114.5 -125.5t53 -202.5h-618l2 66l518 21l-69 -41q-7 76 -29 132t-60.5 86.5t-97.5 30.5q-71 0 -124.5 -39t-83 -115t-29.5 -185q0 -117 43.5 -201t122 -128t183.5 -44q40 0 78.5 10.5t75.5 31.5t71 52l24 -26q-51 -66 -104.5 -108.5
t-112.5 -62.5t-127 -20q-118 0 -210 56.5t-145 156.5t-53 230q0 128 49 234.5t140.5 170t218.5 63.5zM195 1023l200 331h159l201 -331h-62l-234 209h32l-234 -209h-62zM485 -367q-52 0 -84.5 34t-32.5 82q0 49 32.5 82.5t84.5 33.5q53 0 85 -33.5t32 -82.5q0 -48 -32 -82
t-85 -34z" />
    <glyph glyph-name="gcircumflex" unicode="&#x11d;" horiz-adv-x="957" 
d="M425 -523q-97 0 -173 16t-128 46.5t-78.5 73.5t-26.5 99q0 40 20.5 76t65 67.5t113.5 57t167 46.5h52v-24q-104 -17 -163.5 -47.5t-84.5 -71.5t-25 -90q0 -57 30.5 -98t93.5 -62.5t159 -21.5t167 28t110.5 75.5t39.5 102.5q0 40 -18.5 67.5t-59 46t-106.5 29.5t-162 17
q-94 7 -154 24.5t-94 44t-47.5 59.5t-13.5 70q0 69 63.5 116.5t171.5 70.5l24 -18q-56 -7 -85 -34t-29 -70q0 -24 9 -44t35 -35t78.5 -25.5t139.5 -16.5q90 -6 162 -22.5t123 -46t78 -73.5t27 -107q0 -84 -57.5 -158.5t-165 -121t-258.5 -46.5zM432 257q-99 0 -179.5 41
t-127.5 112.5t-47 162.5q0 94 47 165.5t127.5 112t179.5 40.5q75 0 139.5 -23t113 -66t75.5 -100.5t27 -126.5q0 -93 -47 -165t-127.5 -112.5t-180.5 -40.5zM443 321q87 1 135 67.5t46 180.5q-2 121 -57 190.5t-146 68.5q-85 -1 -133.5 -67t-47.5 -181q2 -120 57 -190
t146 -69zM556 824l-33 54q72 -10 128 -9.5t100 6.5t80 12t68 6q33 0 50.5 -18.5t17.5 -56.5q0 -39 -26 -65.5t-61 -26.5q-27 0 -52.5 15t-58.5 34t-84 34t-129 15zM158 1023l200 331h159l201 -331h-62l-234 209h32l-234 -209h-62z" />
    <glyph glyph-name="gbreve" unicode="&#x11f;" horiz-adv-x="957" 
d="M425 -523q-97 0 -173 16t-128 46.5t-78.5 73.5t-26.5 99q0 40 20.5 76t65 67.5t113.5 57t167 46.5h52v-24q-104 -17 -163.5 -47.5t-84.5 -71.5t-25 -90q0 -57 30.5 -98t93.5 -62.5t159 -21.5t167 28t110.5 75.5t39.5 102.5q0 40 -18.5 67.5t-59 46t-106.5 29.5t-162 17
q-94 7 -154 24.5t-94 44t-47.5 59.5t-13.5 70q0 69 63.5 116.5t171.5 70.5l24 -18q-56 -7 -85 -34t-29 -70q0 -24 9 -44t35 -35t78.5 -25.5t139.5 -16.5q90 -6 162 -22.5t123 -46t78 -73.5t27 -107q0 -84 -57.5 -158.5t-165 -121t-258.5 -46.5zM432 257q-99 0 -179.5 41
t-127.5 112.5t-47 162.5q0 94 47 165.5t127.5 112t179.5 40.5q75 0 139.5 -23t113 -66t75.5 -100.5t27 -126.5q0 -93 -47 -165t-127.5 -112.5t-180.5 -40.5zM443 321q87 1 135 67.5t46 180.5q-2 121 -57 190.5t-146 68.5q-85 -1 -133.5 -67t-47.5 -181q2 -120 57 -190
t146 -69zM556 824l-33 54q72 -10 128 -9.5t100 6.5t80 12t68 6q33 0 50.5 -18.5t17.5 -56.5q0 -39 -26 -65.5t-61 -26.5q-27 0 -52.5 15t-58.5 34t-84 34t-129 15zM438 1148q55 0 98.5 22t74.5 67.5t45 116.5h59q-25 -130 -60 -204t-87.5 -105.5t-129.5 -31.5t-129 31.5
t-87.5 105.5t-60.5 204h59q14 -71 45 -116.5t75 -67.5t98 -22z" />
    <glyph glyph-name="gdotaccent" unicode="&#x121;" horiz-adv-x="957" 
d="M425 -523q-97 0 -173 16t-128 46.5t-78.5 73.5t-26.5 99q0 40 20.5 76t65 67.5t113.5 57t167 46.5h52v-24q-104 -17 -163.5 -47.5t-84.5 -71.5t-25 -90q0 -57 30.5 -98t93.5 -62.5t159 -21.5t167 28t110.5 75.5t39.5 102.5q0 40 -18.5 67.5t-59 46t-106.5 29.5t-162 17
q-94 7 -154 24.5t-94 44t-47.5 59.5t-13.5 70q0 69 63.5 116.5t171.5 70.5l24 -18q-56 -7 -85 -34t-29 -70q0 -24 9 -44t35 -35t78.5 -25.5t139.5 -16.5q90 -6 162 -22.5t123 -46t78 -73.5t27 -107q0 -84 -57.5 -158.5t-165 -121t-258.5 -46.5zM432 257q-99 0 -179.5 41
t-127.5 112.5t-47 162.5q0 94 47 165.5t127.5 112t179.5 40.5q75 0 139.5 -23t113 -66t75.5 -100.5t27 -126.5q0 -93 -47 -165t-127.5 -112.5t-180.5 -40.5zM443 321q87 1 135 67.5t46 180.5q-2 121 -57 190.5t-146 68.5q-85 -1 -133.5 -67t-47.5 -181q2 -120 57 -190
t146 -69zM556 824l-33 54q72 -10 128 -9.5t100 6.5t80 12t68 6q33 0 50.5 -18.5t17.5 -56.5q0 -39 -26 -65.5t-61 -26.5q-27 0 -52.5 15t-58.5 34t-84 34t-129 15zM438 1073q-52 0 -84.5 34t-32.5 82q0 49 32.5 82.5t84.5 33.5q53 0 85 -33.5t32 -82.5q0 -48 -32 -82
t-85 -34z" />
    <glyph glyph-name="uni0123" unicode="&#x123;" horiz-adv-x="957" 
d="M425 -523q-97 0 -173 16t-128 46.5t-78.5 73.5t-26.5 99q0 40 20.5 76t65 67.5t113.5 57t167 46.5h52v-24q-104 -17 -163.5 -47.5t-84.5 -71.5t-25 -90q0 -57 30.5 -98t93.5 -62.5t159 -21.5t167 28t110.5 75.5t39.5 102.5q0 40 -18.5 67.5t-59 46t-106.5 29.5t-162 17
q-94 7 -154 24.5t-94 44t-47.5 59.5t-13.5 70q0 69 63.5 116.5t171.5 70.5l24 -18q-56 -7 -85 -34t-29 -70q0 -24 9 -44t35 -35t78.5 -25.5t139.5 -16.5q90 -6 162 -22.5t123 -46t78 -73.5t27 -107q0 -84 -57.5 -158.5t-165 -121t-258.5 -46.5zM432 257q-99 0 -179.5 41
t-127.5 112.5t-47 162.5q0 94 47 165.5t127.5 112t179.5 40.5q75 0 139.5 -23t113 -66t75.5 -100.5t27 -126.5q0 -93 -47 -165t-127.5 -112.5t-180.5 -40.5zM443 321q87 1 135 67.5t46 180.5q-2 121 -57 190.5t-146 68.5q-85 -1 -133.5 -67t-47.5 -181q2 -120 57 -190
t146 -69zM556 824l-33 54q72 -10 128 -9.5t100 6.5t80 12t68 6q33 0 50.5 -18.5t17.5 -56.5q0 -39 -26 -65.5t-61 -26.5q-27 0 -52.5 15t-58.5 34t-84 34t-129 15zM555 1130q0 -54 -36 -85.5t-86 -31.5q-57 0 -92.5 36.5t-35.5 99.5q0 50 24 95t80 78.5t153 50.5l12 -57
q-92 -19 -118.5 -43t-26.5 -49q0 -19 19.5 -32.5t44 -24t43.5 -19.5t19 -18z" />
    <glyph glyph-name="gcaron" unicode="&#x1e7;" horiz-adv-x="957" 
d="M425 -523q-97 0 -173 16t-128 46.5t-78.5 73.5t-26.5 99q0 40 20.5 76t65 67.5t113.5 57t167 46.5h52v-24q-104 -17 -163.5 -47.5t-84.5 -71.5t-25 -90q0 -57 30.5 -98t93.5 -62.5t159 -21.5t167 28t110.5 75.5t39.5 102.5q0 40 -18.5 67.5t-59 46t-106.5 29.5t-162 17
q-94 7 -154 24.5t-94 44t-47.5 59.5t-13.5 70q0 69 63.5 116.5t171.5 70.5l24 -18q-56 -7 -85 -34t-29 -70q0 -24 9 -44t35 -35t78.5 -25.5t139.5 -16.5q90 -6 162 -22.5t123 -46t78 -73.5t27 -107q0 -84 -57.5 -158.5t-165 -121t-258.5 -46.5zM432 257q-99 0 -179.5 41
t-127.5 112.5t-47 162.5q0 94 47 165.5t127.5 112t179.5 40.5q75 0 139.5 -23t113 -66t75.5 -100.5t27 -126.5q0 -93 -47 -165t-127.5 -112.5t-180.5 -40.5zM443 321q87 1 135 67.5t46 180.5q-2 121 -57 190.5t-146 68.5q-85 -1 -133.5 -67t-47.5 -181q2 -120 57 -190
t146 -69zM556 824l-33 54q72 -10 128 -9.5t100 6.5t80 12t68 6q33 0 50.5 -18.5t17.5 -56.5q0 -39 -26 -65.5t-61 -26.5q-27 0 -52.5 15t-58.5 34t-84 34t-129 15zM454 1145h-32l234 209h62l-200 -331h-159l-201 331h62z" />
    <glyph glyph-name="hcircumflex" unicode="&#x125;" horiz-adv-x="1085" 
d="M611 36l153 46v492q0 55 -23 95t-68 62t-112 22q-79 0 -147 -29t-96 -68l-36 31q56 57 104.5 96.5t94 63t92.5 34t99 10.5q124 0 183.5 -77.5t59.5 -245.5v-486l152 -46v-36h-456v36zM483 0h-455v36l151 46v1147q-13 15 -34 30t-51.5 31.5t-69.5 32.5v20l296 83h19
l-9 -211v-1133l153 -46v-36zM538 1678h30l-233 -142h-71l214 249h150l214 -249h-71z" />
    <glyph glyph-name="hbar" unicode="&#x127;" horiz-adv-x="1085" 
d="M611 36l153 46v492q0 55 -23 95t-68 62t-112 22q-79 0 -147 -29t-96 -68l-36 31q56 57 104.5 96.5t94 63t92.5 34t99 10.5q124 0 183.5 -77.5t59.5 -245.5v-486l152 -46v-36h-456v36zM483 0h-455v36l151 46v1147q-13 15 -34 30t-51.5 31.5t-69.5 32.5v20l296 83h19
l-9 -211v-1133l153 -46v-36zM-11 1040v89h608v-89h-608z" />
    <glyph glyph-name="dotlessi" unicode="&#x131;" horiz-adv-x="536" 
d="M358 892l-5 -165v-645l154 -46v-36h-455v36l151 46v623q-11 11 -34.5 25.5t-53 29t-60.5 24.5v30l287 78h16z" />
    <glyph glyph-name="igrave" unicode="&#xec;" horiz-adv-x="536" 
d="M358 892l-5 -165v-645l154 -46v-36h-455v36l151 46v623q-11 11 -34.5 25.5t-53 29t-60.5 24.5v30l287 78h16zM333 1023h-59l-311 312v19h214z" />
    <glyph glyph-name="iacute" unicode="&#xed;" horiz-adv-x="536" 
d="M358 892l-5 -165v-645l154 -46v-36h-455v36l151 46v623q-11 11 -34.5 25.5t-53 29t-60.5 24.5v30l287 78h16zM219 1023l156 331h214v-19l-311 -312h-59z" />
    <glyph glyph-name="icircumflex" unicode="&#xee;" horiz-adv-x="536" 
d="M358 892l-5 -165v-645l154 -46v-36h-455v36l151 46v623q-11 11 -34.5 25.5t-53 29t-60.5 24.5v30l287 78h16zM-4 1023l200 331h159l201 -331h-62l-234 209h32l-234 -209h-62z" />
    <glyph glyph-name="idieresis" unicode="&#xef;" horiz-adv-x="536" 
d="M358 892l-5 -165v-645l154 -46v-36h-455v36l151 46v623q-11 11 -34.5 25.5t-53 29t-60.5 24.5v30l287 78h16zM93 1081q-49 0 -79.5 31.5t-30.5 76.5t30.5 76.5t79.5 31.5q48 0 78.5 -31.5t30.5 -76.5t-30.5 -76.5t-78.5 -31.5zM459 1081q-48 0 -78.5 31.5t-30.5 76.5
t30.5 76.5t78.5 31.5q49 0 79.5 -31.5t30.5 -76.5t-30.5 -76.5t-79.5 -31.5z" />
    <glyph glyph-name="itilde" unicode="&#x129;" horiz-adv-x="536" 
d="M358 892l-5 -165v-645l154 -46v-36h-455v36l151 46v623q-11 11 -34.5 25.5t-53 29t-60.5 24.5v30l287 78h16zM549 1339q-18 -112 -36 -180.5t-45.5 -99.5t-74.5 -31q-45 0 -78.5 27t-61 63t-54 63t-55.5 27q-15 0 -28.5 -13.5t-26 -50t-26.5 -106.5h-62q19 114 37 181.5
t46 98.5t74 31q45 0 78.5 -27t60.5 -62.5t53.5 -63t56.5 -27.5q15 0 28 13.5t26 50t27 106.5h61z" />
    <glyph glyph-name="imacron" unicode="&#x12b;" horiz-adv-x="536" 
d="M358 892l-5 -165v-645l154 -46v-36h-455v36l151 46v623q-11 11 -34.5 25.5t-53 29t-60.5 24.5v30l287 78h16zM22 1138v102h508v-102h-508z" />
    <glyph glyph-name="ibreve" unicode="&#x12d;" horiz-adv-x="536" 
d="M358 892l-5 -165v-645l154 -46v-36h-455v36l151 46v623q-11 11 -34.5 25.5t-53 29t-60.5 24.5v30l287 78h16zM276 1148q55 0 98.5 22t74.5 67.5t45 116.5h59q-25 -130 -60 -204t-87.5 -105.5t-129.5 -31.5t-129 31.5t-87.5 105.5t-60.5 204h59q14 -71 45 -116.5t75 -67.5
t98 -22z" />
    <glyph glyph-name="iogonek" unicode="&#x12f;" horiz-adv-x="536" 
d="M267 1183q-54 0 -88 35.5t-34 86.5q0 50 34 85t88 35t87.5 -35t33.5 -85q0 -51 -33.5 -86.5t-87.5 -35.5zM358 892l-5 -165v-645l154 -46v-36h-455v36l151 46v623q-11 11 -34.5 25.5t-53 29t-60.5 24.5v30l287 78h16zM250 -125q-21 -43 -33 -77.5t-16.5 -63t-4.5 -53.5
q0 -50 29.5 -77t76.5 -27q32 0 66.5 16.5t84.5 66.5l27 -26q-59 -84 -114 -120.5t-121 -36.5q-73 0 -120 44.5t-47 120.5q0 31 8 64.5t28.5 75t57.5 97.5l114 170h50z" />
    <glyph glyph-name="uni0209" unicode="&#x209;" horiz-adv-x="536" 
d="M358 892l-5 -165v-645l154 -46v-36h-455v36l151 46v623q-11 11 -34.5 25.5t-53 29t-60.5 24.5v30l287 78h16zM204 1023h-63l-297 312v19h210zM444 1023h-51l-217 312v19h195z" />
    <glyph glyph-name="uni020B" unicode="&#x20b;" horiz-adv-x="536" 
d="M358 892l-5 -165v-645l154 -46v-36h-455v36l151 46v623q-11 11 -34.5 25.5t-53 29t-60.5 24.5v30l287 78h16zM276 1230q-54 0 -98 -22.5t-75 -67.5t-45 -117h-59q25 131 60.5 204.5t87.5 105t129 31.5t129.5 -31.5t87.5 -105t60 -204.5h-59q-14 72 -45 117t-74.5 67.5
t-98.5 22.5z" />
    <glyph glyph-name="uni1EC9" unicode="&#x1ec9;" horiz-adv-x="536" 
d="M358 892l-5 -165v-645l154 -46v-36h-455v36l151 46v623q-11 11 -34.5 25.5t-53 29t-60.5 24.5v30l287 78h16zM118 1259l29 135q94 -10 153.5 -26.5t92.5 -39.5t45.5 -52t12.5 -64q0 -41 -18.5 -79.5t-72.5 -71.5t-160 -58l-15 53q59 15 90 32t43 36.5t12 40.5
q0 24 -14 42.5t-59 32t-139 19.5z" />
    <glyph glyph-name="uni1ECB" unicode="&#x1ecb;" horiz-adv-x="536" 
d="M267 1183q-54 0 -88 35.5t-34 86.5q0 50 34 85t88 35t87.5 -35t33.5 -85q0 -51 -33.5 -86.5t-87.5 -35.5zM358 892l-5 -165v-645l154 -46v-36h-455v36l151 46v623q-11 11 -34.5 25.5t-53 29t-60.5 24.5v30l287 78h16zM279 -367q-52 0 -84.5 34t-32.5 82q0 49 32.5 82.5
t84.5 33.5q53 0 85 -33.5t32 -82.5q0 -48 -32 -82t-85 -34z" />
    <glyph glyph-name="uni0237" unicode="&#x237;" horiz-adv-x="473" 
d="M181 705q-11 11 -34.5 25.5t-53 29t-60.5 24.5v30l287 78h16l-5 -165v-814q0 -57 -4.5 -98t-19.5 -75.5t-45 -70t-81.5 -81.5t-129.5 -111l-44 49q58 60 92.5 102.5t52 78t23.5 72.5t6 85v841z" />
    <glyph glyph-name="jcircumflex" unicode="&#x135;" horiz-adv-x="473" 
d="M181 705q-11 11 -34.5 25.5t-53 29t-60.5 24.5v30l287 78h16l-5 -165v-814q0 -57 -4.5 -98t-19.5 -75.5t-45 -70t-81.5 -81.5t-129.5 -111l-44 49q58 60 92.5 102.5t52 78t23.5 72.5t6 85v841zM-29 1023l200 331h159l201 -331h-62l-234 209h32l-234 -209h-62z" />
    <glyph glyph-name="uni0137" unicode="&#x137;" horiz-adv-x="1044" 
d="M522 483l18 41l394 -443l123 -45v-36h-428v36l119 40l-324 365h-122v76h157l279 276l-132 36v42h369v-42l-130 -36zM330 82l153 -46v-36h-455v36l151 46v1147q-13 15 -34 30t-51.5 31.5t-69.5 32.5v20l296 83h19l-9 -160v-1184zM414 -456q80 21 109.5 44.5t29.5 59.5
q0 29 -20 47.5t-46.5 31t-46.5 24.5t-20 27q0 51 34 84t89 33t93.5 -39.5t38.5 -113.5q0 -60 -20.5 -111t-72.5 -90t-149 -60z" />
    <glyph glyph-name="kgreenlandic" unicode="&#x138;" horiz-adv-x="1065" 
d="M445 422h-122v76h157l279 295l-132 36v42h369v-42l-130 -36l-322 -329l22 38l389 -421l123 -45v-36h-433v36l119 40zM356 892l-5 -165v-645l153 -46v-36h-454v36l151 46v623q-11 11 -34.5 25.5t-53 29t-60.5 24.5v30l287 78h16z" />
    <glyph glyph-name="lacute" unicode="&#x13a;" horiz-adv-x="516" 
d="M333 82l153 -46v-36h-455v36l151 46v1147q-13 15 -34 30t-51.5 31.5t-69.5 32.5v20l296 83h19l-9 -161v-1183zM209 1536l109 249h218v-17l-272 -232h-55z" />
    <glyph glyph-name="uni013C" unicode="&#x13c;" horiz-adv-x="516" 
d="M333 82l153 -46v-36h-455v36l151 46v1147q-13 15 -34 30t-51.5 31.5t-69.5 32.5v20l296 83h19l-9 -161v-1183zM132 -456q80 21 109.5 44.5t29.5 59.5q0 29 -20 47.5t-46.5 31t-46.5 24.5t-20 27q0 51 34 84t89 33t93.5 -39.5t38.5 -113.5q0 -60 -20.5 -111t-72.5 -90
t-149 -60z" />
    <glyph glyph-name="lcaron" unicode="&#x13e;" horiz-adv-x="514" 
d="M333 82l153 -46v-36h-455v36l151 46v1147q-13 15 -34 30t-51.5 31.5t-69.5 32.5v20l296 83h19l-9 -161v-1183zM461 1039l46 363h187v-19l-173 -344h-60z" />
    <glyph glyph-name="ldot" unicode="&#x140;" horiz-adv-x="531" 
d="M333 82l153 -46v-36h-455v36l151 46v1147q-13 15 -34 30t-51.5 31.5t-69.5 32.5v20l296 83h19l-9 -161v-1183zM522 434q-52 0 -84.5 34t-32.5 82q0 49 32.5 82.5t84.5 33.5q53 0 85 -33.5t32 -82.5q0 -48 -32 -82t-85 -34z" />
    <glyph glyph-name="lslash" unicode="&#x142;" horiz-adv-x="604" 
d="M271 548l-200 -174v120l200 173l69 28l209 182v-119l-209 -182zM380 82l154 -46v-36h-455v36l151 46v1147q-13 15 -34 30t-51.5 31.5t-69.5 32.5v20l296 83h18l-9 -161v-1183z" />
    <glyph glyph-name="ntilde" unicode="&#xf1;" horiz-adv-x="1106" 
d="M351 708v-626l153 -46v-36h-454v36l151 46v612q-16 16 -48 32.5t-100 40.5v25l252 100h19zM632 36l153 46v492q0 55 -23 95t-68 62t-112 22q-79 0 -146.5 -29t-96.5 -68l-36 31q56 57 104.5 96.5t94 63t92.5 34t99 10.5q124 0 183.5 -77.5t59.5 -245.5v-486l152 -46v-36
h-456v36zM849 1339q-18 -112 -36 -180.5t-45.5 -99.5t-74.5 -31q-45 0 -78.5 27t-61 63t-54 63t-55.5 27q-15 0 -28.5 -13.5t-26 -50t-26.5 -106.5h-62q19 114 37 181.5t46 98.5t74 31q45 0 78.5 -27t60.5 -62.5t53.5 -63t56.5 -27.5q15 0 28 13.5t26 50t27 106.5h61z" />
    <glyph glyph-name="nacute" unicode="&#x144;" horiz-adv-x="1106" 
d="M351 708v-626l153 -46v-36h-454v36l151 46v612q-16 16 -48 32.5t-100 40.5v25l252 100h19zM632 36l153 46v492q0 55 -23 95t-68 62t-112 22q-79 0 -146.5 -29t-96.5 -68l-36 31q56 57 104.5 96.5t94 63t92.5 34t99 10.5q124 0 183.5 -77.5t59.5 -245.5v-486l152 -46v-36
h-456v36zM519 1023l156 331h214v-19l-311 -312h-59z" />
    <glyph glyph-name="ncaron" unicode="&#x148;" horiz-adv-x="1106" 
d="M351 708v-626l153 -46v-36h-454v36l151 46v612q-16 16 -48 32.5t-100 40.5v25l252 100h19zM632 36l153 46v492q0 55 -23 95t-68 62t-112 22q-79 0 -146.5 -29t-96.5 -68l-36 31q56 57 104.5 96.5t94 63t92.5 34t99 10.5q124 0 183.5 -77.5t59.5 -245.5v-486l152 -46v-36
h-456v36zM592 1145h-32l234 209h62l-200 -331h-159l-201 331h62z" />
    <glyph glyph-name="uni0146" unicode="&#x146;" horiz-adv-x="1106" 
d="M351 708v-626l153 -46v-36h-454v36l151 46v612q-16 16 -48 32.5t-100 40.5v25l252 100h19zM632 36l153 46v492q0 55 -23 95t-68 62t-112 22q-79 0 -146.5 -29t-96.5 -68l-36 31q56 57 104.5 96.5t94 63t92.5 34t99 10.5q124 0 183.5 -77.5t59.5 -245.5v-486l152 -46v-36
h-456v36zM450 -456q80 21 109.5 44.5t29.5 59.5q0 29 -20 47.5t-46.5 31t-46.5 24.5t-20 27q0 51 34 84t89 33t93.5 -39.5t38.5 -113.5q0 -60 -20.5 -111t-72.5 -90t-149 -60z" />
    <glyph glyph-name="eng" unicode="&#x14b;" horiz-adv-x="1063" 
d="M351 708v-626l153 -46v-36h-454v36l151 46v612q-16 16 -48 32.5t-100 40.5v25l252 100h19zM785 -136v710q0 55 -23 95t-68 62t-112 22q-79 0 -146.5 -29t-96.5 -68l-36 31q56 57 104.5 96.5t94 63t92.5 34t99 10.5q124 0 183.5 -77.5t59.5 -245.5v-655q0 -57 -4.5 -98
t-19.5 -75.5t-45 -70t-81.5 -81.5t-129.5 -111l-44 49q58 60 92.5 102.5t52 78t23 72.5t5.5 85z" />
    <glyph glyph-name="ograve" unicode="&#xf2;" horiz-adv-x="1023" 
d="M514 53q78 0 137.5 38.5t93.5 119t34 203.5q0 132 -33.5 221.5t-94 136t-142.5 46.5q-78 0 -137.5 -38.5t-93.5 -118.5t-34 -204q0 -131 33.5 -221t94.5 -136.5t142 -46.5zM509 -20q-127 0 -225.5 57t-153.5 158t-55 232q0 134 57.5 239t157 165t224.5 60
q129 0 226.5 -57t153 -157.5t55.5 -232.5q0 -134 -58 -239t-157.5 -165t-224.5 -60zM569 1023h-59l-311 312v19h214z" />
    <glyph glyph-name="oacute" unicode="&#xf3;" horiz-adv-x="1023" 
d="M514 53q78 0 137.5 38.5t93.5 119t34 203.5q0 132 -33.5 221.5t-94 136t-142.5 46.5q-78 0 -137.5 -38.5t-93.5 -118.5t-34 -204q0 -131 33.5 -221t94.5 -136.5t142 -46.5zM509 -20q-127 0 -225.5 57t-153.5 158t-55 232q0 134 57.5 239t157 165t224.5 60
q129 0 226.5 -57t153 -157.5t55.5 -232.5q0 -134 -58 -239t-157.5 -165t-224.5 -60zM455 1023l156 331h214v-19l-311 -312h-59z" />
    <glyph glyph-name="ocircumflex" unicode="&#xf4;" horiz-adv-x="1023" 
d="M514 53q78 0 137.5 38.5t93.5 119t34 203.5q0 132 -33.5 221.5t-94 136t-142.5 46.5q-78 0 -137.5 -38.5t-93.5 -118.5t-34 -204q0 -131 33.5 -221t94.5 -136.5t142 -46.5zM509 -20q-127 0 -225.5 57t-153.5 158t-55 232q0 134 57.5 239t157 165t224.5 60
q129 0 226.5 -57t153 -157.5t55.5 -232.5q0 -134 -58 -239t-157.5 -165t-224.5 -60zM232 1023l200 331h159l201 -331h-62l-234 209h32l-234 -209h-62z" />
    <glyph glyph-name="otilde" unicode="&#xf5;" horiz-adv-x="1023" 
d="M514 53q78 0 137.5 38.5t93.5 119t34 203.5q0 132 -33.5 221.5t-94 136t-142.5 46.5q-78 0 -137.5 -38.5t-93.5 -118.5t-34 -204q0 -131 33.5 -221t94.5 -136.5t142 -46.5zM509 -20q-127 0 -225.5 57t-153.5 158t-55 232q0 134 57.5 239t157 165t224.5 60
q129 0 226.5 -57t153 -157.5t55.5 -232.5q0 -134 -58 -239t-157.5 -165t-224.5 -60zM785 1339q-18 -112 -36 -180.5t-45.5 -99.5t-74.5 -31q-45 0 -78.5 27t-61 63t-54 63t-55.5 27q-15 0 -28.5 -13.5t-26 -50t-26.5 -106.5h-62q19 114 37 181.5t46 98.5t74 31
q45 0 78.5 -27t60.5 -62.5t53.5 -63t56.5 -27.5q15 0 28 13.5t26 50t27 106.5h61z" />
    <glyph glyph-name="odieresis" unicode="&#xf6;" horiz-adv-x="1023" 
d="M514 53q78 0 137.5 38.5t93.5 119t34 203.5q0 132 -33.5 221.5t-94 136t-142.5 46.5q-78 0 -137.5 -38.5t-93.5 -118.5t-34 -204q0 -131 33.5 -221t94.5 -136.5t142 -46.5zM509 -20q-127 0 -225.5 57t-153.5 158t-55 232q0 134 57.5 239t157 165t224.5 60
q129 0 226.5 -57t153 -157.5t55.5 -232.5q0 -134 -58 -239t-157.5 -165t-224.5 -60zM329 1081q-49 0 -79.5 31.5t-30.5 76.5t30.5 76.5t79.5 31.5q48 0 78.5 -31.5t30.5 -76.5t-30.5 -76.5t-78.5 -31.5zM695 1081q-48 0 -78.5 31.5t-30.5 76.5t30.5 76.5t78.5 31.5
q49 0 79.5 -31.5t30.5 -76.5t-30.5 -76.5t-79.5 -31.5z" />
    <glyph glyph-name="omacron" unicode="&#x14d;" horiz-adv-x="1023" 
d="M514 53q78 0 137.5 38.5t93.5 119t34 203.5q0 132 -33.5 221.5t-94 136t-142.5 46.5q-78 0 -137.5 -38.5t-93.5 -118.5t-34 -204q0 -131 33.5 -221t94.5 -136.5t142 -46.5zM509 -20q-127 0 -225.5 57t-153.5 158t-55 232q0 134 57.5 239t157 165t224.5 60
q129 0 226.5 -57t153 -157.5t55.5 -232.5q0 -134 -58 -239t-157.5 -165t-224.5 -60zM258 1138v102h508v-102h-508z" />
    <glyph glyph-name="obreve" unicode="&#x14f;" horiz-adv-x="1023" 
d="M514 53q78 0 137.5 38.5t93.5 119t34 203.5q0 132 -33.5 221.5t-94 136t-142.5 46.5q-78 0 -137.5 -38.5t-93.5 -118.5t-34 -204q0 -131 33.5 -221t94.5 -136.5t142 -46.5zM509 -20q-127 0 -225.5 57t-153.5 158t-55 232q0 134 57.5 239t157 165t224.5 60
q129 0 226.5 -57t153 -157.5t55.5 -232.5q0 -134 -58 -239t-157.5 -165t-224.5 -60zM512 1148q55 0 98.5 22t74.5 67.5t45 116.5h59q-25 -130 -60 -204t-87.5 -105.5t-129.5 -31.5t-129 31.5t-87.5 105.5t-60.5 204h59q14 -71 45 -116.5t75 -67.5t98 -22z" />
    <glyph glyph-name="ohungarumlaut" unicode="&#x151;" horiz-adv-x="1023" 
d="M514 53q78 0 137.5 38.5t93.5 119t34 203.5q0 132 -33.5 221.5t-94 136t-142.5 46.5q-78 0 -137.5 -38.5t-93.5 -118.5t-34 -204q0 -131 33.5 -221t94.5 -136.5t142 -46.5zM509 -20q-127 0 -225.5 57t-153.5 158t-55 232q0 134 57.5 239t157 165t224.5 60
q129 0 226.5 -57t153 -157.5t55.5 -232.5q0 -134 -58 -239t-157.5 -165t-224.5 -60zM584 1023l150 331h210v-19l-297 -312h-63zM344 1023l73 331h195v-19l-217 -312h-51z" />
    <glyph glyph-name="ohorn" unicode="&#x1a1;" horiz-adv-x="1046" 
d="M514 53q78 0 137.5 38.5t93.5 119t34 203.5q0 132 -33.5 221.5t-94 136t-142.5 46.5q-78 0 -137.5 -38.5t-93.5 -118.5t-34 -204q0 -131 33.5 -221t94.5 -136.5t142 -46.5zM1009 998q0 -89 -58 -144t-189 -51v17q93 -62 140 -161t47 -215q0 -134 -58 -239t-157.5 -165
t-224.5 -60q-127 0 -225.5 57t-153.5 158t-55 232q0 134 57.5 239t157 165t224.5 60q53 0 90.5 -6.5t70 -13t68.5 -6.5q64 0 89.5 21.5t25.5 53.5q0 27 -6.5 42.5t-13 29t-6.5 34.5q0 29 21.5 48t54.5 19q48 0 74.5 -31t26.5 -84z" />
    <glyph glyph-name="uni01EB" unicode="&#x1eb;" horiz-adv-x="1023" 
d="M514 53q78 0 137.5 38.5t93.5 119t34 203.5q0 132 -33.5 221.5t-94 136t-142.5 46.5q-78 0 -137.5 -38.5t-93.5 -118.5t-34 -204q0 -131 33.5 -221t94.5 -136.5t142 -46.5zM509 -20q-127 0 -225.5 57t-153.5 158t-55 232q0 134 57.5 239t157 165t224.5 60
q129 0 226.5 -57t153 -157.5t55.5 -232.5q0 -134 -58 -239t-157.5 -165t-224.5 -60zM516 -125q-20 -43 -32 -77.5t-17 -63t-5 -53.5q0 -50 30 -77t77 -27q31 0 65.5 16.5t84.5 66.5l27 -26q-58 -84 -113.5 -120.5t-120.5 -36.5q-74 0 -121 44.5t-47 120.5q0 31 8 64.5
t28.5 75t57.5 97.5l109 162h51z" />
    <glyph glyph-name="uni020D" unicode="&#x20d;" horiz-adv-x="1023" 
d="M514 53q78 0 137.5 38.5t93.5 119t34 203.5q0 132 -33.5 221.5t-94 136t-142.5 46.5q-78 0 -137.5 -38.5t-93.5 -118.5t-34 -204q0 -131 33.5 -221t94.5 -136.5t142 -46.5zM509 -20q-127 0 -225.5 57t-153.5 158t-55 232q0 134 57.5 239t157 165t224.5 60
q129 0 226.5 -57t153 -157.5t55.5 -232.5q0 -134 -58 -239t-157.5 -165t-224.5 -60zM440 1023h-63l-297 312v19h210zM680 1023h-51l-217 312v19h195z" />
    <glyph glyph-name="uni020F" unicode="&#x20f;" horiz-adv-x="1023" 
d="M514 53q78 0 137.5 38.5t93.5 119t34 203.5q0 132 -33.5 221.5t-94 136t-142.5 46.5q-78 0 -137.5 -38.5t-93.5 -118.5t-34 -204q0 -131 33.5 -221t94.5 -136.5t142 -46.5zM509 -20q-127 0 -225.5 57t-153.5 158t-55 232q0 134 57.5 239t157 165t224.5 60
q129 0 226.5 -57t153 -157.5t55.5 -232.5q0 -134 -58 -239t-157.5 -165t-224.5 -60zM512 1230q-54 0 -98 -22.5t-75 -67.5t-45 -117h-59q25 131 60.5 204.5t87.5 105t129 31.5t129.5 -31.5t87.5 -105t60 -204.5h-59q-14 72 -45 117t-74.5 67.5t-98.5 22.5z" />
    <glyph glyph-name="uni022B" unicode="&#x22b;" horiz-adv-x="1023" 
d="M514 53q78 0 137.5 38.5t93.5 119t34 203.5q0 132 -33.5 221.5t-94 136t-142.5 46.5q-78 0 -137.5 -38.5t-93.5 -118.5t-34 -204q0 -131 33.5 -221t94.5 -136.5t142 -46.5zM509 -20q-127 0 -225.5 57t-153.5 158t-55 232q0 134 57.5 239t157 165t224.5 60
q129 0 226.5 -57t153 -157.5t55.5 -232.5q0 -134 -58 -239t-157.5 -165t-224.5 -60zM329 1081q-49 0 -79.5 31.5t-30.5 76.5t30.5 76.5t79.5 31.5q48 0 78.5 -31.5t30.5 -76.5t-30.5 -76.5t-78.5 -31.5zM695 1081q-48 0 -78.5 31.5t-30.5 76.5t30.5 76.5t78.5 31.5
q49 0 79.5 -31.5t30.5 -76.5t-30.5 -76.5t-79.5 -31.5zM258 1535v102h508v-102h-508z" />
    <glyph glyph-name="uni022D" unicode="&#x22d;" horiz-adv-x="1023" 
d="M514 53q78 0 137.5 38.5t93.5 119t34 203.5q0 132 -33.5 221.5t-94 136t-142.5 46.5q-78 0 -137.5 -38.5t-93.5 -118.5t-34 -204q0 -131 33.5 -221t94.5 -136.5t142 -46.5zM509 -20q-127 0 -225.5 57t-153.5 158t-55 232q0 134 57.5 239t157 165t224.5 60
q129 0 226.5 -57t153 -157.5t55.5 -232.5q0 -134 -58 -239t-157.5 -165t-224.5 -60zM785 1339q-18 -112 -36 -180.5t-45.5 -99.5t-74.5 -31q-45 0 -78.5 27t-61 63t-54 63t-55.5 27q-15 0 -28.5 -13.5t-26 -50t-26.5 -106.5h-62q19 114 37 181.5t46 98.5t74 31
q45 0 78.5 -27t60.5 -62.5t53.5 -63t56.5 -27.5q15 0 28 13.5t26 50t27 106.5h61zM258 1535v102h508v-102h-508z" />
    <glyph glyph-name="uni0231" unicode="&#x231;" horiz-adv-x="1023" 
d="M514 53q78 0 137.5 38.5t93.5 119t34 203.5q0 132 -33.5 221.5t-94 136t-142.5 46.5q-78 0 -137.5 -38.5t-93.5 -118.5t-34 -204q0 -131 33.5 -221t94.5 -136.5t142 -46.5zM509 -20q-127 0 -225.5 57t-153.5 158t-55 232q0 134 57.5 239t157 165t224.5 60
q129 0 226.5 -57t153 -157.5t55.5 -232.5q0 -134 -58 -239t-157.5 -165t-224.5 -60zM512 1073q-52 0 -84.5 34t-32.5 82q0 49 32.5 82.5t84.5 33.5q53 0 85 -33.5t32 -82.5q0 -48 -32 -82t-85 -34zM258 1535v102h508v-102h-508z" />
    <glyph glyph-name="uni1ECD" unicode="&#x1ecd;" horiz-adv-x="1023" 
d="M514 53q78 0 137.5 38.5t93.5 119t34 203.5q0 132 -33.5 221.5t-94 136t-142.5 46.5q-78 0 -137.5 -38.5t-93.5 -118.5t-34 -204q0 -131 33.5 -221t94.5 -136.5t142 -46.5zM509 -20q-127 0 -225.5 57t-153.5 158t-55 232q0 134 57.5 239t157 165t224.5 60
q129 0 226.5 -57t153 -157.5t55.5 -232.5q0 -134 -58 -239t-157.5 -165t-224.5 -60zM512 -367q-52 0 -84.5 34t-32.5 82q0 49 32.5 82.5t84.5 33.5q53 0 85 -33.5t32 -82.5q0 -48 -32 -82t-85 -34z" />
    <glyph glyph-name="uni1ECF" unicode="&#x1ecf;" horiz-adv-x="1023" 
d="M514 53q78 0 137.5 38.5t93.5 119t34 203.5q0 132 -33.5 221.5t-94 136t-142.5 46.5q-78 0 -137.5 -38.5t-93.5 -118.5t-34 -204q0 -131 33.5 -221t94.5 -136.5t142 -46.5zM509 -20q-127 0 -225.5 57t-153.5 158t-55 232q0 134 57.5 239t157 165t224.5 60
q129 0 226.5 -57t153 -157.5t55.5 -232.5q0 -134 -58 -239t-157.5 -165t-224.5 -60zM354 1259l29 135q94 -10 153.5 -26.5t92.5 -39.5t45.5 -52t12.5 -64q0 -41 -18.5 -79.5t-72.5 -71.5t-160 -58l-15 53q59 15 90 32t43 36.5t12 40.5q0 24 -14 42.5t-59 32t-139 19.5z" />
    <glyph glyph-name="uni1ED1" unicode="&#x1ed1;" horiz-adv-x="1023" 
d="M514 53q78 0 137.5 38.5t93.5 119t34 203.5q0 132 -33.5 221.5t-94 136t-142.5 46.5q-78 0 -137.5 -38.5t-93.5 -118.5t-34 -204q0 -131 33.5 -221t94.5 -136.5t142 -46.5zM509 -20q-127 0 -225.5 57t-153.5 158t-55 232q0 134 57.5 239t157 165t224.5 60
q129 0 226.5 -57t153 -157.5t55.5 -232.5q0 -134 -58 -239t-157.5 -165t-224.5 -60zM738 1223l101 271h215v-20l-261 -251h-55zM496 1232h32l-234 -209h-62l200 331h159l201 -331h-62z" />
    <glyph glyph-name="uni1ED3" unicode="&#x1ed3;" horiz-adv-x="1023" 
d="M514 53q78 0 137.5 38.5t93.5 119t34 203.5q0 132 -33.5 221.5t-94 136t-142.5 46.5q-78 0 -137.5 -38.5t-93.5 -118.5t-34 -204q0 -131 33.5 -221t94.5 -136.5t142 -46.5zM509 -20q-127 0 -225.5 57t-153.5 158t-55 232q0 134 57.5 239t157 165t224.5 60
q129 0 226.5 -57t153 -157.5t55.5 -232.5q0 -134 -58 -239t-157.5 -165t-224.5 -60zM286 1223h-55l-261 251v20h215zM528 1232l-234 -209h-62l201 331h159l200 -331h-62l-234 209h32z" />
    <glyph glyph-name="uni1ED5" unicode="&#x1ed5;" horiz-adv-x="1023" 
d="M514 53q78 0 137.5 38.5t93.5 119t34 203.5q0 132 -33.5 221.5t-94 136t-142.5 46.5q-78 0 -137.5 -38.5t-93.5 -118.5t-34 -204q0 -131 33.5 -221t94.5 -136.5t142 -46.5zM509 -20q-127 0 -225.5 57t-153.5 158t-55 232q0 134 57.5 239t157 165t224.5 60
q129 0 226.5 -57t153 -157.5t55.5 -232.5q0 -134 -58 -239t-157.5 -165t-224.5 -60zM528 1232l-234 -209h-62l201 331h159l200 -331h-62l-234 209h32zM743 1276q86 21 113.5 48.5t27.5 59.5q0 24 -13.5 43t-58 32.5t-136.5 20.5l30 133q93 -9 151.5 -26t90.5 -40t45 -52
t13 -64q0 -41 -18.5 -79t-71.5 -71t-159 -58z" />
    <glyph glyph-name="uni1ED7" unicode="&#x1ed7;" horiz-adv-x="1023" 
d="M514 53q78 0 137.5 38.5t93.5 119t34 203.5q0 132 -33.5 221.5t-94 136t-142.5 46.5q-78 0 -137.5 -38.5t-93.5 -118.5t-34 -204q0 -131 33.5 -221t94.5 -136.5t142 -46.5zM509 -20q-127 0 -225.5 57t-153.5 158t-55 232q0 134 57.5 239t157 165t224.5 60
q129 0 226.5 -57t153 -157.5t55.5 -232.5q0 -134 -58 -239t-157.5 -165t-224.5 -60zM528 1102l-224 -121h-70l210 238h136l210 -238h-70l-224 121h32zM313 1288h-57q17 75 34 121t41 66.5t63 20.5q30 0 63.5 -12.5t66 -29.5t61.5 -30t51 -13q27 0 44.5 17t30.5 62h57
q-17 -75 -34 -121t-40.5 -66.5t-63.5 -20.5q-30 0 -63.5 12.5t-66 29.5t-61.5 29.5t-51 12.5q-27 0 -44.5 -17t-30.5 -61z" />
    <glyph glyph-name="uni1ED9" unicode="&#x1ed9;" horiz-adv-x="1023" 
d="M514 53q78 0 137.5 38.5t93.5 119t34 203.5q0 132 -33.5 221.5t-94 136t-142.5 46.5q-78 0 -137.5 -38.5t-93.5 -118.5t-34 -204q0 -131 33.5 -221t94.5 -136.5t142 -46.5zM509 -20q-127 0 -225.5 57t-153.5 158t-55 232q0 134 57.5 239t157 165t224.5 60
q129 0 226.5 -57t153 -157.5t55.5 -232.5q0 -134 -58 -239t-157.5 -165t-224.5 -60zM232 1023l200 331h159l201 -331h-62l-234 209h32l-234 -209h-62zM512 -367q-52 0 -84.5 34t-32.5 82q0 49 32.5 82.5t84.5 33.5q53 0 85 -33.5t32 -82.5q0 -48 -32 -82t-85 -34z" />
    <glyph glyph-name="uni1EDB" unicode="&#x1edb;" horiz-adv-x="1046" 
d="M514 53q78 0 137.5 38.5t93.5 119t34 203.5q0 132 -33.5 221.5t-94 136t-142.5 46.5q-78 0 -137.5 -38.5t-93.5 -118.5t-34 -204q0 -131 33.5 -221t94.5 -136.5t142 -46.5zM1009 998q0 -89 -58 -144t-189 -51v17q93 -62 140 -161t47 -215q0 -134 -58 -239t-157.5 -165
t-224.5 -60q-127 0 -225.5 57t-153.5 158t-55 232q0 134 57.5 239t157 165t224.5 60q53 0 90.5 -6.5t70 -13t68.5 -6.5q64 0 89.5 21.5t25.5 53.5q0 27 -6.5 42.5t-13 29t-6.5 34.5q0 29 21.5 48t54.5 19q48 0 74.5 -31t26.5 -84zM456 1023l156 331h214v-19l-311 -312h-59z
" />
    <glyph glyph-name="uni1EDD" unicode="&#x1edd;" horiz-adv-x="1046" 
d="M514 53q78 0 137.5 38.5t93.5 119t34 203.5q0 132 -33.5 221.5t-94 136t-142.5 46.5q-78 0 -137.5 -38.5t-93.5 -118.5t-34 -204q0 -131 33.5 -221t94.5 -136.5t142 -46.5zM1009 998q0 -89 -58 -144t-189 -51v17q93 -62 140 -161t47 -215q0 -134 -58 -239t-157.5 -165
t-224.5 -60q-127 0 -225.5 57t-153.5 158t-55 232q0 134 57.5 239t157 165t224.5 60q53 0 90.5 -6.5t70 -13t68.5 -6.5q64 0 89.5 21.5t25.5 53.5q0 27 -6.5 42.5t-13 29t-6.5 34.5q0 29 21.5 48t54.5 19q48 0 74.5 -31t26.5 -84zM570 1023h-59l-311 312v19h214z" />
    <glyph glyph-name="uni1EDF" unicode="&#x1edf;" horiz-adv-x="1046" 
d="M514 53q78 0 137.5 38.5t93.5 119t34 203.5q0 132 -33.5 221.5t-94 136t-142.5 46.5q-78 0 -137.5 -38.5t-93.5 -118.5t-34 -204q0 -131 33.5 -221t94.5 -136.5t142 -46.5zM1009 998q0 -89 -58 -144t-189 -51v17q93 -62 140 -161t47 -215q0 -134 -58 -239t-157.5 -165
t-224.5 -60q-127 0 -225.5 57t-153.5 158t-55 232q0 134 57.5 239t157 165t224.5 60q53 0 90.5 -6.5t70 -13t68.5 -6.5q64 0 89.5 21.5t25.5 53.5q0 27 -6.5 42.5t-13 29t-6.5 34.5q0 29 21.5 48t54.5 19q48 0 74.5 -31t26.5 -84zM355 1259l29 135q94 -10 153.5 -26.5
t92.5 -39.5t45.5 -52t12.5 -64q0 -41 -18.5 -79.5t-72.5 -71.5t-160 -58l-15 53q59 15 90 32t43 36.5t12 40.5q0 24 -14 42.5t-59 32t-139 19.5z" />
    <glyph glyph-name="uni1EE1" unicode="&#x1ee1;" horiz-adv-x="1046" 
d="M514 53q78 0 137.5 38.5t93.5 119t34 203.5q0 132 -33.5 221.5t-94 136t-142.5 46.5q-78 0 -137.5 -38.5t-93.5 -118.5t-34 -204q0 -131 33.5 -221t94.5 -136.5t142 -46.5zM1009 998q0 -89 -58 -144t-189 -51v17q93 -62 140 -161t47 -215q0 -134 -58 -239t-157.5 -165
t-224.5 -60q-127 0 -225.5 57t-153.5 158t-55 232q0 134 57.5 239t157 165t224.5 60q53 0 90.5 -6.5t70 -13t68.5 -6.5q64 0 89.5 21.5t25.5 53.5q0 27 -6.5 42.5t-13 29t-6.5 34.5q0 29 21.5 48t54.5 19q48 0 74.5 -31t26.5 -84zM786 1339q-18 -112 -36 -180.5t-45.5 -99.5
t-74.5 -31q-45 0 -78.5 27t-61 63t-54 63t-55.5 27q-15 0 -28.5 -13.5t-26 -50t-26.5 -106.5h-62q19 114 37 181.5t46 98.5t74 31q45 0 78.5 -27t60.5 -62.5t53.5 -63t56.5 -27.5q15 0 28 13.5t26 50t27 106.5h61z" />
    <glyph glyph-name="uni1EE3" unicode="&#x1ee3;" horiz-adv-x="1046" 
d="M514 53q78 0 137.5 38.5t93.5 119t34 203.5q0 132 -33.5 221.5t-94 136t-142.5 46.5q-78 0 -137.5 -38.5t-93.5 -118.5t-34 -204q0 -131 33.5 -221t94.5 -136.5t142 -46.5zM1009 998q0 -89 -58 -144t-189 -51v17q93 -62 140 -161t47 -215q0 -134 -58 -239t-157.5 -165
t-224.5 -60q-127 0 -225.5 57t-153.5 158t-55 232q0 134 57.5 239t157 165t224.5 60q53 0 90.5 -6.5t70 -13t68.5 -6.5q64 0 89.5 21.5t25.5 53.5q0 27 -6.5 42.5t-13 29t-6.5 34.5q0 29 21.5 48t54.5 19q48 0 74.5 -31t26.5 -84zM513 -367q-52 0 -84.5 34t-32.5 82
q0 49 32.5 82.5t84.5 33.5q53 0 85 -33.5t32 -82.5q0 -48 -32 -82t-85 -34z" />
    <glyph glyph-name="oslash" unicode="&#xf8;" horiz-adv-x="1062" 
d="M68 0l158 169l34 26l490 538l34 35l95 103h117l-153 -163l-35 -28l-492 -541l-33 -33l-98 -106h-117zM535 53q77 0 137 38.5t94 119t34 203.5q0 132 -33.5 221.5t-94 136t-143.5 46.5q-77 0 -137 -38.5t-94 -118.5t-34 -204q0 -131 33.5 -221t94.5 -136.5t143 -46.5z
M529 -20q-127 0 -225 57t-153.5 158t-55.5 232q0 134 58 239t157 165t225 60q128 0 225.5 -57t153 -157.5t55.5 -232.5q0 -134 -58 -239t-157 -165t-225 -60z" />
    <glyph glyph-name="oslashacute" unicode="&#x1ff;" horiz-adv-x="1062" 
d="M68 0l158 169l34 26l490 538l34 35l95 103h117l-153 -163l-35 -28l-492 -541l-33 -33l-98 -106h-117zM535 53q77 0 137 38.5t94 119t34 203.5q0 132 -33.5 221.5t-94 136t-143.5 46.5q-77 0 -137 -38.5t-94 -118.5t-34 -204q0 -131 33.5 -221t94.5 -136.5t143 -46.5z
M529 -20q-127 0 -225 57t-153.5 158t-55.5 232q0 134 58 239t157 165t225 60q128 0 225.5 -57t153 -157.5t55.5 -232.5q0 -134 -58 -239t-157 -165t-225 -60zM475 1023l156 331h214v-19l-311 -312h-59z" />
    <glyph glyph-name="oe" unicode="&#x153;" horiz-adv-x="1611" 
d="M514 53q78 0 137.5 38.5t93.5 119t34 203.5q0 132 -33.5 221.5t-94 136t-142.5 46.5q-78 0 -137.5 -38.5t-93.5 -118.5t-34 -204q0 -131 33.5 -221t94.5 -136.5t142 -46.5zM886 196q-61 -106 -161.5 -161t-215.5 -55q-127 0 -225.5 57t-153.5 158t-55 232q0 134 57.5 239
t157 165t224.5 60q119 0 217.5 -53t159.5 -157h-37q56 101 146 155.5t203 54.5q98 0 169.5 -43t114.5 -125.5t53 -202.5h-618l2 66l518 21l-69 -41q-7 76 -29 132t-60.5 86.5t-97.5 30.5q-71 0 -124.5 -39t-83.5 -115t-30 -185q0 -117 43.5 -201t122 -128t184.5 -44
q40 0 78.5 10.5t75.5 31.5t71 52l24 -26q-51 -66 -104.5 -108.5t-112.5 -62.5t-128 -20q-111 0 -205.5 55t-149.5 161h39z" />
    <glyph glyph-name="racute" unicode="&#x155;" horiz-adv-x="760" 
d="M643 885q51 0 74 -24.5t23 -63.5q0 -46 -29.5 -74t-79.5 -28q-22 0 -44.5 8t-47 16t-53.5 8q-24 0 -51.5 -7t-54.5 -20t-47 -30l-20 36q61 48 110.5 81.5t90 55.5t72.5 32t57 10zM351 708v-626l156 -46v-36h-457v36l151 46v612q-13 14 -33.5 25t-49 23t-65.5 25v25
l270 100h19zM347 1023l156 331h214v-19l-311 -312h-59z" />
    <glyph glyph-name="rcaron" unicode="&#x159;" horiz-adv-x="760" 
d="M643 885q51 0 74 -24.5t23 -63.5q0 -46 -29.5 -74t-79.5 -28q-22 0 -44.5 8t-47 16t-53.5 8q-24 0 -51.5 -7t-54.5 -20t-47 -30l-20 36q61 48 110.5 81.5t90 55.5t72.5 32t57 10zM351 708v-626l156 -46v-36h-457v36l151 46v612q-13 14 -33.5 25t-49 23t-65.5 25v25
l270 100h19zM420 1145h-32l234 209h62l-200 -331h-159l-201 331h62z" />
    <glyph glyph-name="uni0157" unicode="&#x157;" horiz-adv-x="760" 
d="M643 885q51 0 74 -24.5t23 -63.5q0 -46 -29.5 -74t-79.5 -28q-22 0 -44.5 8t-47 16t-53.5 8q-24 0 -51.5 -7t-54.5 -20t-47 -30l-20 36q61 48 110.5 81.5t90 55.5t72.5 32t57 10zM351 708v-626l156 -46v-36h-457v36l151 46v612q-13 14 -33.5 25t-49 23t-65.5 25v25
l270 100h19zM150 -456q80 21 109.5 44.5t29.5 59.5q0 29 -20 47.5t-46.5 31t-46.5 24.5t-20 27q0 51 34 84t89 33t93.5 -39.5t38.5 -113.5q0 -60 -20.5 -111t-72.5 -90t-149 -60z" />
    <glyph glyph-name="uni0211" unicode="&#x211;" horiz-adv-x="760" 
d="M643 885q51 0 74 -24.5t23 -63.5q0 -46 -29.5 -74t-79.5 -28q-22 0 -44.5 8t-47 16t-53.5 8q-24 0 -51.5 -7t-54.5 -20t-47 -30l-20 36q61 48 110.5 81.5t90 55.5t72.5 32t57 10zM351 708v-626l156 -46v-36h-457v36l151 46v612q-13 14 -33.5 25t-49 23t-65.5 25v25
l270 100h19zM332 1023h-63l-297 312v19h210zM572 1023h-51l-217 312v19h195z" />
    <glyph glyph-name="uni0213" unicode="&#x213;" horiz-adv-x="760" 
d="M643 885q51 0 74 -24.5t23 -63.5q0 -46 -29.5 -74t-79.5 -28q-22 0 -44.5 8t-47 16t-53.5 8q-24 0 -51.5 -7t-54.5 -20t-47 -30l-20 36q61 48 110.5 81.5t90 55.5t72.5 32t57 10zM351 708v-626l156 -46v-36h-457v36l151 46v612q-13 14 -33.5 25t-49 23t-65.5 25v25
l270 100h19zM404 1230q-54 0 -98 -22.5t-75 -67.5t-45 -117h-59q25 131 60.5 204.5t87.5 105t129 31.5t129.5 -31.5t87.5 -105t60 -204.5h-59q-14 72 -45 117t-74.5 67.5t-98.5 22.5z" />
    <glyph glyph-name="sacute" unicode="&#x15b;" horiz-adv-x="722" 
d="M390 891q58 0 105 -11.5t105 -40.5l16 -240h-41l-102 246l69 -84q-39 32 -73.5 47.5t-78.5 15.5q-76 0 -120 -34t-44 -94q0 -49 25.5 -80t70.5 -55t101 -49q42 -19 81 -42t68.5 -54t47.5 -73t18 -101q0 -83 -42 -142t-113 -89.5t-162 -30.5q-60 0 -107 9t-94 30l-46 249
h46l137 -258l-114 76q37 -18 63 -27.5t48 -12.5t45 -3q94 0 150.5 39t56.5 117q0 42 -18.5 70.5t-50.5 49.5t-71 39.5t-79 37.5q-54 26 -95.5 58.5t-65.5 80.5t-24 117q0 76 38 129t103.5 81.5t146.5 28.5zM310 1023l156 331h214v-19l-311 -312h-59z" />
    <glyph glyph-name="scircumflex" unicode="&#x15d;" horiz-adv-x="722" 
d="M390 891q58 0 105 -11.5t105 -40.5l16 -240h-41l-102 246l69 -84q-39 32 -73.5 47.5t-78.5 15.5q-76 0 -120 -34t-44 -94q0 -49 25.5 -80t70.5 -55t101 -49q42 -19 81 -42t68.5 -54t47.5 -73t18 -101q0 -83 -42 -142t-113 -89.5t-162 -30.5q-60 0 -107 9t-94 30l-46 249
h46l137 -258l-114 76q37 -18 63 -27.5t48 -12.5t45 -3q94 0 150.5 39t56.5 117q0 42 -18.5 70.5t-50.5 49.5t-71 39.5t-79 37.5q-54 26 -95.5 58.5t-65.5 80.5t-24 117q0 76 38 129t103.5 81.5t146.5 28.5zM87 1023l200 331h159l201 -331h-62l-234 209h32l-234 -209h-62z
" />
    <glyph glyph-name="scedilla" unicode="&#x15f;" horiz-adv-x="722" 
d="M390 891q58 0 105 -11.5t105 -40.5l16 -240h-41l-102 246l69 -84q-39 32 -73.5 47.5t-78.5 15.5q-76 0 -120 -34t-44 -94q0 -49 25.5 -80t70.5 -55t101 -49q42 -19 81 -42t68.5 -54t47.5 -73t18 -101q0 -83 -42 -142t-113 -89.5t-162 -30.5q-60 0 -107 9t-94 30l-46 249
h46l137 -258l-114 76q37 -18 63 -27.5t48 -12.5t45 -3q94 0 150.5 39t56.5 117q0 42 -18.5 70.5t-50.5 49.5t-71 39.5t-79 37.5q-54 26 -95.5 58.5t-65.5 80.5t-24 117q0 76 38 129t103.5 81.5t146.5 28.5zM271 -523q-72 0 -103 25.5t-31 57.5q0 22 14.5 35.5t37.5 13.5
q27 0 44.5 -15.5t37.5 -32t54 -16.5q46 0 75.5 26.5t29.5 71.5q0 35 -22 60.5t-72 42.5t-137 28v17l198 256h73l-190 -262v92q94 -16 147 -43.5t74.5 -63t21.5 -76.5q0 -64 -36 -113t-93.5 -76.5t-122.5 -27.5z" />
    <glyph glyph-name="scaron" unicode="&#x161;" horiz-adv-x="722" 
d="M390 891q58 0 105 -11.5t105 -40.5l16 -240h-41l-102 246l69 -84q-39 32 -73.5 47.5t-78.5 15.5q-76 0 -120 -34t-44 -94q0 -49 25.5 -80t70.5 -55t101 -49q42 -19 81 -42t68.5 -54t47.5 -73t18 -101q0 -83 -42 -142t-113 -89.5t-162 -30.5q-60 0 -107 9t-94 30l-46 249
h46l137 -258l-114 76q37 -18 63 -27.5t48 -12.5t45 -3q94 0 150.5 39t56.5 117q0 42 -18.5 70.5t-50.5 49.5t-71 39.5t-79 37.5q-54 26 -95.5 58.5t-65.5 80.5t-24 117q0 76 38 129t103.5 81.5t146.5 28.5zM383 1145h-32l234 209h62l-200 -331h-159l-201 331h62z" />
    <glyph glyph-name="uni0219" unicode="&#x219;" horiz-adv-x="722" 
d="M390 891q58 0 105 -11.5t105 -40.5l16 -240h-41l-102 246l69 -84q-39 32 -73.5 47.5t-78.5 15.5q-76 0 -120 -34t-44 -94q0 -49 25.5 -80t70.5 -55t101 -49q42 -19 81 -42t68.5 -54t47.5 -73t18 -101q0 -83 -42 -142t-113 -89.5t-162 -30.5q-60 0 -107 9t-94 30l-46 249
h46l137 -258l-114 76q37 -18 63 -27.5t48 -12.5t45 -3q94 0 150.5 39t56.5 117q0 42 -18.5 70.5t-50.5 49.5t-71 39.5t-79 37.5q-54 26 -95.5 58.5t-65.5 80.5t-24 117q0 76 38 129t103.5 81.5t146.5 28.5zM243 -456q80 21 109.5 44.5t29.5 59.5q0 29 -20 47.5t-46.5 31
t-46.5 24.5t-20 27q0 51 34 84t89 33t93.5 -39.5t38.5 -113.5q0 -60 -20.5 -111t-72.5 -90t-149 -60z" />
    <glyph glyph-name="germandbls" unicode="&#xdf;" horiz-adv-x="1198" 
d="M208 901q0 137 40.5 236t109 163t156.5 95t182 31q75 0 135 -18t103 -50.5t65.5 -75t22.5 -91.5q0 -62 -30 -108.5t-75 -84t-90.5 -72.5t-75.5 -76t-30 -96q0 -47 30 -78.5t76.5 -56t99.5 -51t100 -63.5t76.5 -92.5t29.5 -139.5q0 -90 -41.5 -155.5t-113.5 -101.5
t-164 -36q-65 0 -116.5 8.5t-99.5 28.5l-46 247h45l136 -254l-112 73q58 -29 94.5 -34.5t75.5 -5.5q97 0 156.5 47t59.5 137q0 63 -30.5 103.5t-78.5 68.5t-102 53t-102.5 56t-79 77t-30.5 118q0 62 29.5 108t73 84t87 76.5t73 85.5t29.5 111q0 48 -24.5 89t-74 66.5
t-124.5 25.5q-94 0 -159.5 -43.5t-100.5 -127t-35 -204.5v-892l118 -46v-36h-419v36l151 46v819zM223 872l-14 -118l-171 26v31z" />
    <glyph glyph-name="uni0163" unicode="&#x163;" horiz-adv-x="652" 
d="M311 242q0 -67 41 -101t116 -34q36 0 78 7t92 22v-45q-62 -43 -107 -66.5t-81 -32.5t-71 -9q-65 0 -114 25t-76.5 74.5t-27.5 122.5v532l-110 75v18q20 15 41.5 31t44 33t46 35t48.5 37t51 39h29v-165v-598zM253 777v94h356l-16 -94h-340zM274 -523q-72 0 -103 25.5
t-31 57.5q0 22 14.5 35.5t37.5 13.5q26 0 43.5 -15.5t37.5 -32t54 -16.5q47 0 76 26.5t29 71.5q0 35 -21.5 60.5t-72 42.5t-136.5 28v17l198 256h73l-190 -262v92q93 -16 146 -43.5t75 -63t22 -76.5q0 -64 -36.5 -113t-94 -76.5t-121.5 -27.5z" />
    <glyph glyph-name="tcaron" unicode="&#x165;" horiz-adv-x="652" 
d="M311 242q0 -67 41 -101t116 -34q36 0 78 7t92 22v-45q-62 -43 -107 -66.5t-81 -32.5t-71 -9q-65 0 -114 25t-76.5 74.5t-27.5 122.5v532l-110 75v18q20 15 41.5 31t44 33t46 35t48.5 37t51 39h29v-165v-598zM253 777v94h356l-16 -94h-340zM407 978l46 363h187v-19
l-173 -344h-60z" />
    <glyph glyph-name="tbar" unicode="&#x167;" horiz-adv-x="660" 
d="M37 425v89h522v-89h-522zM317 242q0 -67 41.5 -101t116.5 -34q36 0 77.5 7t91.5 22v-45q-62 -43 -107 -66.5t-80.5 -32.5t-70.5 -9q-65 0 -114.5 25t-77 74.5t-27.5 122.5v532l-110 75v18q21 15 42 31t44 33t46.5 35t48.5 37t51 39h28v-165v-598zM260 777v94h355l-16 -94
h-339z" />
    <glyph glyph-name="uni021B" unicode="&#x21b;" horiz-adv-x="652" 
d="M311 242q0 -67 41 -101t116 -34q36 0 78 7t92 22v-45q-62 -43 -107 -66.5t-81 -32.5t-71 -9q-65 0 -114 25t-76.5 74.5t-27.5 122.5v532l-110 75v18q20 15 41.5 31t44 33t46 35t48.5 37t51 39h29v-165v-598zM253 777v94h356l-16 -94h-340zM237 -456q80 21 109.5 44.5
t29.5 59.5q0 29 -20 47.5t-46.5 31t-46.5 24.5t-20 27q0 51 34 84t89 33t93.5 -39.5t38.5 -113.5q0 -60 -20.5 -111t-72.5 -90t-149 -60z" />
    <glyph glyph-name="ugrave" unicode="&#xf9;" horiz-adv-x="1037" 
d="M319 286q0 -62 17.5 -98.5t59 -53t112.5 -16.5q69 0 133.5 26t91.5 65l36 -37q-53 -54 -98 -91t-86.5 -59.5t-84.5 -32t-92 -9.5q-123 0 -181 77t-58 231v487l-146 57v39l305 14l-9 -108v-491zM730 -17l-14 183v609l-146 57v39l308 14l-10 -108v-641q9 -10 24.5 -19
t34 -18t37 -15.5t34.5 -9.5v-29l-250 -62h-18zM560 1023h-59l-311 312v19h214z" />
    <glyph glyph-name="uacute" unicode="&#xfa;" horiz-adv-x="1037" 
d="M319 286q0 -62 17.5 -98.5t59 -53t112.5 -16.5q69 0 133.5 26t91.5 65l36 -37q-53 -54 -98 -91t-86.5 -59.5t-84.5 -32t-92 -9.5q-123 0 -181 77t-58 231v487l-146 57v39l305 14l-9 -108v-491zM730 -17l-14 183v609l-146 57v39l308 14l-10 -108v-641q9 -10 24.5 -19
t34 -18t37 -15.5t34.5 -9.5v-29l-250 -62h-18zM446 1023l156 331h214v-19l-311 -312h-59z" />
    <glyph glyph-name="ucircumflex" unicode="&#xfb;" horiz-adv-x="1037" 
d="M319 286q0 -62 17.5 -98.5t59 -53t112.5 -16.5q69 0 133.5 26t91.5 65l36 -37q-53 -54 -98 -91t-86.5 -59.5t-84.5 -32t-92 -9.5q-123 0 -181 77t-58 231v487l-146 57v39l305 14l-9 -108v-491zM730 -17l-14 183v609l-146 57v39l308 14l-10 -108v-641q9 -10 24.5 -19
t34 -18t37 -15.5t34.5 -9.5v-29l-250 -62h-18zM223 1023l200 331h159l201 -331h-62l-234 209h32l-234 -209h-62z" />
    <glyph glyph-name="udieresis" unicode="&#xfc;" horiz-adv-x="1037" 
d="M319 286q0 -62 17.5 -98.5t59 -53t112.5 -16.5q69 0 133.5 26t91.5 65l36 -37q-53 -54 -98 -91t-86.5 -59.5t-84.5 -32t-92 -9.5q-123 0 -181 77t-58 231v487l-146 57v39l305 14l-9 -108v-491zM730 -17l-14 183v609l-146 57v39l308 14l-10 -108v-641q9 -10 24.5 -19
t34 -18t37 -15.5t34.5 -9.5v-29l-250 -62h-18zM320 1081q-49 0 -79.5 31.5t-30.5 76.5t30.5 76.5t79.5 31.5q48 0 78.5 -31.5t30.5 -76.5t-30.5 -76.5t-78.5 -31.5zM686 1081q-48 0 -78.5 31.5t-30.5 76.5t30.5 76.5t78.5 31.5q49 0 79.5 -31.5t30.5 -76.5t-30.5 -76.5
t-79.5 -31.5z" />
    <glyph glyph-name="utilde" unicode="&#x169;" horiz-adv-x="1037" 
d="M319 286q0 -62 17.5 -98.5t59 -53t112.5 -16.5q69 0 133.5 26t91.5 65l36 -37q-53 -54 -98 -91t-86.5 -59.5t-84.5 -32t-92 -9.5q-123 0 -181 77t-58 231v487l-146 57v39l305 14l-9 -108v-491zM730 -17l-14 183v609l-146 57v39l308 14l-10 -108v-641q9 -10 24.5 -19
t34 -18t37 -15.5t34.5 -9.5v-29l-250 -62h-18zM776 1339q-18 -112 -36 -180.5t-45.5 -99.5t-74.5 -31q-45 0 -78.5 27t-61 63t-54 63t-55.5 27q-15 0 -28.5 -13.5t-26 -50t-26.5 -106.5h-62q19 114 37 181.5t46 98.5t74 31q45 0 78.5 -27t60.5 -62.5t53.5 -63t56.5 -27.5
q15 0 28 13.5t26 50t27 106.5h61z" />
    <glyph glyph-name="umacron" unicode="&#x16b;" horiz-adv-x="1037" 
d="M319 286q0 -62 17.5 -98.5t59 -53t112.5 -16.5q69 0 133.5 26t91.5 65l36 -37q-53 -54 -98 -91t-86.5 -59.5t-84.5 -32t-92 -9.5q-123 0 -181 77t-58 231v487l-146 57v39l305 14l-9 -108v-491zM730 -17l-14 183v609l-146 57v39l308 14l-10 -108v-641q9 -10 24.5 -19
t34 -18t37 -15.5t34.5 -9.5v-29l-250 -62h-18zM249 1138v102h508v-102h-508z" />
    <glyph glyph-name="ubreve" unicode="&#x16d;" horiz-adv-x="1037" 
d="M319 286q0 -62 17.5 -98.5t59 -53t112.5 -16.5q69 0 133.5 26t91.5 65l36 -37q-53 -54 -98 -91t-86.5 -59.5t-84.5 -32t-92 -9.5q-123 0 -181 77t-58 231v487l-146 57v39l305 14l-9 -108v-491zM730 -17l-14 183v609l-146 57v39l308 14l-10 -108v-641q9 -10 24.5 -19
t34 -18t37 -15.5t34.5 -9.5v-29l-250 -62h-18zM503 1148q55 0 98.5 22t74.5 67.5t45 116.5h59q-25 -130 -60 -204t-87.5 -105.5t-129.5 -31.5t-129 31.5t-87.5 105.5t-60.5 204h59q14 -71 45 -116.5t75 -67.5t98 -22z" />
    <glyph glyph-name="uring" unicode="&#x16f;" horiz-adv-x="1037" 
d="M319 286q0 -62 17.5 -98.5t59 -53t112.5 -16.5q69 0 133.5 26t91.5 65l36 -37q-53 -54 -98 -91t-86.5 -59.5t-84.5 -32t-92 -9.5q-123 0 -181 77t-58 231v487l-146 57v39l305 14l-9 -108v-491zM730 -17l-14 183v609l-146 57v39l308 14l-10 -108v-641q9 -10 24.5 -19
t34 -18t37 -15.5t34.5 -9.5v-29l-250 -62h-18zM503 1365q77 0 127.5 -50t50.5 -126t-50.5 -126t-127.5 -50q-76 0 -127 50t-51 126t51 126t127 50zM503 1072q50 0 82.5 33t32.5 84t-32.5 84t-82.5 33t-82.5 -33t-32.5 -84t32.5 -84t82.5 -33z" />
    <glyph glyph-name="uhungarumlaut" unicode="&#x171;" horiz-adv-x="1037" 
d="M319 286q0 -62 17.5 -98.5t59 -53t112.5 -16.5q69 0 133.5 26t91.5 65l36 -37q-53 -54 -98 -91t-86.5 -59.5t-84.5 -32t-92 -9.5q-123 0 -181 77t-58 231v487l-146 57v39l305 14l-9 -108v-491zM730 -17l-14 183v609l-146 57v39l308 14l-10 -108v-641q9 -10 24.5 -19
t34 -18t37 -15.5t34.5 -9.5v-29l-250 -62h-18zM575 1023l150 331h210v-19l-297 -312h-63zM335 1023l73 331h195v-19l-217 -312h-51z" />
    <glyph glyph-name="uogonek" unicode="&#x173;" horiz-adv-x="1037" 
d="M319 286q0 -62 17.5 -98.5t59 -53t112.5 -16.5q69 0 133.5 26t91.5 65l36 -37q-53 -54 -98 -91t-86.5 -59.5t-84.5 -32t-92 -9.5q-123 0 -181 77t-58 231v487l-146 57v39l305 14l-9 -108v-491zM730 -17l-14 183v609l-146 57v39l308 14l-10 -108v-641q9 -10 24.5 -19
t34 -18t37 -15.5t34.5 -9.5v-29l-250 -62h-18zM720 -125q-21 -43 -32.5 -77.5t-16.5 -63t-5 -53.5q0 -50 30 -77t77 -27q31 0 65.5 16.5t84.5 66.5l27 -26q-39 -57 -76.5 -91t-76 -50t-81.5 -16q-74 0 -121 44.5t-47 120.5q0 31 8 64.5t28.5 75t57.5 97.5l113 170h50z" />
    <glyph glyph-name="uhorn" unicode="&#x1b0;" horiz-adv-x="1056" 
d="M319 286q0 -62 17.5 -98.5t59 -53t112.5 -16.5q69 0 133.5 26t91.5 65l36 -37q-53 -54 -98 -91t-86.5 -59.5t-84.5 -32t-92 -9.5q-123 0 -181 77t-58 231v487l-146 57v39l305 14l-9 -108v-491zM947 940q0 27 -7 42.5t-13.5 29t-6.5 34.5q0 29 22 48t55 19q47 0 73.5 -31
t26.5 -84q0 -75 -52.5 -121t-172.5 -61l-4 -39v-641q9 -10 24.5 -19t34 -18t37 -15.5t34.5 -9.5v-29l-250 -62h-18l-14 183v609l-146 57v39l203 4q111 3 142.5 20.5t31.5 44.5z" />
    <glyph glyph-name="uni0215" unicode="&#x215;" horiz-adv-x="1037" 
d="M319 286q0 -62 17.5 -98.5t59 -53t112.5 -16.5q69 0 133.5 26t91.5 65l36 -37q-53 -54 -98 -91t-86.5 -59.5t-84.5 -32t-92 -9.5q-123 0 -181 77t-58 231v487l-146 57v39l305 14l-9 -108v-491zM730 -17l-14 183v609l-146 57v39l308 14l-10 -108v-641q9 -10 24.5 -19
t34 -18t37 -15.5t34.5 -9.5v-29l-250 -62h-18zM431 1023h-63l-297 312v19h210zM671 1023h-51l-217 312v19h195z" />
    <glyph glyph-name="uni0217" unicode="&#x217;" horiz-adv-x="1037" 
d="M319 286q0 -62 17.5 -98.5t59 -53t112.5 -16.5q69 0 133.5 26t91.5 65l36 -37q-53 -54 -98 -91t-86.5 -59.5t-84.5 -32t-92 -9.5q-123 0 -181 77t-58 231v487l-146 57v39l305 14l-9 -108v-491zM730 -17l-14 183v609l-146 57v39l308 14l-10 -108v-641q9 -10 24.5 -19
t34 -18t37 -15.5t34.5 -9.5v-29l-250 -62h-18zM503 1230q-54 0 -98 -22.5t-75 -67.5t-45 -117h-59q25 131 60.5 204.5t87.5 105t129 31.5t129.5 -31.5t87.5 -105t60 -204.5h-59q-14 72 -45 117t-74.5 67.5t-98.5 22.5z" />
    <glyph glyph-name="uni1EE5" unicode="&#x1ee5;" horiz-adv-x="1037" 
d="M319 286q0 -62 17.5 -98.5t59 -53t112.5 -16.5q69 0 133.5 26t91.5 65l36 -37q-53 -54 -98 -91t-86.5 -59.5t-84.5 -32t-92 -9.5q-123 0 -181 77t-58 231v487l-146 57v39l305 14l-9 -108v-491zM730 -17l-14 183v609l-146 57v39l308 14l-10 -108v-641q9 -10 24.5 -19
t34 -18t37 -15.5t34.5 -9.5v-29l-250 -62h-18zM522 -367q-52 0 -84.5 34t-32.5 82q0 49 32.5 82.5t84.5 33.5q53 0 85 -33.5t32 -82.5q0 -48 -32 -82t-85 -34z" />
    <glyph glyph-name="uni1EE7" unicode="&#x1ee7;" horiz-adv-x="1037" 
d="M319 286q0 -62 17.5 -98.5t59 -53t112.5 -16.5q69 0 133.5 26t91.5 65l36 -37q-53 -54 -98 -91t-86.5 -59.5t-84.5 -32t-92 -9.5q-123 0 -181 77t-58 231v487l-146 57v39l305 14l-9 -108v-491zM730 -17l-14 183v609l-146 57v39l308 14l-10 -108v-641q9 -10 24.5 -19
t34 -18t37 -15.5t34.5 -9.5v-29l-250 -62h-18zM345 1259l29 135q94 -10 153.5 -26.5t92.5 -39.5t45.5 -52t12.5 -64q0 -41 -18.5 -79.5t-72.5 -71.5t-160 -58l-15 53q59 15 90 32t43 36.5t12 40.5q0 24 -14 42.5t-59 32t-139 19.5z" />
    <glyph glyph-name="uni1EE9" unicode="&#x1ee9;" horiz-adv-x="1056" 
d="M319 286q0 -62 17.5 -98.5t59 -53t112.5 -16.5q69 0 133.5 26t91.5 65l36 -37q-53 -54 -98 -91t-86.5 -59.5t-84.5 -32t-92 -9.5q-123 0 -181 77t-58 231v487l-146 57v39l305 14l-9 -108v-491zM947 940q0 27 -7 42.5t-13.5 29t-6.5 34.5q0 29 22 48t55 19q47 0 73.5 -31
t26.5 -84q0 -75 -52.5 -121t-172.5 -61l-4 -39v-641q9 -10 24.5 -19t34 -18t37 -15.5t34.5 -9.5v-29l-250 -62h-18l-14 183v609l-146 57v39l203 4q111 3 142.5 20.5t31.5 44.5zM446 1023l156 331h214v-19l-311 -312h-59z" />
    <glyph glyph-name="uni1EEB" unicode="&#x1eeb;" horiz-adv-x="1056" 
d="M319 286q0 -62 17.5 -98.5t59 -53t112.5 -16.5q69 0 133.5 26t91.5 65l36 -37q-53 -54 -98 -91t-86.5 -59.5t-84.5 -32t-92 -9.5q-123 0 -181 77t-58 231v487l-146 57v39l305 14l-9 -108v-491zM947 940q0 27 -7 42.5t-13.5 29t-6.5 34.5q0 29 22 48t55 19q47 0 73.5 -31
t26.5 -84q0 -75 -52.5 -121t-172.5 -61l-4 -39v-641q9 -10 24.5 -19t34 -18t37 -15.5t34.5 -9.5v-29l-250 -62h-18l-14 183v609l-146 57v39l203 4q111 3 142.5 20.5t31.5 44.5zM560 1023h-59l-311 312v19h214z" />
    <glyph glyph-name="uni1EED" unicode="&#x1eed;" horiz-adv-x="1056" 
d="M319 286q0 -62 17.5 -98.5t59 -53t112.5 -16.5q69 0 133.5 26t91.5 65l36 -37q-53 -54 -98 -91t-86.5 -59.5t-84.5 -32t-92 -9.5q-123 0 -181 77t-58 231v487l-146 57v39l305 14l-9 -108v-491zM947 940q0 27 -7 42.5t-13.5 29t-6.5 34.5q0 29 22 48t55 19q47 0 73.5 -31
t26.5 -84q0 -75 -52.5 -121t-172.5 -61l-4 -39v-641q9 -10 24.5 -19t34 -18t37 -15.5t34.5 -9.5v-29l-250 -62h-18l-14 183v609l-146 57v39l203 4q111 3 142.5 20.5t31.5 44.5zM345 1259l29 135q94 -10 153.5 -26.5t92.5 -39.5t45.5 -52t12.5 -64q0 -41 -18.5 -79.5
t-72.5 -71.5t-160 -58l-15 53q59 15 90 32t43 36.5t12 40.5q0 24 -14 42.5t-59 32t-139 19.5z" />
    <glyph glyph-name="uni1EEF" unicode="&#x1eef;" horiz-adv-x="1056" 
d="M319 286q0 -62 17.5 -98.5t59 -53t112.5 -16.5q69 0 133.5 26t91.5 65l36 -37q-53 -54 -98 -91t-86.5 -59.5t-84.5 -32t-92 -9.5q-123 0 -181 77t-58 231v487l-146 57v39l305 14l-9 -108v-491zM947 940q0 27 -7 42.5t-13.5 29t-6.5 34.5q0 29 22 48t55 19q47 0 73.5 -31
t26.5 -84q0 -75 -52.5 -121t-172.5 -61l-4 -39v-641q9 -10 24.5 -19t34 -18t37 -15.5t34.5 -9.5v-29l-250 -62h-18l-14 183v609l-146 57v39l203 4q111 3 142.5 20.5t31.5 44.5zM776 1339q-18 -112 -36 -180.5t-45.5 -99.5t-74.5 -31q-45 0 -78.5 27t-61 63t-54 63t-55.5 27
q-15 0 -28.5 -13.5t-26 -50t-26.5 -106.5h-62q19 114 37 181.5t46 98.5t74 31q45 0 78.5 -27t60.5 -62.5t53.5 -63t56.5 -27.5q15 0 28 13.5t26 50t27 106.5h61z" />
    <glyph glyph-name="uni1EF1" unicode="&#x1ef1;" horiz-adv-x="1056" 
d="M319 286q0 -62 17.5 -98.5t59 -53t112.5 -16.5q69 0 133.5 26t91.5 65l36 -37q-53 -54 -98 -91t-86.5 -59.5t-84.5 -32t-92 -9.5q-123 0 -181 77t-58 231v487l-146 57v39l305 14l-9 -108v-491zM947 940q0 27 -7 42.5t-13.5 29t-6.5 34.5q0 29 22 48t55 19q47 0 73.5 -31
t26.5 -84q0 -75 -52.5 -121t-172.5 -61l-4 -39v-641q9 -10 24.5 -19t34 -18t37 -15.5t34.5 -9.5v-29l-250 -62h-18l-14 183v609l-146 57v39l203 4q111 3 142.5 20.5t31.5 44.5zM522 -367q-52 0 -84.5 34t-32.5 82q0 49 32.5 82.5t84.5 33.5q53 0 85 -33.5t32 -82.5
q0 -48 -32 -82t-85 -34z" />
    <glyph glyph-name="wcircumflex" unicode="&#x175;" horiz-adv-x="1445" 
d="M1232 793l-132 36v42h324v-42l-109 -36l-260 -814h-45l-308 712h39l-297 -712h-46l-270 804l-124 46v42h413v-42l-131 -41l202 -613l-38 -4l294 721h34l309 -715l-38 -6zM469 1023l200 331h159l201 -331h-62l-234 209h32l-234 -209h-62z" />
    <glyph glyph-name="wgrave" unicode="&#x1e81;" horiz-adv-x="1445" 
d="M1232 793l-132 36v42h324v-42l-109 -36l-260 -814h-45l-308 712h39l-297 -712h-46l-270 804l-124 46v42h413v-42l-131 -41l202 -613l-38 -4l294 721h34l309 -715l-38 -6zM806 1023h-59l-311 312v19h214z" />
    <glyph glyph-name="wacute" unicode="&#x1e83;" horiz-adv-x="1445" 
d="M1232 793l-132 36v42h324v-42l-109 -36l-260 -814h-45l-308 712h39l-297 -712h-46l-270 804l-124 46v42h413v-42l-131 -41l202 -613l-38 -4l294 721h34l309 -715l-38 -6zM692 1023l156 331h214v-19l-311 -312h-59z" />
    <glyph glyph-name="wdieresis" unicode="&#x1e85;" horiz-adv-x="1445" 
d="M1232 793l-132 36v42h324v-42l-109 -36l-260 -814h-45l-308 712h39l-297 -712h-46l-270 804l-124 46v42h413v-42l-131 -41l202 -613l-38 -4l294 721h34l309 -715l-38 -6zM566 1081q-49 0 -79.5 31.5t-30.5 76.5t30.5 76.5t79.5 31.5q48 0 78.5 -31.5t30.5 -76.5
t-30.5 -76.5t-78.5 -31.5zM932 1081q-48 0 -78.5 31.5t-30.5 76.5t30.5 76.5t78.5 31.5q49 0 79.5 -31.5t30.5 -76.5t-30.5 -76.5t-79.5 -31.5z" />
    <glyph glyph-name="yacute" unicode="&#xfd;" horiz-adv-x="1010" 
d="M586 152l-79 -188l-376 819l-124 46v42h418v-42l-131 -41zM222 -523q-52 0 -87 29t-35 79q0 27 10.5 46.5t28.5 30.5t37 11q20 0 37 -9.5t36.5 -18.5t43.5 -9q23 0 43 9.5t38.5 34.5t36.5 71l113 287l48 126l227 629l-133 36v42h327v-42l-107 -36l-384 -1006
q-46 -120 -89 -187.5t-89 -95t-102 -27.5zM478 1023l156 331h214v-19l-311 -312h-59z" />
    <glyph glyph-name="ydieresis" unicode="&#xff;" horiz-adv-x="1010" 
d="M586 152l-79 -188l-376 819l-124 46v42h418v-42l-131 -41zM222 -523q-52 0 -87 29t-35 79q0 27 10.5 46.5t28.5 30.5t37 11q20 0 37 -9.5t36.5 -18.5t43.5 -9q23 0 43 9.5t38.5 34.5t36.5 71l113 287l48 126l227 629l-133 36v42h327v-42l-107 -36l-384 -1006
q-46 -120 -89 -187.5t-89 -95t-102 -27.5zM352 1081q-49 0 -79.5 31.5t-30.5 76.5t30.5 76.5t79.5 31.5q48 0 78.5 -31.5t30.5 -76.5t-30.5 -76.5t-78.5 -31.5zM718 1081q-48 0 -78.5 31.5t-30.5 76.5t30.5 76.5t78.5 31.5q49 0 79.5 -31.5t30.5 -76.5t-30.5 -76.5
t-79.5 -31.5z" />
    <glyph glyph-name="ycircumflex" unicode="&#x177;" horiz-adv-x="1010" 
d="M586 152l-79 -188l-376 819l-124 46v42h418v-42l-131 -41zM222 -523q-52 0 -87 29t-35 79q0 27 10.5 46.5t28.5 30.5t37 11q20 0 37 -9.5t36.5 -18.5t43.5 -9q23 0 43 9.5t38.5 34.5t36.5 71l113 287l48 126l227 629l-133 36v42h327v-42l-107 -36l-384 -1006
q-46 -120 -89 -187.5t-89 -95t-102 -27.5zM255 1023l200 331h159l201 -331h-62l-234 209h32l-234 -209h-62z" />
    <glyph glyph-name="uni0233" unicode="&#x233;" horiz-adv-x="1010" 
d="M586 152l-79 -188l-376 819l-124 46v42h418v-42l-131 -41zM222 -523q-52 0 -87 29t-35 79q0 27 10.5 46.5t28.5 30.5t37 11q20 0 37 -9.5t36.5 -18.5t43.5 -9q23 0 43 9.5t38.5 34.5t36.5 71l113 287l48 126l227 629l-133 36v42h327v-42l-107 -36l-384 -1006
q-46 -120 -89 -187.5t-89 -95t-102 -27.5zM281 1138v102h508v-102h-508z" />
    <glyph glyph-name="ygrave" unicode="&#x1ef3;" horiz-adv-x="1010" 
d="M586 152l-79 -188l-376 819l-124 46v42h418v-42l-131 -41zM222 -523q-52 0 -87 29t-35 79q0 27 10.5 46.5t28.5 30.5t37 11q20 0 37 -9.5t36.5 -18.5t43.5 -9q23 0 43 9.5t38.5 34.5t36.5 71l113 287l48 126l227 629l-133 36v42h327v-42l-107 -36l-384 -1006
q-46 -120 -89 -187.5t-89 -95t-102 -27.5zM592 1023h-59l-311 312v19h214z" />
    <glyph glyph-name="uni1EF5" unicode="&#x1ef5;" horiz-adv-x="1010" 
d="M586 152l-79 -188l-376 819l-124 46v42h418v-42l-131 -41zM222 -523q-52 0 -87 29t-35 79q0 27 10.5 46.5t28.5 30.5t37 11q20 0 37 -9.5t36.5 -18.5t43.5 -9q23 0 43 9.5t38.5 34.5t36.5 71l113 287l48 126l227 629l-133 36v42h327v-42l-107 -36l-384 -1006
q-46 -120 -89 -187.5t-89 -95t-102 -27.5zM674 -521q-52 0 -84.5 34t-32.5 82q0 49 32.5 82.5t84.5 33.5q53 0 85 -33.5t32 -82.5q0 -48 -32 -82t-85 -34z" />
    <glyph glyph-name="uni1EF7" unicode="&#x1ef7;" horiz-adv-x="1010" 
d="M586 152l-79 -188l-376 819l-124 46v42h418v-42l-131 -41zM222 -523q-52 0 -87 29t-35 79q0 27 10.5 46.5t28.5 30.5t37 11q20 0 37 -9.5t36.5 -18.5t43.5 -9q23 0 43 9.5t38.5 34.5t36.5 71l113 287l48 126l227 629l-133 36v42h327v-42l-107 -36l-384 -1006
q-46 -120 -89 -187.5t-89 -95t-102 -27.5zM377 1259l29 135q94 -10 153.5 -26.5t92.5 -39.5t45.5 -52t12.5 -64q0 -41 -18.5 -79.5t-72.5 -71.5t-160 -58l-15 53q59 15 90 32t43 36.5t12 40.5q0 24 -14 42.5t-59 32t-139 19.5z" />
    <glyph glyph-name="uni1EF9" unicode="&#x1ef9;" horiz-adv-x="1010" 
d="M586 152l-79 -188l-376 819l-124 46v42h418v-42l-131 -41zM222 -523q-52 0 -87 29t-35 79q0 27 10.5 46.5t28.5 30.5t37 11q20 0 37 -9.5t36.5 -18.5t43.5 -9q23 0 43 9.5t38.5 34.5t36.5 71l113 287l48 126l227 629l-133 36v42h327v-42l-107 -36l-384 -1006
q-46 -120 -89 -187.5t-89 -95t-102 -27.5zM808 1339q-18 -112 -36 -180.5t-45.5 -99.5t-74.5 -31q-45 0 -78.5 27t-61 63t-54 63t-55.5 27q-15 0 -28.5 -13.5t-26 -50t-26.5 -106.5h-62q19 114 37 181.5t46 98.5t74 31q45 0 78.5 -27t60.5 -62.5t53.5 -63t56.5 -27.5
q15 0 28 13.5t26 50t27 106.5h61z" />
    <glyph glyph-name="zacute" unicode="&#x17a;" horiz-adv-x="831" 
d="M64 0v23l527 810l44 -38l-483 -2l96 52l-135 -250h-41l43 302h30l70 -26h551v-23l-530 -811l-34 39l445 3l-55 -48l152 250h45l-68 -281h-657zM394 1023l156 331h214v-19l-311 -312h-59z" />
    <glyph glyph-name="zdotaccent" unicode="&#x17c;" horiz-adv-x="831" 
d="M64 0v23l527 810l44 -38l-483 -2l96 52l-135 -250h-41l43 302h30l70 -26h551v-23l-530 -811l-34 39l445 3l-55 -48l152 250h45l-68 -281h-657zM451 1073q-52 0 -84.5 34t-32.5 82q0 49 32.5 82.5t84.5 33.5q53 0 85 -33.5t32 -82.5q0 -48 -32 -82t-85 -34z" />
    <glyph glyph-name="zcaron" unicode="&#x17e;" horiz-adv-x="831" 
d="M64 0v23l527 810l44 -38l-483 -2l96 52l-135 -250h-41l43 302h30l70 -26h551v-23l-530 -811l-34 39l445 3l-55 -48l152 250h45l-68 -281h-657zM467 1145h-32l234 209h62l-200 -331h-159l-201 331h62z" />
    <glyph glyph-name="thorn" unicode="&#xfe;" horiz-adv-x="1055" 
d="M141 1229q-13 15 -34 30t-51.5 31.5t-69.5 32.5v20l296 83h18l-8 -161v-1009q0 -56 29.5 -101t84.5 -70.5t128 -25.5q87 0 147.5 45t93 128.5t32.5 196.5q0 170 -77.5 260.5t-206.5 90.5q-58 0 -110.5 -10.5t-98.5 -31t-86 -53.5l-2 65q57 39 108 65.5t96.5 43.5
t85.5 24.5t74 7.5q127 0 213.5 -52t131 -144.5t44.5 -214.5q0 -154 -65 -266.5t-173.5 -173t-239.5 -60.5q-49 0 -96.5 8t-97.5 24.5t-105 44.5h90v-478l169 -46v-36h-471v36l151 46v1650z" />
    <glyph glyph-name="eth" unicode="&#xf0;" horiz-adv-x="1047" 
d="M510 -20q-128 0 -226 56t-153.5 156.5t-55.5 231.5q0 135 57 239.5t154 164.5t217 60q49 0 94.5 -12.5t86.5 -38t73.5 -61.5t52.5 -84l-23 -31q-7 161 -42.5 276.5t-107 195.5t-186.5 135.5t-282 95.5l16 60q180 -30 311 -85t219 -134t140 -181t74 -225.5t22 -267.5
q0 -181 -57 -304t-156.5 -185t-227.5 -62zM516 53q77 0 137 38.5t94.5 118.5t34.5 202q0 130 -34 219.5t-95 136t-143 46.5q-78 0 -137.5 -38.5t-94 -118t-34.5 -201.5q0 -130 34 -220t95 -136.5t143 -46.5zM387 988l-47 64l500 375l47 -63z" />
    <glyph glyph-name="uni0259" unicode="&#x259;" horiz-adv-x="891" 
d="M408 -20q-97 0 -169 43t-114.5 126t-53.5 202h618l-2 -66l-518 -21l69 42q7 -76 29 -132.5t61 -87t97 -30.5q72 0 125 39.5t83 115.5t30 184q0 118 -43.5 201.5t-122 128t-184.5 44.5q-39 0 -78 -11t-75.5 -32t-71.5 -52l-24 26q52 66 105 108.5t112 62.5t128 20
q117 0 209 -56.5t145 -156.5t53 -230q0 -127 -49 -234t-140 -170.5t-219 -63.5z" />
    <glyph glyph-name="uni01C6" unicode="&#x1c6;" horiz-adv-x="1895" 
d="M763 615q0 85 -60.5 141t-173.5 56q-90 0 -153 -45t-95.5 -127.5t-32.5 -197.5q0 -113 35.5 -191.5t99 -119t149.5 -40.5q78 0 148.5 25t137.5 79l2 -65q-71 -46 -121.5 -76t-89.5 -46t-73 -22t-70 -6q-126 0 -213 52t-132 145t-45 214q0 117 37.5 209.5t104 157.5
t153 99t182.5 34q50 0 97.5 -8t97.5 -24.5t105 -44.5l-90 -54v494q-12 14 -32 27t-45.5 25.5t-54.5 24.5v18l275 77h17l-10 -161v-1129q9 -10 25 -19t34.5 -18t37 -15.5t34.5 -9.5v-29l-250 -62h-18l-13 151v481zM1128 0v23l527 810l44 -38l-483 -2l96 52l-135 -250h-41
l43 302h30l70 -26h551v-23l-530 -811l-34 39l445 3l-55 -48l152 250h45l-68 -281h-657zM1531 1145h-32l234 209h62l-200 -331h-159l-201 331h62z" />
    <glyph glyph-name="uni01C9" unicode="&#x1c9;" horiz-adv-x="974" 
d="M333 82l153 -46v-36h-455v36l151 46v1147q-13 15 -34 30t-51.5 31.5t-69.5 32.5v20l296 83h19l-9 -161v-1183zM746 1183q-54 0 -88 35.5t-34 86.5q0 50 34 85t88 35t87.5 -35t33.5 -85q0 -51 -33.5 -86.5t-87.5 -35.5zM682 705q-11 11 -34.5 25.5t-53 29t-60.5 24.5v30
l287 78h16l-5 -165v-814q0 -57 -4.5 -98t-19.5 -75.5t-45 -70t-81.5 -81.5t-129.5 -111l-44 49q58 60 92.5 102.5t52 78t23.5 72.5t6 85v841z" />
    <glyph glyph-name="uni01CC" unicode="&#x1cc;" horiz-adv-x="1569" 
d="M351 708v-626l153 -46v-36h-454v36l151 46v612q-16 16 -48 32.5t-100 40.5v25l252 100h19zM632 36l153 46v492q0 55 -23 95t-68 62t-112 22q-79 0 -146.5 -29t-96.5 -68l-36 31q56 57 104.5 96.5t94 63t92.5 34t99 10.5q124 0 183.5 -77.5t59.5 -245.5v-486l152 -46v-36
h-456v36zM1340 1183q-54 0 -88 35.5t-34 86.5q0 50 34 85t88 35t87.5 -35t33.5 -85q0 -51 -33.5 -86.5t-87.5 -35.5zM1276 705q-11 11 -34.5 25.5t-53 29t-60.5 24.5v30l287 78h16l-5 -165v-814q0 -57 -4.5 -98t-19.5 -75.5t-45 -70t-81.5 -81.5t-129.5 -111l-44 49
q58 60 92.5 102.5t52 78t23.5 72.5t6 85v841z" />
    <glyph glyph-name="grave" unicode="`" horiz-adv-x="1000" 
d="M557 1023h-59l-311 312v19h214z" />
    <glyph glyph-name="acute" unicode="&#xb4;" horiz-adv-x="1000" 
d="M443 1023l156 331h214v-19l-311 -312h-59z" />
    <glyph glyph-name="dieresis" unicode="&#xa8;" horiz-adv-x="1000" 
d="M317 1081q-49 0 -79.5 31.5t-30.5 76.5t30.5 76.5t79.5 31.5q48 0 78.5 -31.5t30.5 -76.5t-30.5 -76.5t-78.5 -31.5zM683 1081q-48 0 -78.5 31.5t-30.5 76.5t30.5 76.5t78.5 31.5q49 0 79.5 -31.5t30.5 -76.5t-30.5 -76.5t-79.5 -31.5z" />
    <glyph glyph-name="macron" unicode="&#xaf;" horiz-adv-x="1000" 
d="M246 1138v102h508v-102h-508z" />
    <glyph glyph-name="circumflex" unicode="&#x2c6;" horiz-adv-x="1000" 
d="M220 1023l200 331h159l201 -331h-62l-234 209h32l-234 -209h-62z" />
    <glyph glyph-name="ring" unicode="&#x2da;" horiz-adv-x="1000" 
d="M500 1365q77 0 127.5 -50t50.5 -126t-50.5 -126t-127.5 -50q-76 0 -127 50t-51 126t51 126t127 50zM500 1072q50 0 82.5 33t32.5 84t-32.5 84t-82.5 33t-82.5 -33t-32.5 -84t32.5 -84t82.5 -33z" />
    <glyph glyph-name="tilde" unicode="&#x2dc;" horiz-adv-x="1000" 
d="M773 1339q-18 -112 -36 -180.5t-45.5 -99.5t-74.5 -31q-45 0 -78.5 27t-61 63t-54 63t-55.5 27q-15 0 -28.5 -13.5t-26 -50t-26.5 -106.5h-62q19 114 37 181.5t46 98.5t74 31q45 0 78.5 -27t60.5 -62.5t53.5 -63t56.5 -27.5q15 0 28 13.5t26 50t27 106.5h61z" />
    <glyph glyph-name="cedilla" unicode="&#xb8;" horiz-adv-x="1000" 
d="M402 -523q-72 0 -103 25.5t-31 57.5q0 22 14.5 35.5t37.5 13.5q26 0 43.5 -15.5t37.5 -32t54 -16.5q47 0 76 26.5t29 71.5q0 35 -21.5 60.5t-72 42.5t-136.5 28v17l198 256h73l-190 -262v92q93 -16 146 -43.5t75 -63t22 -76.5q0 -64 -36.5 -113t-94 -76.5t-121.5 -27.5z
" />
    <glyph glyph-name="uni02BC" unicode="&#x2bc;" horiz-adv-x="456" 
d="M89 925q95 42 132.5 86t37.5 91q0 30 -20.5 50t-47.5 35t-47.5 28t-20.5 27q0 51 34.5 85t90.5 34q57 0 95.5 -40.5t38.5 -115.5t-25.5 -134.5t-83 -109.5t-154.5 -95z" />
    <glyph glyph-name="caron" unicode="&#x2c7;" horiz-adv-x="1000" 
d="M516 1145h-32l234 209h62l-200 -331h-159l-201 331h62z" />
    <glyph glyph-name="breve" unicode="&#x2d8;" horiz-adv-x="1000" 
d="M500 1148q55 0 98.5 22t74.5 67.5t45 116.5h59q-25 -130 -60 -204t-87.5 -105.5t-129.5 -31.5t-129 31.5t-87.5 105.5t-60.5 204h59q14 -71 45 -116.5t75 -67.5t98 -22z" />
    <glyph glyph-name="dotaccent" unicode="&#x2d9;" horiz-adv-x="1000" 
d="M500 1073q-52 0 -84.5 34t-32.5 82q0 49 32.5 82.5t84.5 33.5q53 0 85 -33.5t32 -82.5q0 -48 -32 -82t-85 -34z" />
    <glyph glyph-name="ogonek" unicode="&#x2db;" horiz-adv-x="1000" 
d="M304 -125q-23 -43 -36 -77.5t-18.5 -63t-5.5 -53.5q0 -50 30 -77t77 -27q31 0 66 16.5t84 66.5l27 -26q-38 -57 -75.5 -91t-76 -50t-82.5 -16q-73 0 -120 44.5t-47 120.5q0 31 8 64.5t29 75t61 97.5l119 170h50z" />
    <glyph glyph-name="hungarumlaut" unicode="&#x2dd;" horiz-adv-x="1000" 
d="M572 1023l150 331h210v-19l-297 -312h-63zM332 1023l73 331h195v-19l-217 -312h-51z" />
    <glyph glyph-name="gravecomb" unicode="&#x300;" 
d="M57 1023h-59l-311 312v19h214z" />
    <glyph glyph-name="acutecomb" unicode="&#x301;" 
d="M-57 1023l156 331h214v-19l-311 -312h-59z" />
    <glyph glyph-name="uni0302" unicode="&#x302;" 
d="M-280 1023l200 331h159l201 -331h-62l-234 209h32l-234 -209h-62z" />
    <glyph glyph-name="tildecomb" unicode="&#x303;" 
d="M273 1339q-18 -112 -36 -180.5t-45.5 -99.5t-74.5 -31q-45 0 -78.5 27t-61 63t-54 63t-55.5 27q-15 0 -28.5 -13.5t-26 -50t-26.5 -106.5h-62q19 114 37 181.5t46 98.5t74 31q45 0 78.5 -27t60.5 -62.5t53.5 -63t56.5 -27.5q15 0 28 13.5t26 50t27 106.5h61z" />
    <glyph glyph-name="uni0304" unicode="&#x304;" 
d="M-254 1138v102h508v-102h-508z" />
    <glyph glyph-name="uni0306" unicode="&#x306;" 
d="M0 1148q55 0 98.5 22t74.5 67.5t45 116.5h59q-25 -130 -60 -204t-87.5 -105.5t-129.5 -31.5t-129 31.5t-87.5 105.5t-60.5 204h59q14 -71 45 -116.5t75 -67.5t98 -22z" />
    <glyph glyph-name="uni0307" unicode="&#x307;" 
d="M0 1073q-52 0 -84.5 34t-32.5 82q0 49 32.5 82.5t84.5 33.5q53 0 85 -33.5t32 -82.5q0 -48 -32 -82t-85 -34z" />
    <glyph glyph-name="uni0308" unicode="&#x308;" 
d="M-183 1081q-49 0 -79.5 31.5t-30.5 76.5t30.5 76.5t79.5 31.5q48 0 78.5 -31.5t30.5 -76.5t-30.5 -76.5t-78.5 -31.5zM183 1081q-48 0 -78.5 31.5t-30.5 76.5t30.5 76.5t78.5 31.5q49 0 79.5 -31.5t30.5 -76.5t-30.5 -76.5t-79.5 -31.5z" />
    <glyph glyph-name="hookabovecomb" unicode="&#x309;" 
d="M-158 1259l29 135q94 -10 153.5 -26.5t92.5 -39.5t45.5 -52t12.5 -64q0 -41 -18.5 -79.5t-72.5 -71.5t-160 -58l-15 53q59 15 90 32t43 36.5t12 40.5q0 24 -14 42.5t-59 32t-139 19.5z" />
    <glyph glyph-name="uni030A" unicode="&#x30a;" 
d="M0 1365q77 0 127.5 -50t50.5 -126t-50.5 -126t-127.5 -50q-76 0 -127 50t-51 126t51 126t127 50zM0 1072q50 0 82.5 33t32.5 84t-32.5 84t-82.5 33t-82.5 -33t-32.5 -84t32.5 -84t82.5 -33z" />
    <glyph glyph-name="uni030B" unicode="&#x30b;" 
d="M72 1023l150 331h210v-19l-297 -312h-63zM-168 1023l73 331h195v-19l-217 -312h-51z" />
    <glyph glyph-name="uni030C" unicode="&#x30c;" 
d="M16 1145h-32l234 209h62l-200 -331h-159l-201 331h62z" />
    <glyph glyph-name="uni030F" unicode="&#x30f;" 
d="M-72 1023h-63l-297 312v19h210zM168 1023h-51l-217 312v19h195z" />
    <glyph glyph-name="uni0311" unicode="&#x311;" 
d="M0 1230q-54 0 -98 -22.5t-75 -67.5t-45 -117h-59q25 131 60.5 204.5t87.5 105t129 31.5t129.5 -31.5t87.5 -105t60 -204.5h-59q-14 72 -45 117t-74.5 67.5t-98.5 22.5z" />
    <glyph glyph-name="uni0312" unicode="&#x312;" 
d="M117 1130q0 -54 -36 -85.5t-86 -31.5q-57 0 -92.5 36.5t-35.5 99.5q0 50 24 95t80 78.5t153 50.5l12 -57q-92 -19 -118.5 -43t-26.5 -49q0 -19 19.5 -32.5t44 -24t43.5 -19.5t19 -18z" />
    <glyph glyph-name="uni0335" unicode="&#x335;" 
d="M-304 1048v89h609v-89h-609z" />
    <glyph glyph-name="uni031B" unicode="&#x31b;" 
d="M350 998q0 -82 -66 -137t-221 -55h-110v65h47q81 -2 123.5 7t58.5 25t16 36q0 27 -6.5 42t-13.5 29t-7 36q0 29 22.5 48t55.5 19q48 0 74.5 -31t26.5 -84z" />
    <glyph glyph-name="uni0302_acutecomb" 
d="M226 1223l101 271h215v-20l-261 -251h-55zM-16 1232h32l-234 -209h-62l200 331h159l201 -331h-62z" />
    <glyph glyph-name="uni0302_gravecomb" 
d="M-226 1223h-55l-261 251v20h215zM16 1232l-234 -209h-62l201 331h159l200 -331h-62l-234 209h32z" />
    <glyph glyph-name="uni0302_hookabovecomb" 
d="M16 1232l-234 -209h-62l201 331h159l200 -331h-62l-234 209h32zM231 1276q86 21 113.5 48.5t27.5 59.5q0 24 -13.5 43t-58 32.5t-136.5 20.5l30 133q93 -9 151.5 -26t90.5 -40t45 -52t13 -64q0 -41 -18.5 -79t-71.5 -71t-159 -58z" />
    <glyph glyph-name="uni0302_tildecomb" 
d="M16 1102l-224 -121h-70l210 238h136l210 -238h-70l-224 121h32zM-199 1288h-57q17 75 34 121t41 66.5t63 20.5q30 0 63.5 -12.5t66 -29.5t61.5 -30t51 -13q27 0 44.5 17t30.5 62h57q-17 -75 -34 -121t-40.5 -66.5t-63.5 -20.5q-30 0 -63.5 12.5t-66 29.5t-61.5 29.5
t-51 12.5q-27 0 -44.5 -17t-30.5 -61z" />
    <glyph glyph-name="uni0306_acutecomb" 
d="M-38 1203l95 287h210v-20l-249 -267h-56zM0 1099q80 0 129 26t70 97h58q-24 -103 -56.5 -157t-80.5 -73t-120 -19q-71 0 -119.5 19t-81 73t-56.5 157h58q21 -69 70 -96t129 -27z" />
    <glyph glyph-name="uni0306_gravecomb" 
d="M38 1203h-56l-249 267v20h210zM0 1099q80 0 129 27t70 96h58q-24 -103 -56.5 -157t-80.5 -73t-120 -19q-71 0 -119.5 19t-81 73t-56.5 157h58q21 -71 70 -97t129 -26z" />
    <glyph glyph-name="uni0306_hookabovecomb" 
d="M-58 1201l-13 58q77 15 101.5 36.5t24.5 47.5q0 19 -12 34.5t-52 26.5t-122 16l22 122q119 -8 181.5 -31t85 -55.5t22.5 -72.5q0 -36 -17.5 -70.5t-68.5 -63t-152 -48.5zM0 1099q80 0 129 27t70 96h58q-24 -103 -56.5 -157t-80.5 -73t-120 -19q-71 0 -119.5 19t-81 73
t-56.5 157h58q21 -71 70 -97t129 -26z" />
    </font>
</defs>
</svg>
